#TITLE:Luvin' you "PAL mix";
#SUBTITLE:;
#ARTIST:cranky;
#TITLETRANSLIT:;
#SUBTITLETRANSLIT:;
#ARTISTTRANSLIT:;
#CREDIT:;
#BANNER:banner.png;
#BACKGROUND:bg.png;
#LYRICSPATH:;
#CDTITLE:cdtitle.png;
#MUSIC:luvinyou_pal.mp3;
#OFFSET:0.000;
#SAMPLESTART:26.960;
#SAMPLELENGTH:12.000;
#SELECTABLE:YES;
#DISPLAYBPM:160.000;
#BPMS:0.000=160.140,206.500=600.015,208.000=160.140,236.000=165.000,241.000=160.140,298.000=154.000;
#STOPS:206.500=0.400
;
#BGCHANGES:;
// cache tags:
#FIRSTBEAT:8.000;
#LASTBEAT:300.000;
#SONGFILENAME:Songs/Japanese Collaboration Mix/luvinyou_oni/luvinyou_oni.sm;
#HASMUSIC:1;
#HASBANNER:1;
#MUSICLENGTH:114.384;
// end cache tags

//---------------dance-single - ----------------
#NOTES:
     dance-single:
     :
     Challenge:
     10:
     0.766,0.820,0.463,0.201,0.590,537.000,53.000,23.000,0.000,0.000:
0000
0000
0000
0000
,
0000
0000
0000
0000
,
1001
0000
0000
0110
0000
0000
1001
0000
,
1000
0100
0010
0001
1000
0001
1000
0000
,
1001
0000
0000
0110
0000
0000
1001
0000
,
0001
0010
0100
1000
0001
1000
0001
0000
,
1001
0000
0000
0110
0000
0000
1001
0000
,
0100
0010
0100
0010
1000
0001
1000
0000
,
1001
0000
0000
0000
0000
1000
0001
0000
,
1000
0100
0001
0100
1000
0010
0001
0010
,
1000
0000
0100
0000
1000
0000
0010
0000
1000
0000
0001
0000
1000
0000
0010
1000
,
0001
0100
0001
1000
0001
0100
0010
1000
,
0010
0000
0100
0000
0010
0000
1000
0000
0001
0000
0100
0000
0001
0000
1000
0010
,
0100
0000
0001
0000
0010
0000
0001
0000
1000
0001
1000
0000
0010
0000
0100
0000
,
0010
0000
1000
0000
0100
0000
1000
0000
0010
0000
1000
0000
0001
0000
1000
0100
,
0010
0100
1000
0001
0010
0100
0010
0001
,
1000
0100
0010
0100
1000
0001
1000
0001
,
1100
0000
0101
0000
1100
1001
0101
0110
,
1000
0000
0100
1000
0000
0100
0000
0010
0000
0001
0000
1000
0001
0000
1000
0000
,
0010
0000
0100
0001
0000
1000
0000
0010
0000
0100
0000
0001
1000
0000
0001
0000
,
0010
0000
0100
1000
0000
0100
0000
0010
0000
0100
0000
1000
0001
0000
0100
0000
,
0010
0100
0000
0010
0100
0010
0100
0000
0001
0000
1000
0000
0001
0000
0000
0000
,
0001
0000
0010
0001
0000
0010
0000
0100
0000
1000
0000
0001
1000
0000
0001
0000
,
0100
0000
0010
1000
0000
0001
0000
0100
0000
0010
0000
1000
0001
0000
1000
0000
,
0100
0000
0010
0001
0000
0010
0000
0100
0000
0010
0000
0001
1000
0000
0010
0000
,
0100
0010
0000
0100
0010
0000
0100
0010
1000
0000
0100
0000
0010
0000
0000
0000
,
1010
0000
0000
0000
1001
0000
0000
0000
1000
0010
0000
0010
1000
0000
0010
0000
,
1000
0000
0001
0000
0100
0010
0000
0010
1000
0001
0000
0001
0100
0000
0010
0000
,
0110
0000
0000
1000
0100
0000
0010
0000
0110
0000
0000
0001
0010
0000
0100
0000
,
1000
0000
0001
0000
1000
0010
0000
0010
0100
0001
0000
0001
0100
0000
0001
0000
,
0101
0000
0000
0000
1001
0000
0000
0000
0001
0100
0000
0100
0001
0000
0100
0000
,
0001
0000
1000
0000
0010
0100
0000
0100
0001
1000
0000
1000
0010
0000
0100
0000
,
0110
0000
0000
0001
0010
0000
0100
0000
0110
0000
0000
1000
0100
0000
0010
0000
,
0001
0000
1000
0000
0001
0100
0000
0100
0010
1000
0000
1000
0010
0000
1000
0000
,
2002
0000
0000
3003
,
1100
0110
0101
1001
,
1000
0100
0010
0100
1000
0001
0100
0001
,
0010
0000
0100
0000
1000
0000
0100
0000
1000
0001
1000
0001
1000
0000
0000
0000
,
0010
0100
0001
0010
0001
1000
0100
1000
,
0001
0000
1000
0000
0010
0000
0100
0000
0001
1000
0001
1000
0001
1000
0001
1000
,
0010
0100
0001
1000
0001
0100
1000
0100
,
0001
0000
0010
0000
0100
0000
1000
0000
0001
1000
0001
1000
0001
0000
0000
0000
,
1000
0100
0001
0100
1000
0100
0001
0100
,
1000
0001
1000
0001
0100
0001
0100
0001
0010
0100
0010
0100
1000
0100
1000
0100
,
1000
0000
0001
0000
0001
0010
0000
0100
0000
1000
0000
1000
0001
0000
0100
0000
,
0001
0010
0000
0022
0000
0000
0033
0000
1000
0100
0000
2200
0000
0000
3300
0000
,
1000
0000
0100
0000
0100
1000
0000
0100
0000
0010
0000
0010
0001
0000
1000
0000
,
0001
0100
0000
0010
0000
1000
0000
0020
0200
0000
0000
0000
0330
0000
0000
0000
,
0001
0000
1000
0000
1000
0100
0000
0010
0000
0001
0000
0001
1000
0000
0100
0000
,
1000
0010
0000
2010
0000
0000
3001
0000
0100
0001
0000
0102
0000
0000
1003
0000
,
0010
0000
0100
0000
0100
0010
0000
1000
0000
0100
0000
0010
0001
0000
1000
0000
,
0010
0100
0000
0010
0100
0000
0010
0100
0000
0010
0100
0000
0000
0000
0000
0000
,
1000
0000
0100
1000
0000
0100
0000
0010
0000
0001
0000
1000
0001
0000
1000
0000
,
0010
0000
0100
0001
0000
1000
0000
0010
0000
0100
0000
0001
1000
0000
0001
0000
,
0010
0000
0100
1000
0000
0100
0000
0010
0000
0100
0000
1000
0001
0000
0100
0000
,
0010
0000
1000
0010
1000
0000
0000
0000
0001
0000
0100
0001
0100
0000
0000
0000
,
2002
3003
1100
0101
,
2002
3003
0011
1010
,
2002
3003
0110
0110
,
2002
0003
0100
3010
,
0001
0010
1000
0010
0001
0100
1000
0100
,
0001
0010
0100
1000
0100
1000
0010
1000
,
0001
0010
0001
0100
0010
0100
0001
1000
,
0100
1000
0010
0100
0001
1000
0001
0010
,
1000
0100
1000
0001
0100
0010
1000
0100
,
1000
0001
0010
0100
1000
0010
0100
0001
,
1000
0001
1000
0100
0010
0100
1000
0100
,
0001
0100
1000
0001
1001
0000
0110
0000
,
1100
0110
0011
0110
,
1001
0000
0000
0000
0110
0000
0000
0000
1001
0000
0000
0000
1000
0000
0001
1000
,
0001
0000
0000
0000
0100
0000
0010
0100
0010
0000
0000
0000
1000
0000
0001
1000
,
0001
0000
0000
0000
0000
0000
0000
0000
0100
0000
0000
0000
0010
0000
0100
0000
0020
0000
0000
0000
0000
0000
0000
0000
0000
0000
0000
0000
0000
0000
0000
0030
,
0200
0000
0000
0000
0000
0000
0000
0000
0000
0000
0000
0000
0000
0000
0000
0300
0002
0000
0000
0000
0000
0000
0000
0000
0000
0000
0000
0000
0000
0000
0000
0003
,
2000
0000
0002
0000
,
0000
0000
0000
3003
0000
0000
1001
0000
0000
1000
0100
0010
,
0001
0000
0000
0000
;
