#TITLE:Evening Star;
#SUBTITLE:Valley Of The Damned;
#ARTIST:Dragonforce;
#TITLETRANSLIT:;
#SUBTITLETRANSLIT:;
#ARTISTTRANSLIT:;
#CREDIT:Melonman67;
#BANNER:evening.PNG;
#BACKGROUND:evening-bg.PNG;
#LYRICSPATH:;
#CDTITLE:melonman67.png;
#MUSIC:08 - Evening Star.mp3;
#OFFSET:0.468;
#SAMPLESTART:34.632;
#SAMPLELENGTH:11.860;
#SELECTABLE:YES;
#BPMS:0.000=150.000,88.000=185.400,212.000=182.000,228.000=190.000,232.000=185.000,260.000=185.600,280.000=185.000,312.000=184.000,320.000=181.000,324.000=185.000,328.000=185.500,344.000=186.000,360.000=185.500,380.000=183.000,384.000=186.000,396.000=183.000,400.000=185.500,404.000=187.000,408.000=185.500,444.000=183.500,448.000=184.500,472.000=185.000,568.000=185.200,608.000=183.000,616.000=185.000,640.000=186.000,656.000=187.000,660.000=182.000,668.000=187.000,676.000=184.000,680.000=185.500,736.000=183.000,740.000=185.000,976.000=185.200,1072.000=185.000,1152.000=188.000,1160.000=184.500;
#STOPS:;
#BGCHANGES:;
// cache tags:
#FIRSTBEAT:16.000;
#LASTBEAT:1204.500;
#SONGFILENAME:Songs/CMDKDF Pack/Evening Star (Melonman67)/evening star.sm;
#HASMUSIC:1;
#HASBANNER:1;
#MUSICLENGTH:398.653;
// end cache tags

//---------------dance-single - ----------------
#NOTES:
     dance-single:
     :
     Challenge:
     12:
     1.000,1.000,0.677,0.399,1.000,2529.000,270.000,159.000,0.000,0.000:

0000
0000
0000
0000
,
0000
0000
0000
0000
,
0000
0000
0000
0000
,
0000
0000
0000
0000
,
1002
0000
0000
0000
0000
1000
0010
1003
,
2001
0000
0000
0000
0001
0100
0000
3000
,
1002
0000
0000
0000
1000
0010
0100
0013
,
2100
0000
0010
0001
0000
0001
0010
3000
,
1010
0000
0000
0000
1001
0000
0000
1000
,
0110
0001
1000
0101
0000
1010
0000
0000
,
1001
0000
0001
1000
0110
0000
0100
0001
,
0010
0000
0000
0100
0000
0000
1000
0000
,
1001
0000
0000
0001
0011
0010
0100
0000
,
1001
0000
0001
1000
0100
0000
0010
0001
,
0010
0000
0000
0001
1000
0000
0000
0010
,
0101
0001
1000
1010
0000
0100
0001
0010
,
0001
1000
0000
0100
1010
0000
0010
0100
,
0011
0000
1000
0001
0010
0100
0010
0001
,
2002
0000
0000
0000
,
0000
0000
0000
0000
,
0000
0000
0000
0000
,
3003
0000
0000
0000
,
1001
0000
0001
1000
0010
1000
0100
0010
,
0002
0000
0013
0200
0000
0000
0000
0000
,
0000
0000
0000
0000
1300
0000
0100
0000
0001
0000
0100
0000
1000
0001
0010
0000
,
0200
0000
1300
0020
0000
0000
0000
0000
,
0030
0000
0100
0000
0001
0000
1000
0000
0010
0000
1000
0000
0100
0010
0001
0000
,
0020
0000
0130
2000
0000
0000
0000
0000
,
0000
0000
3001
0000
1000
0000
0100
0000
0010
0000
0000
0100
0000
0000
1000
0000
,
0020
0000
0000
0230
0000
0000
0301
0000
,
1000
1010
0110
0101
0011
0110
1001
1100
,
1010
0000
0011
0220
0000
0000
0000
0000
,
0000
0000
0330
0000
1010
0000
1100
0000
0011
0000
1100
0000
1000
0001
0010
0000
,
1100
0000
0101
2200
0000
0000
0000
0000
,
3300
1001
1010
0101
0011
0101
1010
1001
,
0110
0000
0011
2200
0000
0000
0000
3300
,
0000
0000
1100
0000
0110
0000
0011
0000
0101
0000
0000
0110
0000
0000
1010
0000
,
1000
0100
0010
0100
1000
0010
0100
0001
0010
0100
1000
0001
0010
0001
1000
0010
,
1000
0000
0001
1000
0001
0010
0100
0000
1000
0010
0100
0001
1000
0000
0001
0010
,
0100
0000
0100
0000
1000
0001
0100
0000
0001
0000
0100
0010
1000
0000
1000
0000
,
0001
0000
1000
0100
0010
0001
0010
0000
0010
0100
1000
0001
1000
0000
0001
0100
,
0001
0000
0100
0010
1000
0001
1000
0000
1000
0001
0010
0100
1000
0000
0001
1000
,
0001
0000
0001
0010
0100
0010
0100
0000
0100
1000
0010
0100
0001
0000
0001
1000
,
0001
0000
1000
0001
1000
0001
0010
0000
0100
1000
0010
0100
0001
0000
0010
0100
,
1000
0000
1000
0001
0010
0001
1000
0000
1000
0001
0100
0001
1000
0000
1000
0001
,
0010
0000
0010
0100
1000
0100
0010
0000
0001
0010
0100
0010
0001
0000
0001
1000
,
1010
0000
0100
0000
0001
0010
0100
0000
1001
0000
0010
0000
1000
0100
0010
0000
,
1001
0000
0001
0000
0010
0100
1000
0000
1001
0000
1000
0000
0010
0100
0001
0000
,
0011
0000
0010
0000
0100
0010
0001
0000
1001
0000
1000
0000
0010
0100
0001
0000
,
1001
0000
1000
0000
0100
0010
0001
0000
1001
0000
0100
0000
1010
0000
0100
0000
,
1100
0000
1000
0000
0001
0010
0100
0000
0110
0000
0010
0000
0001
1000
0010
0000
,
0101
0000
0100
0000
0010
1000
0100
0000
1010
0000
0010
0000
0100
0001
0010
0000
,
0011
0000
0001
0000
1000
0010
1000
0000
1010
0000
0010
0000
0100
0001
1000
0000
,
0001
0010
0100
1000
0010
0100
0001
0010
0100
1000
0010
0100
0001
0010
0100
1000
,
0001
0000
1000
0001
0100
0010
0110
0000
0010
1000
0100
0010
0011
0000
0010
0100
,
1100
0000
1000
0001
0010
0001
0011
0000
0010
0100
1000
0100
0110
0000
0010
0000
,
0001
0000
0010
0100
1000
0000
2002
0000
3003
0000
1000
0000
0010
0000
0100
0000
,
0001
0000
1000
0010
1000
0000
2200
0000
3300
0000
1000
0000
0001
0000
0100
0000
,
0101
0000
0100
0010
1000
0100
0110
0000
0010
0001
1000
0001
0011
0000
0001
1000
,
1100
0000
1000
0001
0100
0010
1010
0000
0010
0100
0010
1000
1100
0000
1000
0000
,
0001
0010
0100
0010
1000
0010
0100
0010
,
0011
0000
0000
0101
0000
0000
0110
0000
0110
0000
0000
1010
0000
0000
1100
0000
,
1001
0000
0001
0000
1000
0010
0100
0000
0001
0000
0010
0000
0001
1000
0010
0000
,
1000
0000
0100
0000
1000
0010
0100
0000
0001
0000
0010
0000
0001
1000
0100
0000
,
0010
0000
0001
0000
1000
0010
1000
0000
0010
0000
0100
0000
0001
1000
0010
0000
,
0100
0000
0001
0000
1000
0010
0100
0000
0010
0000
1000
0000
0100
0010
0001
0000
,
0010
0000
0100
0000
0010
0001
1000
0000
0010
0000
0100
0000
0001
1000
0010
0000
,
0100
0000
0001
0000
0010
0100
1000
0000
0100
0000
0010
0000
0001
0010
0100
0000
,
2200
0000
0000
0000
0000
0000
0000
3300
,
0022
0000
0000
0000
0000
0000
0000
0033
,
1000
0000
0100
0010
0001
1000
0001
0000
1000
0010
0100
0001
0010
0000
0100
1000
,
0100
0000
0010
0001
1000
0001
0010
0000
0100
0010
0001
1000
0020
0000
0000
0000
,
1030
0000
0001
1000
0010
1000
0100
0000
0010
0001
0010
0100
1000
0000
0001
1000
,
0010
0000
0100
0001
1000
0010
1000
0000
0100
0010
0001
0010
0200
0000
0000
0000
,
1300
0000
0001
1000
0010
0100
0001
0000
0010
0100
1000
0010
0100
0000
0001
0010
,
0100
0000
0010
0001
1000
0100
1000
0000
0001
0100
0010
0100
0002
0000
0003
0000
,
2002
0003
0010
0200
0000
0300
0002
3003
,
0022
0000
0030
2000
0000
3000
0200
0303
,
2020
0000
0000
0000
,
0000
0000
0000
3030
,
1000
0000
0001
1000
0100
0000
0022
0000
0033
0000
0001
0000
0010
0000
0001
0000
,
1000
0000
0010
0100
0001
0000
0202
0000
0303
0000
0100
0000
0010
0000
1000
0000
,
2002
0000
0000
0000
,
0000
0000
0000
0000
0000
0000
0000
3003
,
0202
0000
0000
0000
0000
0000
0000
0303
,
2020
0000
0000
0000
0000
0000
0000
3030
,
1001
0000
0001
0000
1000
0010
0100
0001
0010
0000
0100
0000
1000
0001
0010
0001
,
1000
0000
0100
0000
0010
0001
1000
0010
0100
0000
0001
0000
0100
1000
0100
0001
,
0010
0000
1000
0000
0010
0001
0010
0100
1000
0001
0100
0010
1000
0100
0010
0001
,
1000
0010
0100
0001
0010
0100
1000
0010
0100
0001
0010
0100
0010
0001
1000
0100
,
0010
0000
0001
0000
1000
0000
0001
0000
0010
0100
1000
0001
0010
0000
0100
0000
,
1000
0010
0100
0001
0010
0000
0001
0000
1000
0000
0010
0000
1000
0001
0010
0100
,
1000
0100
0010
0001
1000
0001
0100
0001
0010
0001
1000
0010
0100
0001
1000
0010
,
1000
0100
1000
0100
0010
0001
0010
0100
1000
0001
0010
0100
0010
0001
1000
0010
,
0100
0001
1000
0010
0100
0010
1000
0100
0010
0001
0010
0100
0001
0100
1000
0001
,
0200
0000
0000
0000
0000
0000
0000
0300
,
1001
0000
0000
0000
,
0000
0000
0000
0000
,
1001
0000
0000
0000
,
1000
0001
1000
0010
0100
0001
0010
0100
1000
0100
0010
0001
0010
0100
1000
0100
,
1000
0000
0000
0000
0100
0000
0000
0000
0010
0000
0000
0000
0001
0000
0010
0100
,
1000
0000
0000
0000
0001
0000
0000
0000
1000
0000
0000
0000
0010
0000
0100
0001
,
0010
0100
0100
0010
0100
0100
0010
0100
,
0110
0000
0000
0000
0010
0001
1000
0010
0100
0001
0010
0100
1000
0100
0010
0001
,
2002
0000
0000
0000
0000
0000
0000
3003
,
0202
0000
0000
0000
0000
0000
0000
0303
,
2020
0000
0000
0000
0000
0000
0000
3030
,
2200
0000
0000
0000
0000
0000
0000
3300
,
0022
0000
0000
0000
0000
0000
0000
0033
,
2002
0000
0000
0000
0000
0000
0000
3003
,
0220
0000
0000
0000
0000
0000
0000
0330
,
0010
1000
0100
0010
0001
1000
0001
0010
0100
1000
0010
0100
0001
0010
0001
1000
,
1001
0000
0001
1000
0001
0010
0100
0000
1000
0000
0001
0000
0100
0000
0010
0000
,
0101
0000
0001
1000
0001
0010
0100
0000
1000
0000
0001
0000
1000
0000
0100
0000
,
1010
0000
1000
0001
0010
0100
1000
0000
0001
0000
1000
0000
0010
0000
0100
0000
,
0011
0000
0001
0010
0100
1000
0100
0000
0010
0000
0001
0000
1000
0000
0100
0000
,
0010
0001
0100
0000
0010
0000
1000
0000
0100
0000
0010
0001
0010
1000
0010
0000
,
1001
1000
0010
0100
0001
0010
0100
1000
,
1100
0000
1000
0000
0001
1000
0010
0000
0100
0000
0001
0000
0010
0000
0100
0000
,
1100
0000
0000
0000
1000
0000
0001
0000
0010
0100
1000
0100
0010
0001
0010
0100
,
1000
0000
0010
0100
0001
0010
0100
1000
,
0100
0000
0001
0200
0000
0000
0000
0000
,
0300
0000
1000
0000
0010
0000
0001
0000
0010
0000
0100
0000
0001
0010
0100
0000
,
1000
0000
0001
0200
0000
0000
0000
0000
,
0300
0010
1000
0001
0010
0001
1000
0100
,
0010
0000
0001
0020
0000
0000
0000
0000
,
0030
0000
0100
0000
1000
0000
0010
0000
0100
0000
0000
0001
0000
0000
1000
0000
,
2200
0000
3300
0220
0000
0330
0022
0033
,
1001
0000
1000
0010
0100
0001
0011
0000
0100
1000
0100
0010
1001
0000
0001
1000
,
1010
0000
0100
0001
1000
0100
1100
0000
1000
0001
0010
0100
0110
0000
0110
0000
,
1001
0000
1000
0001
0100
0010
1010
0000
1000
0001
0010
0100
1001
0000
0100
0010
,
0011
0000
0001
1000
0100
0010
1001
0000
1000
0001
0100
0010
1010
0000
1010
0000
,
1100
0000
1000
0001
0100
0010
0101
0000
0001
0010
0100
1000
0011
0000
0001
1000
,
1100
0000
0100
0010
0100
1000
1100
0000
1000
0001
0100
0010
1010
0000
1010
0000
,
0101
0000
0001
0010
0100
1000
1001
0000
0001
0010
0001
0010
0101
0000
1001
0000
,
0001
1000
0010
0100
0001
1000
0010
1000
0100
0010
0001
0010
1000
0010
0001
0010
,
1001
0000
1000
0000
0001
0100
0010
0000
1000
0000
0100
0000
1000
0001
0100
0000
,
0001
0000
0010
0000
0001
0100
0010
0000
1000
0000
0100
0000
1000
0001
0010
0000
,
0100
0000
1000
0000
0001
0100
0001
0000
0100
0000
0010
0000
1000
0001
0100
0000
,
0010
0000
1000
0000
0001
0100
0010
0000
0100
0000
0001
0000
0010
0100
1000
0100
,
0010
0000
0001
0000
1000
0001
0100
0000
0010
0000
0100
0000
0001
1000
0010
0000
,
0100
0000
0001
0000
0010
0100
1000
0000
0100
0010
0100
0010
0001
0010
0100
1000
,
0002
0000
0000
0203
0000
0000
0320
0000
,
2030
0000
0000
3002
0000
0000
0020
0033
,
1001
0000
1000
0010
0100
0001
0011
0000
0001
1000
0010
0100
1010
0000
1000
0001
,
0011
0000
0010
0100
0010
0001
1001
0000
1000
0001
0100
0010
1010
0000
1010
0000
,
1001
0000
1000
0010
1000
0100
0110
0000
0010
0001
0010
0100
1100
0000
1000
0001
,
0011
0000
0001
1000
0010
0100
0101
0000
0001
0010
0100
1000
0110
0000
0110
0000
,
0011
0000
0001
1000
0010
0100
0101
0000
0001
1000
0100
1000
1010
0000
0010
0100
,
0101
0000
0001
1000
0100
0010
0011
0000
0010
0100
1000
0001
0011
0000
0011
0000
,
2001
0000
0000
0010
0000
0000
0100
3000
,
1002
0000
0000
0100
0000
0000
0010
0003
,
0202
0000
0000
0000
,
0000
0000
0000
0303
,
1001
0000
1000
0001
0010
0000
2200
0000
3300
0000
1000
0000
0100
0000
1000
0000
,
1001
0000
0100
0010
1000
0000
2020
0000
3030
0000
0010
0000
0100
0000
0001
0000
,
2002
0000
0000
0000
,
0000
0000
0000
0000
0000
0000
0000
3003
,
2020
0000
0000
0000
0000
0000
0000
3030
,
0202
0000
0000
0000
0000
0000
0000
0303
,
1001
0001
0010
1100
1000
0001
0101
0100
,
1010
1000
0001
0011
0010
0100
1100
1000
,
1001
0001
0100
1010
0100
0001
0011
0010
,
0001
0010
0100
1000
0100
0010
0100
1000
0100
0010
0001
0010
0100
0010
0001
1000
,
1001
0001
0100
0101
0001
0010
1100
1000
,
1001
0001
0100
0110
0010
1000
1010
0010
,
1010
0000
0000
1001
0000
0000
0011
0000
,
1001
0000
0000
1010
0000
0000
0101
0000
,
1001
0000
0011
1100
0000
0011
1100
0000
,
2002
0000
0000
0000
0000
0000
0000
3003
,
1001
0000
0000
0000
,
0000
0000
0000
0000
,
1001
0000
0000
0000
,
0001
1000
0001
0100
0010
1000
0100
0010
0001
0010
0100
1000
0100
0010
0001
0010
,
0011
0000
0000
0000
0110
0000
0000
0000
1100
0000
0000
0000
1000
0000
0100
0010
,
1001
0000
0000
0000
0101
0000
0000
0000
0110
0000
0000
0000
0100
0000
0010
1000
,
0110
0010
0010
0110
0010
0010
0110
0010
,
0110
0000
0000
0000
0100
0000
1000
0000
0010
1000
0100
0010
0001
0010
0100
1000
,
2002
0000
0000
0000
0000
0000
0000
3003
,
2020
0000
0000
0000
0000
0000
0000
3030
,
0202
0000
0000
0000
0000
0000
0000
0303
,
0022
0000
0000
0000
0000
0000
0000
0033
,
2200
0000
0000
0000
0000
0000
0000
3300
,
2002
0000
0000
0000
0000
0000
0000
3003
,
0220
0000
0000
0000
0000
0000
0000
0330
,
0010
0001
0010
0100
1000
0010
0100
0001
0010
0100
0010
0001
1000
0010
0100
0001
,
1000
0000
0001
0000
0100
0010
1000
0000
0100
0000
0010
0000
0001
1000
0010
0000
,
0100
0000
0001
0000
1000
0001
1000
0000
0010
0000
0100
0000
0001
0000
0010
0000
,
0100
0000
1000
0000
0100
0010
0001
0000
1000
0000
0001
0000
0100
0000
0010
0000
,
1000
0000
0100
0000
0001
0100
1000
0000
0010
0000
0100
0000
0001
0100
1000
0000
,
0100
0000
0001
0000
0010
0100
1000
0000
0100
0000
0010
0000
0001
0000
0010
0000
,
0100
0000
1000
0000
0001
1000
0010
0000
0100
0000
0001
0000
0010
0000
0100
0000
,
1000
0000
0001
0000
0010
0100
1000
0000
0001
0000
0100
0000
0010
0000
1000
0000
,
0100
0010
0001
0010
0100
1000
0001
0100
0010
1000
0010
0100
0001
0010
0100
1000
,
1100
1000
1000
0011
0010
0010
1100
1000
,
1001
0001
0001
0101
0100
0100
1010
1000
,
0001
0010
0100
0010
0001
1000
0010
0100
0010
1000
0100
1000
0001
0100
0001
0010
,
0100
1000
0010
0100
0010
1000
0001
0100
0010
0100
0001
0010
0200
0000
0300
0000
,
1100
1000
0100
0011
0001
1000
0101
0100
,
1010
0010
0100
0101
0100
0001
0011
0010
,
0100
1000
0001
1000
0010
1000
0100
0010
0001
0100
0001
1000
0010
0100
0001
1000
,
0100
0010
0001
1000
0100
0010
0100
1000
0001
0100
0010
1000
0001
0010
0100
1000
,
0200
0000
0000
0000
0000
0000
0310
0001
,
0200
0000
0320
2030
,
3002
0000
0000
0000
0000
0000
0000
0000
0000
0000
0000
0000
0013
0100
1000
0001
,
0020
0000
0000
0000
0030
0000
0020
0030
0020
0030
0020
0030
0100
1000
0001
0100
,
0020
0000
0000
0000
0000
0000
0000
0000
1030
0000
0001
0000
0010
0100
1000
0100
,
0020
0000
0032
0000
,
1003
0001
0100
0010
1000
0001
0010
0100
1000
0100
1000
0010
1000
0010
0100
0001
,
0010
0100
1000
0010
0100
0010
1000
0100
0010
0001
0020
0000
0000
0000
0000
0000
,
0031
1000
0010
0100
0001
0010
0100
1000
0001
0100
0010
1000
0100
1000
0010
0100
,
0001
0010
0100
0010
0001
1000
0100
0010
0002
0000
0000
0000
0000
0000
0000
0000
,
0013
0100
1000
0001
0100
0010
1000
0001
0100
0010
0100
0001
0010
0100
1000
0100
,
0010
0100
1000
0010
0100
0001
0010
0100
0020
0000
0000
0000
0000
0000
0000
0000
,
0031
1000
0100
1000
0010
0100
0001
0100
1000
0100
0001
0010
0100
1000
0010
0100
,
0001
1000
0010
1000
0100
1000
0010
0100
0001
0010
0100
1000
0010
0100
0001
0010
,
0001
1000
0100
1000
0001
0100
0010
1000
0100
0010
0001
0010
0100
1000
0001
0010
,
0100
1000
0010
0100
0001
0010
0100
1000
,
0200
0000
0300
0010
0001
1000
0001
0100
,
1000
0000
0100
0000
0001
0000
0010
0000
0100
1000
0100
0000
0010
0000
0001
0000
,
1000
0010
0100
0001
0010
0100
1000
0100
0001
0100
1000
0010
0100
0001
0010
1000
,
0010
0001
2000
0000
3001
0100
0010
1000
0100
0010
0001
0010
0200
0000
0000
0000
,
1300
0100
1000
0100
1000
0000
0000
0000
0010
1000
0010
1000
0010
0000
0000
0000
,
0100
0010
0100
0010
0100
0000
0000
0000
0001
0100
0001
0100
0001
0000
0000
0000
,
0001
0010
0001
0010
0100
0010
0100
0010
0001
0010
0001
0010
0001
0100
0001
0100
,
0001
1010
0101
1010
0002
0000
0000
0003
,
0001
0010
0100
1000
0010
1000
0100
0010
0001
0010
0100
1000
0010
1000
0100
0010
,
0001
0010
0100
1000
0100
1000
0100
0010
0001
0010
0100
1000
0100
1000
0100
0010
,
0001
0100
0010
1000
0100
1000
0010
0100
0001
0100
0010
1000
0100
1000
0010
0100
,
0001
1000
0010
1000
0100
1000
0010
1000
0001
1000
0100
1000
0010
1000
0100
1000
,
0001
0010
0100
1000
0010
1000
0100
0010
0001
0010
0100
1000
0010
1000
0100
0010
,
0001
0010
0100
1000
0100
1000
0100
0010
0001
0010
0100
1000
0100
1000
0100
0010
,
0001
0100
0010
1000
0100
1000
0010
0100
0001
0100
0010
1000
0100
1000
0010
0100
,
0001
1000
0010
1000
0100
1000
0010
1000
0001
1000
0100
1000
0010
1000
0100
1000
,
0001
1000
0010
1000
0100
1000
0010
1000
0001
1000
0010
1000
0100
1000
0010
1000
,
0001
0100
0010
0100
1000
0100
0010
0100
0001
0100
0010
0100
1000
0100
0010
0100
,
0001
0010
0100
0010
1000
0010
0100
0010
0001
0010
0100
0010
1000
0010
0100
0010
,
0001
1000
0100
1000
0010
1000
0001
1000
0010
1000
0100
1000
0001
1000
0010
1000
,
0001
1000
0010
1000
0100
1000
0010
1000
0001
1000
0010
1000
0100
1000
0010
1000
,
0001
0100
0010
0100
1000
0100
0010
0100
0001
0100
0010
0100
1000
0100
0010
0100
,
0001
0010
0100
0010
1000
0010
0100
0010
0001
0010
0100
0010
1000
0010
0100
0010
,
0001
1000
0100
1000
0100
1000
0010
1000
0100
1000
0100
1000
0001
1000
0100
1000
,
0001
0010
0100
1000
0100
1000
0001
0010
0001
0010
0100
1000
0100
1000
0001
0010
,
0001
0010
0100
1000
0100
1000
0001
0010
0001
1000
0001
1000
0001
1000
0001
1000
,
0002
0000
0000
0013
0100
0010
0001
1000
,
0002
0000
0000
1003
0010
0100
0010
1000
,
0200
0000
0000
0310
0001
0010
0100
0010
,
0002
0000
0000
1003
0200
0000
0310
0000
,
0001
1000
0100
1000
0001
0000
1000
0000
0001
1000
0010
1000
0001
0000
1000
0000
,
0001
0100
0010
0100
0001
0000
1000
0000
0001
0010
0100
0010
0001
0000
1000
0000
,
0001
0010
0100
1000
0010
0100
0001
0010
0100
1000
0001
0100
,
0010
1000
0001
0010
0100
1000
0200
0000
0000
0320
0000
0000
,
0031
0010
0100
1000
0010
0100
0001
0010
0001
1000
0010
0100
0001
0010
0100
0000
,
1000
0100
0010
0100
1000
0000
0100
0010
0001
1000
0010
0100
0001
0010
0100
0000
,
1000
0000
0100
0000
0001
0100
1000
0010
0100
0001
1000
0100
0010
0000
0001
0000
,
0010
0100
1000
0001
0100
0000
0010
0000
2000
0000
0000
0000
3001
0100
0010
0000
,
1000
0010
0100
0001
0010
0100
0010
0001
1000
0010
0100
0001
,
0010
0100
1000
0010
0100
0001
1000
0100
1000
0010
0100
0001
,
0010
0000
0000
0000
0000
0000
0000
0000
0000
0100
2000
0000
0000
0000
0000
0000
0000
0000
3001
0000
0000
0000
0000
0000
,
2000
0000
3002
0000
,
1003
0000
1000
0010
0000
0010
0100
0001
,
0010
0000
0010
0100
0000
0100
1000
0001
,
1000
0200
0000
2300
0000
3010
0100
0001
,
0020
0000
0130
2000
0000
0000
0000
3001
,
0020
0000
0000
0031
0020
0000
0230
0000
,
0302
0000
0000
0003
0002
0000
0000
0103
,
1000
0100
0010
0001
1000
0010
0100
0001
0010
1000
0010
0001
1000
0010
0100
0001
,
0100
1000
0100
0001
0010
1000
0010
0001
2000
0000
0000
0000
0000
0000
3000
0000
,
1001
1000
0010
0100
0001
0010
0100
1000
,
1001
0000
1000
0000
0001
0010
0001
0000
0010
0000
0100
0000
1000
0000
0010
0000
,
0101
0000
0100
0000
0010
1000
0100
0000
0010
0000
0001
0000
0010
0000
0100
0000
,
1100
0000
1000
0000
0100
0010
0001
0000
0010
0000
1000
0000
0010
0000
0001
0000
,
1001
0000
1000
0010
0100
0001
0011
0000
0010
0100
1000
0100
0110
0000
0010
0001
,
2002
0000
0000
3003
1100
0000
0110
0000
,
0011
0001
1000
0010
0100
0001
0010
0100
,
1000
0000
0001
0000
1000
0001
0100
0010
0100
0010
1000
0100
0010
0001
0010
0100
,
1000
0000
0001
0000
0010
0100
1000
0000
1001
0000
0001
0000
0100
0010
1000
0000
,
1100
0000
0100
0000
0010
0001
1000
0000
1001
0000
0001
0000
0100
0010
1000
0000
,
1100
0000
0100
0000
0010
0001
1000
0000
1010
0000
0010
0000
0100
0001
0100
0000
,
1010
0000
1000
0000
0100
0010
0001
0000
1100
0000
0100
0000
1000
0001
0100
0000
,
0101
0000
0100
0000
0010
1000
0100
0000
0110
0000
0100
0000
1000
0001
0100
0000
,
1010
0000
0100
0000
0001
0100
0010
0000
1010
0000
1000
0000
0100
0001
0100
0000
,
0101
0000
0100
0000
1000
0010
0100
0000
0101
0000
0010
0000
1000
0001
0100
0000
,
0011
0000
0010
0000
0100
1000
0100
0000
0011
0000
1000
0000
0001
0100
0010
0000
,
0001
1000
0010
0100
0001
0010
1000
0010
0001
1000
0010
0100
0001
0100
1000
0100
,
0001
0010
0100
1000
0100
0001
0100
1000
0010
0001
0010
1000
0100
0010
0001
1000
,
0100
0010
0100
1000
0010
0100
0001
1000
0001
0100
1000
0100
0010
1000
0010
0001
,
0010
0100
0001
0010
1000
0010
0100
1000
0100
0010
0001
0010
0100
1000
0100
0010
,
1001
0000
0000
0000
0000
1100
0000
0000
,
0000
0011
0000
0000
0000
0000
0000
0000
0000
0000
0000
0000
0000
0000
0000
0000
0101
0000
0000
0000
0000
0000
0000
0000
0000
0000
0000
0000
0000
0000
0000
0000
,
0000
0110
0000
0000
,
0000
2200
0000
0000
,
0000
0000
0000
0000
,
0000
0000
0000
0000
,
3300
0000
0000
0000
0000
0000
0000
0002
,
0000
0000
0000
0000
0000
0000
0003
0000
0000
0000
0000
0000
1000
0000
0000
0000
0100
0000
0000
0000
0010
0000
0000
0000
0001
0000
0000
0000
0100
0000
0000
0000
0010
0000
0000
0000
1000
0000
0000
0001
0000
0000
0100
0000
0000
0010
0000
0000
,
0100
0001
1000
0010
0100
0010
0001
0100
0010
0100
1000
0100
0010
0100
0001
1000
,
0100
0000
0000
0010
0000
0000
0100
0000
0010
0000
0001
0000
0010
0000
0100
1000
0000
0000
0100
0000
0000
0010
0000
0000
0001
0000
0000
0100
0000
0000
0010
0000
0000
1000
0000
0000
0010
0000
0000
0100
0000
0000
0010
0000
0000
0001
0000
0000
,
0100
0010
1000
0100
0010
0001
0100
0010
1000
0100
0010
0100
0010
1000
0100
0010
,
0100
1000
0010
0001
1000
0010
0100
0001
1000
0100
0010
0100
1000
0001
0000
0000
,
0000
0000
2002
0000
,
0000
3003
0000
0000
0000
0000
0000
0000
;
