#TITLE:HARTMANS CRAP;
#SUBTITLE:;
#ARTIST:killingscum;
#TITLETRANSLIT:;
#SUBTITLETRANSLIT:;
#ARTISTTRANSLIT:;
#CREDIT:;
#BANNER:hartmanscrap-bn.png;
#BACKGROUND:hartmanscrap-bg.png;
#LYRICSPATH:;
#CDTITLE:!ExigeTitle.png;
#MUSIC:02 HARTMANS CRAP.mp3;
#OFFSET:-2.890;
#SAMPLESTART:64.847;
#SAMPLELENGTH:16.800;
#SELECTABLE:YES;
#BPMS:0.000=170.000;
#STOPS:;
#BGCHANGES:;
// cache tags:
#FIRSTBEAT:0.000;
#LASTBEAT:248.250;
#SONGFILENAME:Songs/Fresh Flock of Fantastic Files F4/(Exige) HARTMANS CRAP/hartmanscrap.sm;
#HASMUSIC:1;
#HASBANNER:1;
#MUSICLENGTH:96.044;
// end cache tags

//---------------dance-single - ----------------
#NOTES:
     dance-single:
     :
     Hard:
     12:
     1.000,1.000,1.000,0.000,1.000,649.000,171.000,0.000,0.000,0.000:
0001
0000
0001
0000
0001
0000
0001
0010
0100
1000
0100
0000
1000
0000
1000
0000
,
0100
0000
1000
0000
0100
0000
0010
0100
0010
0100
1000
0000
1000
0100
0000
0010
,
0001
0000
0010
0000
0100
0000
1000
0001
1000
0100
0010
0000
0001
0000
1000
0000
,
0001
0010
0101
0010
0010
0011
0101
0001
,
0011
0001
1000
0001
0110
0010
0100
0001
,
1100
0010
1000
0100
0110
0010
1000
0100
,
0101
0001
0010
0100
0110
0100
0010
0001
,
1001
0001
1000
0100
0011
0100
0010
0001
,
1010
0001
0110
1000
0101
0100
0011
0001
,
1010
0100
0011
0010
1010
0001
0110
0100
,
0011
0110
1100
0110
1001
0101
0011
1100
,
0000
0000
0000
0000
0000
0000
0000
0000
1100
0000
1010
0101
0000
1001
0000
0110
,
1001
0010
0100
0001
0010
0001
1000
0010
1000
0100
0010
0001
0100
0010
0001
0010
,
0001
1000
0001
0100
0010
0100
0010
1000
0100
0010
0100
0010
1001
0110
1001
0110
,
1001
0100
1000
0001
0010
0100
0010
1000
0010
0001
0100
0010
1000
0001
0100
0010
,
1000
0000
0000
0100
0000
0000
0001
0000
0000
0100
0000
0000
1000
0000
0000
0100
0000
0000
0010
0000
0000
0100
0000
0000
0010
0000
0000
0100
0000
0000
1000
0000
0000
0001
0000
0000
0100
0000
0010
0000
1000
0000
0001
0000
0100
0000
0010
0000
,
1001
0100
0010
1000
0001
0100
0010
1000
0001
0100
0010
0001
0100
0010
1000
0100
,
0010
0100
1000
0001
0010
0100
1000
0100
0010
0001
0100
0010
0001
0100
0001
0010
,
1000
0010
0001
0100
0010
0001
1000
0010
0001
0100
0010
1000
0010
0100
0010
1000
,
0011
0000
0110
0000
1100
0000
0110
0000
0011
0000
0011
0100
1000
0000
0110
0000
,
0011
0000
0001
0000
0010
0000
1000
0000
0001
0000
0100
1000
0010
0000
0001
0000
,
1000
0000
0010
0000
0100
0000
0001
0000
0010
0000
1000
0100
0010
0000
0100
0000
,
0010
0000
1000
0000
0001
0000
0100
0000
0010
0000
0100
0001
0010
0000
0100
0000
,
0010
0000
1000
0000
0100
0000
0010
0000
0100
0000
0010
1000
0001
0000
0100
0000
,
0010
0000
0010
0000
0100
0000
1000
0000
0010
0000
0010
0001
0100
0000
0100
0000
,
0010
0000
0001
0000
0010
0000
0100
0000
1000
0000
0100
1000
0010
0000
0001
0000
,
0010
0000
0100
0000
1000
0000
0001
0000
0010
0000
0100
0001
1000
0000
0010
0000
,
0100
0000
0001
0000
0010
0000
1000
0000
0100
0000
0001
0000
0100
0010
1000
0100
0001
0000
1000
0000
0010
0000
0100
0000
1000
0001
1000
0001
1000
0001
1000
0001
,
0110
0110
0000
0000
0000
0000
0000
0000
0000
0000
0011
0000
0011
0000
0010
0100
,
0010
0001
1000
0100
0000
0100
0010
0000
0010
0100
0010
1000
0000
1000
0100
0000
,
0100
0010
1000
0100
0000
0100
0001
0000
0001
1000
0001
0010
0000
0010
0001
0000
,
0001
1000
0001
0010
0000
0010
1000
0000
1000
0001
0100
0010
0000
0010
0001
0000
,
0010
1000
0100
1000
0000
1000
0100
0000
0100
0010
0001
0100
0000
0100
0010
0000
,
1001
0010
0100
0010
0100
0010
0100
0000
0100
0010
0001
1000
0010
1000
0100
0000
,
0100
0010
0100
0010
0001
0010
0001
0000
0100
0010
0100
0010
0100
0010
0100
0000
,
0100
1000
0010
0100
0001
0010
0100
0000
0100
0010
0001
1000
0100
0010
0001
0000
,
1000
0100
1000
0100
0000
0000
0100
0000
0100
1000
0100
1000
0000
0000
1000
0000
,
1100
0110
0011
1010
,
1001
0110
0101
1001
,
0110
1001
1001
0101
,
0101
1010
1001
1001
,
1100
0101
0110
0101
,
1001
1010
0110
1001
,
0101
0011
0101
1010
,
1100
0000
0110
0000
0101
0000
1001
0110
,
0000
0000
0000
0000
0000
0000
0000
0000
1000
0000
1000
0100
0000
0100
0010
0001
,
1000
0010
0001
0100
0010
1000
0001
1000
0001
1000
0001
1000
0001
0100
0001
0100
,
0001
0100
0010
0001
0010
0001
0010
0100
1000
0001
1000
0001
0110
1001
0110
1001
,
0110
1000
0001
1000
0001
1000
0010
0100
0001
1000
0010
0100
1000
0010
0001
0100
,
0010
0000
0000
0001
0000
0000
1000
0000
0000
0100
0000
0000
0001
0000
0000
0100
0000
0000
0001
0000
0000
1000
0000
0000
0100
0000
0000
0001
0000
0000
0010
0000
0000
1000
0000
0000
0001
0000
0010
0000
0100
0000
1000
0000
0100
0000
0010
0000
,
1001
0000
0011
0000
0110
0000
1100
0000
1010
0000
1001
0100
1000
0000
1000
0000
,
1100
0000
0101
0000
0110
0000
1010
0000
0011
0000
1010
0100
0010
0000
0001
0000
,
0011
0000
1001
0000
0101
0000
0110
0000
1100
0000
0110
0001
1000
0000
0010
0000
,
0011
0100
1000
0100
1001
0100
1000
0100
0011
0100
1000
0100
1001
0100
1000
0100
,
0011
0000
0110
0000
1001
0000
1001
0000
1100
0000
0101
0010
0101
0000
1100
0000
,
0011
0000
1010
0000
1100
0000
1010
0000
1100
0000
0110
0001
0110
0000
0011
0000
,
1100
0000
1010
0000
1001
0000
1100
0000
1001
0000
1010
0001
1010
0000
0110
0000
,
0011
0000
1001
0000
1010
0000
0101
0000
0011
0000
1100
0010
1001
0000
1001
0000
,
0011
0000
1100
0000
1001
0000
1100
0000
1100
0000
1010
0100
1001
0000
0110
0000
,
0011
0000
0011
0000
1100
0000
0110
0000
0101
0000
1010
0100
1010
0000
0011
0000
,
1010
0000
1001
0000
1100
0000
1100
0000
1010
0000
0101
0010
1001
0000
0011
0000
,
1001
0000
0100
0000
0010
0000
0100
0000
1000
0000
0001
0000
0010
0001
0100
0010
1000
0000
0010
0000
1000
0000
0100
0000
0010
0100
0010
0100
0010
0100
0010
0100
,
1001
1001
0000
0000
0000
0000
0000
0000
0000
0000
0000
0000
0000
0000
0000
0000
;
