#TITLE:MOON;
#SUBTITLE:;
#ARTIST:DJ Taka ft. Erika Mochizuki;
#TITLETRANSLIT:;
#SUBTITLETRANSLIT:;
#ARTISTTRANSLIT:;
#CREDIT:;
#BANNER:moon-bn.png;
#BACKGROUND:moon-bg.png;
#LYRICSPATH:;
#CDTITLE:momo-cdkey.png;
#MUSIC:beatmaniaIIDX 13 - MOON.mp3;
#OFFSET:-3.140;
#SAMPLESTART:65.380;
#SAMPLELENGTH:12.000;
#SELECTABLE:YES;
#BPMS:0.000=78.000,8.000=156.000;
#STOPS:;
#BGCHANGES:;
// cache tags:
#FIRSTBEAT:4.000;
#LASTBEAT:294.000;
#SONGFILENAME:Songs/toune 2/MOON/beatmaniaIIDX 13 - MOON.sm;
#HASMUSIC:1;
#HASBANNER:0;
#MUSICLENGTH:119.591;
// end cache tags

//---------------dance-single - Blank----------------
#NOTES:
     dance-single:
     Blank:
     Hard:
     11:
     0.905,0.922,0.326,0.117,0.882,705.000,39.000,14.000,0.000,0.000:


0000
0000
0000
0000
,
0002
0000
0013
0100
1000
0100
1000
0001
,
0010
0001
0010
0100
1000
0100
1000
0010
,
0100
0000
0001
0000
0010
0000
0100
1000
0000
0000
0100
0000
0010
0000
0001
0000
,
0100
0000
0001
0000
0010
0000
0100
0010
0000
0000
0001
0000
0010
0000
0100
0000
,
2100
0000
3000
0210
0000
0300
0021
0000
0031
0100
0001
1000
0100
1000
0010
0100
,
0001
0000
0000
0100
0010
0000
1000
0000
0010
0100
0001
1000
0100
0010
0100
1000
,
0100
0000
0000
0010
0001
0000
0100
0000
0001
0010
0100
1000
0001
0100
0010
1000
,
0100
0010
0001
0010
0100
1000
0001
0100
0010
1000
0010
0000
0100
0000
0001
0000
,
0011
0000
0000
0000
0110
0000
0000
0000
0100
1000
0001
0100
0001
1000
0100
0010
,
0100
0000
0010
0000
0010
0000
0000
0000
0001
0100
0010
1000
0010
0100
0001
1000
,
0100
0000
0000
0010
0100
0000
1000
0000
0100
0000
0010
0000
0001
0010
0001
0010
,
0100
1000
0100
0010
0001
0010
0001
0001
0010
0100
1000
0100
1000
1000
0010
0100
,
0001
0100
0010
1000
0100
0000
0000
0000
1000
0100
1000
0010
1000
0001
1000
0100
,
1000
0000
0000
0010
0100
0000
0001
0000
1000
0100
1000
0010
1000
0001
0100
0001
,
0010
0000
0000
0100
1000
0000
0001
0000
0100
0010
1000
0001
0100
0010
1000
0001
,
1000
0100
0010
0100
1000
0010
0100
0010
1000
0100
0010
0000
0001
0000
0010
0000
,
0110
0000
0000
0000
1100
0000
0000
0000
0001
0100
0001
0010
0100
1000
0010
1000
,
0010
0000
0100
0000
0100
0000
0000
0000
0010
1000
0001
0100
0001
0010
0100
1000
,
0010
0000
0000
0100
0010
0000
1000
0000
0100
0000
0010
0000
0001
0100
0001
0010
,
0100
1000
0010
0100
0001
0001
0100
0010
1000
0001
0100
0001
0010
0010
0001
0000
,
2100
0000
3000
0210
0000
0300
0021
0000
0030
0000
0001
0000
1000
0001
0100
0010
,
1000
0000
0001
0100
0001
0010
0001
0000
,
1001
0000
1000
0100
1000
0010
1000
0000
,
1000
0100
0010
0000
0001
0100
0010
0000
,
0100
0001
1000
0100
0010
0100
1000
0001
,
0100
0000
0000
0010
1000
0000
0010
0000
0100
0000
0001
0000
1000
0000
0100
0000
,
0010
0000
0000
0001
0010
0000
0100
0000
1000
0000
0010
0000
0100
0000
0001
0000
,
1000
0000
0010
0000
0100
0000
0001
0100
0001
0100
0001
0000
0010
0000
0100
0000
,
0010
0000
0000
0000
1000
0000
1100
0000
0000
0000
0100
0000
0110
0000
0010
0100
,
0010
0000
0000
0000
0001
0000
0010
0000
0100
1000
0100
1000
0100
0000
0000
0000
,
0010
0000
0001
0000
0100
0000
0001
0000
0010
0100
0010
0100
0010
0000
0100
0000
,
1000
0000
0000
0000
0001
0000
0100
0000
0001
0010
0001
0010
0001
0000
0000
0000
,
0010
0000
1000
0000
0100
1000
0100
0000
1000
0010
1000
0010
1000
0000
0001
0000
,
0100
0000
0000
0000
0100
0000
0010
0000
1000
0100
1000
0100
1000
0000
0100
0000
,
0010
0000
0000
0000
0001
0000
0010
0000
0100
0010
0100
0010
0100
0000
1000
0001
,
1000
0000
0001
0100
0001
0100
0001
0000
1000
0000
0100
0000
0010
0000
0100
0000
,
0110
0000
0000
0000
1000
0000
1001
0000
0000
0000
0010
0000
0110
0000
0100
0010
,
0100
0000
0000
0000
0001
0100
0001
1000
,
1100
0000
0010
0001
0010
0001
0010
0100
,
0000
0010
0100
0000
1000
0100
0010
0001
,
1000
0000
0001
0100
0001
0010
0100
0010
,
0000
0000
0001
0000
0100
0000
0000
0000
0010
0000
1000
0000
0010
0000
0100
0010
,
0100
0000
0001
0000
0001
0000
0000
0000
0001
0100
0001
1000
0010
0000
0000
0000
,
1000
0000
0100
0000
0100
0000
0000
0000
0010
0001
0010
0100
0010
0000
0000
0000
,
0100
0000
1000
0000
1000
0000
0001
0000
1000
0100
1000
0001
0010
0000
0100
0000
,
0110
0000
0000
0000
1000
0000
1100
0000
0000
0000
0001
0000
0101
0000
0100
0010
,
0100
0000
0010
0100
0010
0100
0010
1000
,
0000
0000
0010
0000
0010
0000
0000
0000
0100
0000
0001
0000
0010
0001
0010
0001
,
0010
0100
0010
0001
1000
0100
0010
0100
,
0000
0000
1000
0000
1000
0000
0001
0000
0100
0001
1000
0010
1000
0100
1000
0001
,
0010
0000
0100
0000
0100
0000
0000
0000
0010
0001
1000
0100
1000
0010
0100
0001
,
0010
0000
0100
0000
0100
0000
0000
0000
1000
0100
0010
0001
0100
0001
1000
0010
,
0100
0001
0001
0100
0001
0010
0100
1000
,
1100
0000
0000
0000
0010
0000
1100
0000
0000
0000
0001
0000
1100
0000
0100
1000
,
0100
0000
0000
0000
0100
0000
0000
0000
0100
0010
0001
1000
0100
0010
0001
0000
,
0012
0000
0003
0120
0000
0030
1200
0000
1300
0010
0100
0010
0100
0001
1000
0100
,
0010
0000
0000
0001
0100
0000
0001
0000
0010
0100
1000
0100
0010
0001
0010
0100
,
0010
0000
0000
0100
1000
0000
0001
0000
0100
0001
0010
0001
0100
0001
1000
0100
,
1000
0100
0010
0001
0010
0001
0100
0001
0100
0010
0100
0000
0101
0000
0010
0000
,
0101
0000
0000
0000
0110
0000
0000
0000
0010
1000
0010
0100
0001
0100
0010
0100
,
0010
0000
1010
0000
1010
0000
0000
0000
0100
0001
1000
0100
1000
0001
0010
0001
,
1000
0000
0000
1000
0010
0000
0100
0000
0010
0000
1000
0000
0100
0010
0100
1000
,
0100
0010
0001
0010
0100
0100
1000
0001
0100
0010
1000
0100
1000
1000
0100
1000
,
0010
0100
0001
0100
0010
0000
0000
0000
0010
0100
0001
1000
0100
1000
0100
0010
,
0100
0000
0000
1000
0001
0000
0010
0000
0100
1000
0100
0010
0001
0010
0100
0010
,
0100
0000
0000
0010
0100
0000
0010
0000
0001
0100
0001
1000
0100
1000
0001
0010
,
0001
0010
0100
1000
0001
0100
0010
0100
0010
1000
0010
0000
0101
0000
1000
0000
,
0101
0000
0000
0000
1001
0000
0000
0000
1000
0100
1000
0100
1000
0001
0100
0001
,
0100
0000
0101
0000
0101
0000
0000
0000
0100
0010
0100
0010
1000
0001
1000
0100
,
1000
0000
0000
0001
0100
0000
0001
0000
0010
0000
0100
0000
0010
0100
0000
0000
,
1000
0100
0010
0001
0010
0010
0100
1000
0001
0100
0010
1000
0001
0001
1000
0000
,
0021
0000
0030
0210
0000
0300
2100
0000
3000
0000
0001
0000
0100
0010
0100
0010
,
0200
0000
0300
0000
;
