#TITLE:JS Stronger;
#SUBTITLE:;
#ARTIST:moro;
#TITLETRANSLIT:;
#SUBTITLETRANSLIT:;
#ARTISTTRANSLIT:;
#CREDIT:;
#BANNER:js stronger bn.png;
#BACKGROUND:js stronger bg.png;
#LYRICSPATH:;
#CDTITLE:;
#MUSIC:JS Stronger.ogg;
#OFFSET:0.006;
#SAMPLESTART:34.921;
#SAMPLELENGTH:16.000;
#SELECTABLE:YES;
#DISPLAYBPM:220.000;
#BPMS:0.000=220.000,24.000=110.000,28.000=220.000,292.000=110.000,308.000=220.000;
#STOPS:;
#BGCHANGES:;
// cache tags:
#FIRSTBEAT:8.000;
#LASTBEAT:479.750;
#SONGFILENAME:Songs/SPEEEDCOOOORE 3/JS Stronger - [Aoreo]/JS Stronger.sm;
#HASMUSIC:1;
#HASBANNER:1;
#MUSICLENGTH:139.000;
// end cache tags

//---------------dance-single - J. Nero----------------
#NOTES:
     dance-single:
     J. Nero:
     Challenge:
     12:
     1.000,1.000,0.604,1.000,0.320,744.000,84.000,194.000,7.000,1.000:
0000
0000
0000
0000
,
0000
0000
0000
0000
,
2002
3003
0000
0000
0101
0000
0000
0000
0220
0330
0000
0000
1010
0000
0000
0000
,
2100
3000
0000
0000
0100
0000
2000
3000
0010
0000
0000
0000
0100
0000
0200
0300
,
0001
0000
0020
0030
0100
0000
2000
3000
0020
0030
0000
0000
0200
0300
0000
0000
,
0002
0000
0000
0000
0000
0000
2000
0000
3000
0000
0000
0000
0000
0000
0000
0003
,
0000
0000
0000
0000
0000
0000
0000
0000
0000
0000
0000
0000
0000
0000
0000
0000
0M00
0M00
0M00
0000
0000
0000
0000
0000
00M0
00M0
00M0
0000
0001
0000
0000
0000
,
1001
1000
0100
1000
0010
0100
0001
0010
,
0100
1000
0001
0100
0010
1000
0010
0100
,
0001
1000
0100
0010
0100
1000
0001
0100
,
0001
0000
0100
0000
0010
0000
1000
0000
0001
0100
0001
1000
0100
0010
0001
1000
,
0002
0003
0000
0000
0000
0000
0000
0000
2002
3003
0000
0000
0000
0000
0000
0000
,
2200
3300
0000
0000
0000
0000
2200
3300
0000
0000
0000
0000
0000
0000
2002
3003
,
0000
0000
0220
0330
0000
0000
0202
0303
0202
0303
0000
0000
2002
3003
0000
0000
,
2200
0000
0000
3300
0000
0000
0022
0000
0000
0033
0000
0000
M001
0000
0000
0000
,
0001
0100
0010
0100
0001
1000
0100
1000
,
0010
0100
0001
0010
0100
0010
0001
1000
,
0002
0100
1003
0002
0100
1003
0002
0100
,
1003
0002
0100
1003
0100
0010
0100
0100
,
2000
3000
0000
0000
0000
0000
0000
0000
2002
3003
0000
0000
0000
0000
0000
0000
,
0202
0303
0000
0000
0000
0000
0202
0303
0000
0000
0000
0000
0000
0000
0220
0330
,
0000
0000
2020
3030
0000
0000
2002
3003
2002
3003
0000
0000
2200
3300
0000
0000
,
0220
0000
0000
0330
0000
0000
2002
0000
0000
3003
0000
0000
0001
1000
0001
0010
,
0100
1000
0010
0100
0001
0100
0010
0100
,
0001
0001
1000
0100
0010
0100
1000
0100
,
0100
0000
0100
0000
0020
0030
0000
0000
0100
0000
0100
0000
0020
0030
0000
0000
,
0100
0000
0100
0000
0020
0030
0000
0000
0100
0000
0010
0001
1000
0000
0001
0000
,
0100
0000
0001
0000
1000
0000
0100
0000
0010
0000
0001
0000
1000
0000
0100
1000
,
0001
0000
0100
0000
0010
0000
1000
0000
0100
0000
1000
0000
0001
0000
0010
0100
,
2000
3000
0000
0000
2002
3003
0000
0000
,
2002
3003
0000
0000
0202
0303
0000
0000
2020
3030
0000
0000
1000
0010
0100
0001
,
0100
0000
0001
0010
0100
0010
0100
1000
,
0002
0000
0100
0000
0100
0000
0100
0003
,
0001
1000
0100
0010
0100
1000
0001
0100
,
0020
0000
1000
0000
1000
0000
0100
0130
,
0001
0000
0000
1000
1001
0000
0000
0001
,
0101
0000
0000
0100
0110
0000
0000
0010
,
2020
3030
0000
0000
2002
3003
0000
0000
0202
0303
0000
0000
0220
0330
0000
0000
,
2020
3030
0000
0000
2200
3300
0000
0000
0220
0330
0000
0000
0022
0033
0000
0000
,
2002
3003
0000
0000
0000
0000
1000
0000
1010
0000
0000
0000
0000
0000
0100
0000
,
0101
0000
0000
0000
1001
0000
0000
0000
1100
0000
0100
0000
1000
0001
0100
0010
,
0100
0001
0010
0100
0010
0001
1000
0010
,
0100
0001
1000
0100
0010
0100
1000
1000
,
0100
1000
0001
0100
0010
0100
0001
0010
,
0100
1000
0001
0100
0020
0000
0000
0000
,
1030
0100
0010
0100
1000
0001
0100
0010
,
0100
0001
0010
0100
1000
0001
0100
0100
,
0020
0030
0000
0000
0000
0000
0000
0000
2002
3003
0000
0000
0000
0000
2200
3300
,
0000
0000
0200
0300
2000
3000
0020
0030
0200
0000
0000
0000
0000
0000
0300
0000
,
0220
0330
0000
0000
1001
0000
0000
0000
2200
3300
0000
0000
0110
0000
0000
0000
,
0022
0033
0000
0000
0001
0000
0200
0300
0010
0000
0000
0000
0100
0000
0200
0300
,
0001
0000
0020
0030
0100
0000
2000
3000
0002
0003
0000
0000
2002
3003
0000
0000
,
2000
3000
1000
0000
0010
0000
0200
0300
0001
0000
0000
0000
0001
0000
0001
0000
,
0020
0030
0000
0000
0110
0000
0000
0000
2200
3300
0000
0000
1001
0000
0000
0000
,
0202
0303
0000
0000
0100
0000
0002
0003
0010
0000
0000
0000
0100
0000
0200
0300
,
1000
0000
0020
0030
0100
0000
0020
0030
2000
3000
0000
0000
2002
3003
0000
0000
,
0002
0003
0000
0000
0100
0000
0002
0003
0000
0000
0000
0000
1000
0000
0000
0000
,
1001
0001
0100
0001
0100
0100
0010
0010
,
1000
0100
0100
0010
0010
0001
1000
1000
,
0100
0010
0100
1000
0100
0010
0100
1000
,
0004
0000
0000
0000
0000
0000
0003
0000
1001
0000
0000
0000
1000
0100
1000
0001
,
0100
0010
0100
0001
0100
0010
1000
0100
,
1000
0001
0010
0100
1000
0001
0100
0100
,
0001
0000
0000
0000
1000
0000
0000
0000
0100
0000
1000
0000
0001
0000
0100
0000
0002
0003
0000
0000
0100
0000
0000
0000
0010
0000
1000
0000
0010
0000
0100
0000
,
0001
1000
0001
0100
0010
0100
0001
1000
0100
1000
0001
0010
0001
1000
0100
0010
,
0001
1000
0010
0100
0010
1000
0100
0010
,
0100
1000
0001
0100
0010
0100
0010
1000
,
0100
0000
1000
0001
1000
0000
0001
0100
0001
0000
1000
0100
1000
0000
0001
0100
,
0001
0000
0040
0030
0001
0000
0400
0300
0010
0000
4000
3000
0001
0000
0100
0000
,
0010
0000
1000
0001
0100
0001
1000
0100
0010
0000
0001
0100
0001
1000
0100
0010
,
0001
0000
0000
0000
0001
0000
0400
0300
0010
0000
1000
0000
1000
0000
0001
0000
,
0101
0000
0400
0304
0043
0430
4300
3004
,
0403
0300
0000
0000
0400
0300
0000
0000
0001
0100
0001
1000
0100
0010
0001
1000
,
0002
0000
0000
0000
0000
0000
0000
0000
0000
0000
0000
0000
1000
0000
0000
0003
1200
0000
0000
0000
0300
0000
2000
0000
0000
0000
3000
0000
0020
0000
0000
0000
,
0231
0000
0000
0000
0001
0000
0302
0000
0023
0000
0230
0000
2300
0000
3001
0001
,
0200
0000
0000
0000
0000
0000
0000
0000
0010
0000
0000
0000
0001
0000
0000
0300
2002
0000
3003
0000
0000
0000
2200
0000
3300
0000
0000
0000
0220
0000
0330
0000
,
0022
0000
0033
0000
0000
0000
0000
0000
2002
0000
3003
0000
2000
0000
3000
0000
0020
0000
0030
0000
0000
0000
0200
0000
0300
0000
0000
0000
0001
1000
0001
1000
,
0001
0100
0010
0100
0001
0010
0100
1000
,
0001
0001
1000
0100
0010
0100
1000
0100
,
0100
0000
0100
0000
0020
0030
0000
0000
0100
0000
0100
0000
0020
0030
0000
0000
,
0100
0000
0100
0000
0020
0030
0000
0000
0100
0000
0010
0001
1000
0000
0001
0000
,
0100
0000
0010
0000
0100
0000
0001
0000
1000
0000
0100
0000
0010
0000
0001
1000
,
0100
0000
1000
0000
0010
0000
0100
0000
0001
1000
0100
1000
0040
0000
0000
0030
,
2002
3003
0000
0000
2002
3003
0000
0000
,
2002
3003
2002
3003
2002
0000
0000
3003
,
1000
0000
0100
1000
0000
1000
0001
0200
,
0000
0000
0301
0001
0010
0000
0100
0000
,
1000
0000
0100
0010
0000
0010
0000
0002
,
0000
0000
1003
1000
0010
0000
0100
0000
,
0002
1000
0000
1000
,
0000
0000
1000
1000
0000
0000
1000
0003
,
0002
0023
0230
2300
,
3002
0000
0000
0000
0000
0000
0000
0000
0203
0000
0000
0000
0000
0000
0000
0000
0320
0000
0000
0000
0000
0000
0000
0000
2030
0000
0000
0000
0000
0000
0000
3000
,
1001
0000
0001
0100
0010
0100
0001
1000
,
0200
0000
0010
0000
1000
0000
0010
0310
,
0100
1000
0001
0100
0010
0100
0001
1000
,
0002
0000
0000
0000
0100
0000
0000
0000
1003
0100
1000
0001
0010
0000
0100
0000
,
1000
0000
0001
0000
1000
0100
1000
0010
,
0100
0001
1000
0100
0010
0100
1000
1000
,
0002
0003
0000
0000
0000
0000
0000
0000
2002
3003
0000
0000
0000
0000
2200
3300
,
0000
0000
2000
3000
0200
0300
0020
0030
0200
0300
0000
0000
0000
0000
0000
0000
,
1100
0000
1000
0001
0100
0010
0100
0001
,
2000
0000
0100
0000
0001
0000
0100
3100
,
1000
0010
0100
0001
0010
0100
1000
0001
,
0200
0000
0000
0000
0010
0000
0000
0000
0001
0000
0301
0000
1000
0100
1000
0001
,
0100
0000
0000
0001
1001
0000
0000
1000
,
1010
0000
0000
0001
0101
0000
0000
0100
,
0100
0001
0010
0100
1000
0010
0100
0001
,
1000
0010
1000
0000
0001
0100
0001
0000
0100
0010
0100
0000
0001
1000
0001
0000
,
1000
0100
0010
0100
1000
0001
0100
0010
,
0400
0000
0000
0000
0300
0000
0004
0000
0000
0003
0000
0000
0040
0000
0000
0030
0000
0000
0400
0000
0000
0300
0000
0000
4000
0000
0000
3000
0000
0000
0004
0000
0000
0003
0000
0000
0400
0000
0000
0300
0000
0000
0040
0000
0000
0030
0000
0000
,
1000
0100
0010
0100
1000
0001
0100
0010
,
0200
0000
0300
0000
0200
0000
0300
0000
0100
0001
0100
0010
1000
0000
0100
0000
,
0010
0000
0000
0001
1001
0000
0000
1000
,
1100
0000
0000
0100
0110
0000
0000
0010
,
0010
0001
1000
0100
1000
0010
0100
0001
,
0010
0100
1000
0001
0100
0010
0100
0001
,
1000
0100
0010
0001
1000
0010
0100
0001
,
1000
0001
0100
0001
1000
0100
0010
0001
0100
0010
0100
0001
1000
0100
0010
0001
,
2000
0000
0000
0000
0000
0000
0000
0000
0000
0000
0000
0000
0000
0000
0000
3000
;
