#TITLE:Beyblade 2000;
#SUBTITLE:- Off the Chains;
#ARTIST:Hudson Soft/Takara;
#TITLETRANSLIT:;
#SUBTITLETRANSLIT:;
#ARTISTTRANSLIT:;
#CREDIT:;
#BANNER:chains.png;
#BACKGROUND:chains-BG.png;
#LYRICSPATH:;
#CDTITLE:;
#MUSIC:chains.mp3;
#OFFSET:-11.890;
#SAMPLESTART:11.000;
#SAMPLELENGTH:12.000;
#SELECTABLE:YES;
#BPMS:0.000=169.600;
#STOPS:;
#BGCHANGES:;
// cache tags:
#FIRSTBEAT:0.000;
#LASTBEAT:295.000;
#SONGFILENAME:Songs/Anime Songs/chains/chains.sm;
#HASMUSIC:1;
#HASBANNER:1;
#MUSICLENGTH:118.839;
// end cache tags

//---------------dance-single - ----------------
#NOTES:
     dance-single:
     :
     Easy:
     3:
     0.219,0.279,0.042,0.008,0.004,176.000,5.000,1.000,0.000,0.000:  // measure 1
1000
0000
0001
0000
,  // measure 2
0010
0000
0100
0000
0020
0000
0000
0030
,  // measure 3
0001
0000
1000
0001
,  // measure 4
0010
0000
0100
0000
,  // measure 5
0001
0000
1000
0000
,  // measure 6
0010
0100
0001
0000
,  // measure 7
1000
0000
0001
0000
,  // measure 8
0010
0000
0100
0000
,  // measure 9
0001
0000
1000
0001
,  // measure 10
0010
0000
0100
0000
,  // measure 11
0001
0000
1000
0001
,  // measure 12
1000
0001
0100
0000
,  // measure 13
0001
0000
1000
0010
,  // measure 14
0100
0001
0010
0000
,  // measure 15
0010
0000
0001
1000
,  // measure 16
0010
0000
0010
0100
,  // measure 17
0010
1000
0100
0100
,  // measure 18
1000
0001
0010
0100
,  // measure 19
1000
0000
1000
0000
,  // measure 20
0001
0000
0001
0000
,  // measure 21
0010
0000
0100
0000
,  // measure 22
0001
0000
1000
0000
,  // measure 23
0010
0000
0001
0000
,  // measure 24
1000
0000
0100
0000
,  // measure 25
0001
1000
0001
1000
,  // measure 26
0010
0100
0010
0100
,  // measure 27
0001
0001
1000
1000
,  // measure 28
0010
0000
0100
0000
,  // measure 29
0001
0000
1000
0000
,  // measure 30
0010
0000
1000
0000
,  // measure 31
1000
0000
0001
0000
,  // measure 32
0010
0000
0100
0000
,  // measure 33
0001
0000
0001
0000
,  // measure 34
1000
0000
1000
0000
,  // measure 35
0010
0000
0100
0010
,  // measure 36
0001
0000
1000
0000
,  // measure 37
1000
0000
0001
0000
,  // measure 38
0010
0000
0100
0000
,  // measure 39
1000
0000
0001
0000
,  // measure 40
0001
0000
1000
0000
,  // measure 41
0001
0000
0001
0000
,  // measure 42
1000
0000
1000
0000
,  // measure 43
0010
0000
0010
0000
,  // measure 44
0100
0100
0100
0000
,  // measure 45
1000
0000
0001
0000
,  // measure 46
0001
1000
0001
0000
,  // measure 47
1001
0000
1001
0000
,  // measure 48
0110
0000
0110
0000
,  // measure 49
0010
0000
1000
0000
,  // measure 50
0010
0000
0001
0000
,  // measure 51
0010
0000
0100
0000
,  // measure 52
1000
0000
0001
0010
,  // measure 53
1000
0000
0010
0000
,  // measure 54
1000
0000
1000
0001
,  // measure 55
0001
0000
0010
0100
,  // measure 56
1000
0000
0001
0000
,  // measure 57
0010
0000
0100
0000
,  // measure 58
0010
0000
0100
0000
,  // measure 59
1000
0000
0001
0000
,  // measure 60
1000
0000
0010
0000
,  // measure 61
0001
0000
1000
0000
,  // measure 62
0100
0000
0001
0000
,  // measure 63
0001
0000
0100
0000
,  // measure 64
0010
0000
1000
0000
,  // measure 65
1000
0000
0001
0000
,  // measure 66
0010
0000
1000
0001
,  // measure 67
0100
0000
0001
0000
,  // measure 68
1000
0000
0100
0000
,  // measure 69
0010
0000
1000
0000
,  // measure 70
0001
0000
0010
0000
,  // measure 71
1000
0000
0001
0000
,  // measure 72
0010
0000
0100
0000
,  // measure 73
1001
0000
0010
0000
,  // measure 74
0010
0000
0000
0000
0000
0000
0000
0000
0000
0000
0000
0000
0000
0000
0000
0000
1000
0000
0000
0000
0000
0000
0000
0001
0000
0000
0000
0000
0000
0000
0000
0000
;

//---------------dance-single - ----------------
#NOTES:
     dance-single:
     :
     Medium:
     5:
     0.379,0.465,0.109,0.017,0.008,300.000,13.000,2.000,0.000,0.000:  // measure 1
0000
1000
0010
0000
0001
0000
1000
0000
,  // measure 2
0010
0100
0001
1000
,  // measure 3
0000
0001
0010
0000
1000
0000
0100
0000
,  // measure 4
0010
0100
1000
0001
,  // measure 5
0000
1000
0001
0000
1000
0000
0010
0000
,  // measure 6
0010
1000
0101
0010
,  // measure 7
0000
0001
1000
0000
0010
0000
0000
0100
,  // measure 8
0010
0001
1000
0010
,  // measure 9
1000
0001
0010
0000
1000
0000
0001
0000
,  // measure 10
0001
0001
1000
0010
,  // measure 11
0100
0010
1000
0000
0001
0000
1000
0000
,  // measure 12
0010
0100
0001
1000
,  // measure 13
0010
0100
0001
0000
0100
0000
0001
0000
,  // measure 14
1000
0001
0110
1000
,  // measure 15
0001
0100
0000
0000
1000
0000
0010
0100
,  // measure 16
0010
1000
1001
0010
,  // measure 17
0010
0100
0001
1000
,  // measure 18
0010
0100
0001
1000
,  // measure 19
1000
0100
0010
0001
,  // measure 20
0001
0010
0100
1000
,  // measure 21
1000
0001
1000
0100
,  // measure 22
0001
1000
0010
0100
,  // measure 23
0010
0100
0001
1000
,  // measure 24
0010
0000
0000
0000
0000
0000
0000
0000
1000
0000
0000
0000
0000
0000
0000
0000
0001
0000
0000
0000
0000
0000
0000
0000
0000
0100
0000
0000
0000
0000
0000
0000
,  // measure 25
1000
1000
0001
0100
,  // measure 26
0001
0001
1000
0100
,  // measure 27
0010
0100
0001
1000
,  // measure 28
1000
0001
0010
1000
,  // measure 29
1000
0001
1000
0001
,  // measure 30
0001
0001
1000
1000
,  // measure 31
0010
0100
0001
1000
,  // measure 32
1000
1000
0001
0100
,  // measure 33
0010
0000
0000
0000
0000
0000
0000
0000
0110
0000
0000
0000
0000
0000
0000
0000
0220
0000
0000
0000
0000
0000
0000
0000
0000
0000
0000
0330
0000
0000
0000
0000
,  // measure 34
1000
1000
0010
0100
,  // measure 35
0001
0000
0001
0100
,  // measure 36
0010
1000
0010
0100
,  // measure 37
1000
0001
0100
0001
,  // measure 38
0010
1000
0010
0100
,  // measure 39
1000
0001
1000
0100
,  // measure 40
0001
0100
0001
1000
,  // measure 41
1000
0001
1000
0000
0001
0000
0010
0000
,  // measure 42
1000
0001
1001
0010
,  // measure 43
1000
0001
1001
0010
,  // measure 44
0100
0010
1001
0000
,  // measure 45
0100
1000
0001
0010
,  // measure 46
0010
1000
1001
0000
,  // measure 47
0010
0100
0010
0000
1001
0000
0010
0100
,  // measure 48
0010
0100
0001
1000
1001
0000
0010
0000
,  // measure 49
0010
0100
0001
0000
0100
0000
0010
0000
,  // measure 50
0001
1000
0010
1000
,  // measure 51
0001
0010
0001
0000
1000
0000
0010
0000
,  // measure 52
0010
0100
1000
0001
,  // measure 53
0010
0100
0001
0000
1000
0000
0010
0000
,  // measure 54
0001
0010
0110
1000
,  // measure 55
0001
0010
0000
0000
1000
0000
0010
0100
,  // measure 56
0010
1000
0001
0100
,  // measure 57
0010
0100
0000
0000
0001
0000
1000
0100
,  // measure 58
0001
0000
1000
0000
0010
0000
0000
0100
,  // measure 59
0000
0010
0100
0000
0000
0001
0000
1000
,  // measure 60
0001
0000
0000
0010
,  // measure 61
0010
0100
0000
0000
0001
0000
1000
0010
,  // measure 62
0010
0000
1000
0000
0001
0000
0000
0100
,  // measure 63
0000
0010
0100
0000
0000
0010
0000
1000
,  // measure 64
0001
0000
0000
1000
,  // measure 65
0010
0100
0000
0000
0001
0000
0010
0100
,  // measure 66
1000
0000
0010
0000
1000
0000
0000
0010
,  // measure 67
0000
0100
0010
0000
0000
0001
0000
1000
,  // measure 68
0001
0000
0000
0010
,  // measure 69
0010
0100
0000
0000
1000
0000
0001
0010
,  // measure 70
0010
0000
1000
0000
0001
0000
0000
0100
,  // measure 71
0000
0010
0100
0000
0000
0001
0000
0100
,  // measure 72
0010
0000
0000
0000
0000
0000
0000
0000
1000
0000
0000
0000
0000
0000
0000
0000
0001
0000
0000
0000
0000
0000
0000
0000
0000
0000
0000
0000
0000
1000
0000
0000
,  // measure 73
1001
0000
0001
0000
,  // measure 74
1000
0000
0001
1000
;

//---------------dance-single - ----------------
#NOTES:
     dance-single:
     :
     Hard:
     8:
     0.539,0.621,0.295,0.076,0.025,404.000,35.000,9.000,0.000,0.000:  // measure 1
0000
1000
0100
0000
1000
0100
0010
0100
,  // measure 2
1000
0001
1000
0010
,  // measure 3
0000
0010
1000
0000
0100
0000
1000
0000
,  // measure 4
0010
0100
0010
1000
,  // measure 5
0000
0001
0100
0000
0010
0100
1000
0010
,  // measure 6
1001
0000
0110
0000
0010
0000
0001
0100
,  // measure 7
0000
0010
1010
0000
0100
0000
0000
0001
,  // measure 8
0101
0000
0000
0100
0010
0100
1000
0000
,  // measure 9
0000
0001
0100
0000
0010
0100
1000
0100
,  // measure 10
1000
0001
0100
0010
,  // measure 11
0000
0010
0100
0000
0010
0000
0100
0000
,  // measure 12
0001
0010
0100
1000
,  // measure 13
0000
0001
0100
0000
0001
0010
1000
0100
,  // measure 14
1001
0110
0010
0100
,  // measure 15
0000
0001
0101
0000
0010
0000
0000
1000
,  // measure 16
1010
0001
0100
0000
0011
0000
1000
0000
,  // measure 17
0010
0000
0000
0000
0000
0000
0000
0000
0100
0000
0000
0000
0000
0000
0000
0000
0001
0000
0010
0000
0001
0000
0000
0000
2000
0000
0000
0000
0000
3000
0000
0000
,  // measure 18
0001
0100
0001
1000
0100
0010
1000
0000
,  // measure 19
0010
0100
0001
1000
0010
0100
0001
1000
,  // measure 20
0001
0010
0100
0010
0100
1000
0001
0000
,  // measure 21
0010
0000
0100
0010
1000
0001
0100
0010
,  // measure 22
1000
0100
0010
0100
0010
0001
1000
0001
,  // measure 23
1010
0000
0010
0100
0001
0010
0100
0000
,  // measure 24
1000
0010
0001
0100
0010
0100
1001
0000
,  // measure 25
0010
0000
0100
0000
0010
0000
0000
0000
1000
0000
0001
0000
1000
0000
0000
0000
0010
0000
0000
0000
0100
0000
0000
0000
0002
0000
0000
0000
0000
0003
0000
0000
,  // measure 26
0001
0000
0010
0000
0100
0000
0010
0000
0001
0010
0100
0000
2000
0000
3000
0000
,  // measure 27
0001
0010
0001
0010
0001
1000
0010
0100
,  // measure 28
0001
0010
0100
1000
0001
0100
0010
0000
,  // measure 29
0011
0000
0100
0010
1100
0010
0100
0000
,  // measure 30
0010
0100
0001
1000
0010
1000
0001
0100
,  // measure 31
0001
0010
0100
0010
1000
0100
0010
0100
,  // measure 32
1000
0000
0100
0010
1000
0001
0100
0010
,  // measure 33
0000
0000
0000
0000
0101
0000
0000
0000
2020
0000
0000
3030
0000
0000
0000
0000
,  // measure 34
0001
0010
0001
0100
0010
1000
0100
0010
,  // measure 35
1001
0100
0010
1000
,  // measure 36
0001
0010
0100
0010
1000
0010
1000
0001
,  // measure 37
0000
0000
0010
0100
0010
0001
1000
0010
,  // measure 38
0101
0000
1000
0100
0010
1000
0001
0100
,  // measure 39
0001
0010
0100
1000
0001
0010
0100
1000
,  // measure 40
0001
0010
0000
0000
0000
0100
1000
0001
,  // measure 41
0010
1000
0010
0000
1010
0000
0100
0001
,  // measure 42
0010
0000
0000
0000
0100
0000
0000
0000
0001
0000
0000
0000
1000
0000
0000
0000
0220
0000
0000
0000
0000
0000
0000
0000
0000
0000
0000
0330
0000
0000
0000
0000
,  // measure 43
0001
1000
0001
0000
0010
0000
0100
0010
,  // measure 44
1000
0100
1000
0001
1001
0000
0000
0000
,  // measure 45
0001
0010
0001
0000
0101
0000
1000
0100
,  // measure 46
1000
0000
0001
0000
0010
0000
0100
0000
2002
0000
0000
0000
0000
3003
0000
0000
,  // measure 47
0110
0010
1001
0000
0110
0000
0001
1000
,  // measure 48
0010
0100
0010
1000
0001
0000
0010
0000
,  // measure 49
0000
0010
1000
0000
0001
1000
0010
0100
,  // measure 50
0001
0100
0010
1000
,  // measure 51
0000
0001
0100
0000
0010
0000
0001
0000
,  // measure 52
0001
1000
0100
0010
,  // measure 53
0000
1000
0100
0000
0001
0010
0001
1000
,  // measure 54
0011
1100
0010
0001
,  // measure 55
0000
1000
0100
0000
0010
0000
1000
0001
,  // measure 56
0000
0000
0001
1000
0010
0100
0001
0000
,  // measure 57
0000
0010
0100
0000
0010
0000
1000
0100
,  // measure 58
0000
0001
0100
0000
1010
0000
0001
0100
,  // measure 59
0000
0010
0100
0000
0000
0001
0000
0010
,  // measure 60
1000
0010
0100
0001
,  // measure 61
0000
0010
0100
0000
0010
0000
1000
0100
,  // measure 62
0000
0001
0100
0000
1010
0000
0001
0010
,  // measure 63
0000
0000
0000
0000
0100
0000
0000
0001
0000
0000
0000
0000
0000
0000
0000
0000
0000
0000
0000
0000
0001
0000
0000
0000
0000
0000
0000
0000
1000
0000
0000
0000
,  // measure 64
0110
0100
1000
0001
,  // measure 65
1000
0100
0000
0000
0001
0000
0010
0100
,  // measure 66
0000
0001
0100
0000
0011
0000
1000
0100
,  // measure 67
0000
0010
0100
0000
0010
0000
0000
0100
,  // measure 68
1001
0010
0100
0001
,  // measure 69
1000
0010
0000
0000
0001
0000
0010
0100
,  // measure 70
0000
1000
0001
0000
0110
0000
0001
0010
,  // measure 71
0000
1000
0100
0000
0010
0000
1000
0001
,  // measure 72
0011
0000
0000
0000
0000
0000
0000
0000
1000
0000
0000
0000
0100
0000
0000
0000
0001
0000
0000
0000
0010
0000
0000
0000
0001
0000
0000
0000
0000
1000
0000
0000
,  // measure 73
1001
0000
0010
0000
,  // measure 74
1000
0000
0001
1000
;
