#TITLE:Soul Train;
#SUBTITLE:;
#ARTIST:Scooter;
#TITLETRANSLIT:;
#SUBTITLETRANSLIT:;
#ARTISTTRANSLIT:;
#CREDIT:;
#BANNER:soul train-bn.PNG;
#BACKGROUND:soul train-bg.png;
#LYRICSPATH:;
#CDTITLE:angel-cdtitle.png;
#MUSIC:12 Soul Train.mp3;
#OFFSET:-0.440;
#SAMPLESTART:117.494;
#SAMPLELENGTH:20.000;
#SELECTABLE:YES;
#BPMS:0.000=142.000;
#STOPS:;
#BGCHANGES:;
// cache tags:
#FIRSTBEAT:0.000;
#LASTBEAT:720.000;
#SONGFILENAME:Songs/dragon force/Soul Train/Soul Train.sm;
#HASMUSIC:1;
#HASBANNER:1;
#MUSICLENGTH:308.408;
// end cache tags

//---------------dance-single - ----------------
#NOTES:
     dance-single:
     :
     Hard:
     11:
     0.825,1.000,0.798,0.259,0.872,1455.000,246.000,80.000,0.000,17.000:
1000
0000
0001
0000
0010
0000
0100
0000
0010
0001
0000
0100
0000
0000
0010
0000
,
1000
0000
0100
0000
0010
0000
0001
0000
0100
0010
0000
1000
0000
0000
0001
0010
,
0100
0000
1000
0000
0001
0000
0100
0000
0010
1000
0000
0100
0000
0000
1000
0000
,
0001
0000
1000
0000
0010
0000
0100
0000
0001
1000
0000
0010
0000
0000
0100
0001
,
1000
0000
0100
0000
0010
0000
0001
0000
1000
0100
0000
0010
0000
0000
0001
0000
,
0100
0000
0010
0000
1000
0000
0100
0000
0010
0001
0000
0100
0000
0000
0010
1000
,
0100
0000
0010
0000
0001
0000
0100
0000
0010
1000
0000
0001
0000
0000
1000
0000
,
0001
0100
0000
0010
0000
0000
1000
0000
0100
0010
0000
0001
0000
0000
1000
0000
,
0011
0000
0100
0000
1010
0000
1000
0000
0001
1000
0000
0010
0000
0000
0100
0000
,
0101
0000
0010
0000
1100
0000
1000
0000
0001
1000
0000
0100
0000
0000
0010
0001
,
1000
0000
0010
0000
0101
0000
0010
0000
1000
0001
0000
0100
0000
0000
0010
0000
,
1010
0000
0100
0000
1001
0000
0010
0000
1000
0100
0000
0010
0000
0000
0001
0010
,
0100
0000
1000
0000
0011
0000
1000
0000
0001
0100
0000
0010
0000
0000
1000
0000
,
0110
0000
0001
0000
0110
0000
1000
0000
0001
1000
0000
0100
0000
0000
0010
0001
,
0100
0000
0010
0000
1010
0000
1000
0000
0001
0010
0000
0100
0000
0000
1000
0000
,
1010
0000
0100
0000
0101
0000
0000
0000
2100
0000
0000
0001
0000
0000
0010
0000
,
3101
0000
1000
0000
1010
0000
0001
0000
1000
0100
0000
0010
0000
0000
0001
0000
,
0101
0000
1000
0000
1010
0000
0001
0000
1000
0010
0000
0100
0000
0000
0001
0010
,
1100
0000
0001
0000
1010
0000
0010
0000
0100
0001
0000
1000
0000
0000
0100
0000
,
0110
0000
0010
0000
0011
0000
1000
0000
0010
0100
0000
0001
0000
0000
1000
0010
,
0101
0000
1000
0000
1100
0000
0001
0000
1000
0001
0000
0100
0000
0000
0010
0000
,
1010
0000
0100
0000
0101
0000
1000
0000
0100
0010
0000
0001
0000
0000
0001
0010
,
1100
0000
0010
0000
0011
0000
1000
0000
0001
1000
0000
0100
0000
0000
0010
0000
,
1100
0000
0001
0000
0101
0000
1000
0000
0010
0100
0000
0001
0000
0000
1000
0100
,
0010
0000
0001
0010
0100
0000
1000
0000
0001
0010
0000
0100
0000
0000
1000
0010
,
0100
0000
0001
0100
0010
0000
1000
0100
0010
0001
0000
1000
0000
0000
0001
1000
,
0100
0000
0010
0001
1000
0000
0010
1000
0100
0010
0000
0001
0000
0000
1000
0001
,
0010
0000
0100
1000
0100
0000
0010
0001
1000
0100
0000
0010
0000
0000
0001
0010
,
0100
0000
1000
0100
0010
0000
0001
0010
0100
1000
0000
0010
0000
0000
0100
0001
,
0010
0000
0100
1000
0010
0000
0100
0001
0010
0100
0000
1000
0000
0000
1000
0001
,
1000
0000
0001
1000
0001
0000
1000
0100
1000
0100
0000
0010
0000
0000
0001
0000
,
0110
0000
1000
0001
1000
0000
0010
0100
0010
0000
1000
0000
1001
0000
0000
0000
,
0001
0100
0000
0000
0010
0000
0000
1000
0000
0001
0010
0000
0010
0100
1000
0100
,
0010
0001
0000
0000
0100
0000
0000
0010
0000
1000
0001
0000
0001
0100
0010
1000
,
0100
0010
0000
0000
0001
0000
0000
1000
0000
0001
1000
0000
1000
0001
0010
0100
,
0010
0001
0000
0000
0010
0000
0000
0100
0000
1000
0010
0000
0010
0100
0001
0010
,
0100
1000
0000
0000
0100
0000
0000
0010
0000
0001
0100
0000
0100
0010
1000
0001
,
0010
0100
0000
0000
1000
0000
0000
0100
0000
0010
0001
0000
0001
0100
0010
0100
,
0001
1000
0000
0000
0100
0000
0000
0010
0000
0001
0010
0000
0010
0100
1000
0001
,
0010
0100
0000
0000
1000
0000
0000
0010
0000
0100
0010
0000
0010
1000
0100
0010
,
1001
0000
0000
0000
1100
0000
0000
0011
0000
0100
1000
0000
1000
0010
0100
0001
,
0010
0100
0000
0000
0110
0000
0000
1001
0000
1000
0010
0000
0010
0100
0001
0010
,
0100
1000
0000
0000
0101
0000
0000
1010
0000
0100
0001
0000
0001
0010
0100
0010
,
0100
1000
0000
0000
1100
0000
0000
0011
0000
1000
0100
0000
0100
0010
0001
0010
,
0100
1000
0000
0000
1001
0000
0000
0110
0000
0001
1000
0000
1000
0001
0010
0100
,
0010
0001
0000
0000
0011
0000
0000
1100
0000
0010
0001
0000
0001
1000
0010
0100
,
0001
0010
0000
0000
0110
0000
0000
1001
0000
0001
1000
0000
1000
0100
0010
0001
,
0100
0010
1000
0100
0010
0001
0100
0001
0010
0001
0010
0100
2000
0000
0000
0000
0000
0000
0000
0000
0000
0000
0000
0000
,
3001
0000
0010
0000
0100
0000
0000
1000
0000
0000
0010
0000
0100
0000
0000
0001
,
0000
0000
0010
0000
0100
0000
0000
0010
0000
0000
0001
0000
0020
0000
0000
0000
,
0032
0000
0000
0000
,
0000
0000
0000
0000
0000
0000
0000
0000
0000
0000
0000
0000
0000
0000
0003
1000
,
0200
0000
0000
0000
,
0000
0000
0320
0230
,
2300
0000
0000
0000
,
3002
0000
0000
0203
,
0320
0000
0230
0000
0302
0000
2003
0001
,
3010
0200
0000
2300
0000
3010
0100
0001
,
2000
0000
3002
1000
0203
0000
0320
0032
,
0000
0203
0000
0320
0000
1030
0001
0010
,
0200
0000
2300
0010
3200
0000
0320
1000
,
0230
0320
0000
0032
0000
0013
0100
1000
,
0002
0000
0203
0010
2300
0000
3200
0320
,
0000
0032
0000
2003
0000
3100
0010
0100
,
2000
0000
3002
0010
0203
0000
0320
0001
,
0230
0320
0000
2030
0000
3001
0010
0100
,
2000
0000
3200
0010
0302
0000
0203
0320
,
0000
2030
0000
3020
0000
0130
0001
2000
,
3200
0000
0320
0001
0230
0000
0320
1000
,
0032
0000
1003
0000
1100
0000
0000
0011
0000
0000
1001
0000
0101
0000
0000
1010
,
0000
0000
1100
0000
1010
0000
0000
0101
0000
0000
1001
0000
0110
0000
0000
1010
,
0000
0000
1100
0000
1001
0000
0000
0101
0000
0000
0011
0000
1100
0000
1001
0000
,
0001
1000
0001
1000
0001
1000
0001
1000
0110
0000
0000
0000
0000
0000
0000
0000
,
1000
0001
1000
0001
1000
0001
1000
0001
0110
0000
0000
0000
0000
0000
0000
0000
,
0100
0010
0100
0010
0100
0010
0100
0010
1001
0000
0000
0000
0000
0000
0000
0000
,
0010
0100
0010
0100
0010
0100
0010
0100
1001
0000
0000
0000
0000
0000
0000
0000
,
0001
1000
0010
0100
0001
0010
0100
1000
,
0010
1000
0100
0010
0001
0100
0001
0010
,
0001
1000
0001
1000
0100
0010
0100
0010
0001
0100
0001
0100
0010
1000
0010
1000
,
0001
0010
0100
1000
0010
1000
0100
1000
0001
0100
0010
1000
0001
1000
0010
1000
0100
0010
0001
0100
0010
1000
0100
0010
,
1001
0000
0000
0000
,
0001
0000
0000
0010
0000
0000
0100
0000
0000
1000
0000
0000
1001
0000
0000
0001
0010
0100
1000
0000
0000
0010
0100
0001
,
1000
0000
0100
0000
0010
0000
0000
0100
0000
0000
1000
0000
0010
0000
0000
0100
,
0000
0000
0001
0000
0010
0000
0000
0100
0000
0000
0010
0000
0001
0000
0000
1000
,
0000
0000
0001
0000
0100
0000
0000
0010
0000
0000
0100
0000
0001
0000
0000
1000
,
0000
0000
0001
0000
1000
0000
0000
0100
0000
0000
1000
0000
0100
0000
0000
0010
,
0000
0000
0001
0000
1000
0000
0000
0010
0000
0000
1000
0000
0010
0000
0000
0100
,
0000
0000
0010
0000
0100
0000
0000
0001
0000
0000
0010
0000
0100
0000
0000
1000
,
0000
0000
0010
0000
0100
0000
0000
0001
0000
0000
1000
0000
0100
0000
0000
1000
,
0000
0000
0000
0001
0000
0000
0010
0000
0000
0100
0000
0000
1000
0001
1000
0010
1000
0100
0010
0001
0100
0010
1000
0001
,
0010
0100
0000
0100
1000
0000
1000
0001
0000
0001
1000
0000
0100
0000
0010
0000
,
0001
0010
0000
0010
0100
0000
0100
1000
0000
1000
0001
0000
0010
0000
0100
0000
,
1000
0010
0000
0010
0100
0000
0100
0001
0000
0001
1000
0000
0001
0000
0010
0000
,
0100
1000
0000
1000
0100
0000
0100
0010
0000
0010
0001
0000
1000
0000
0100
0000
,
0010
0001
0000
0001
0100
0000
0100
0010
0000
0010
1000
0000
0001
0000
0100
0000
,
0010
1000
0000
1000
0100
0000
0100
0010
0000
0010
0001
0000
0010
0000
0100
0000
,
1000
0001
0000
0001
0010
0000
0010
0100
0000
0100
0010
0000
0001
0000
1000
0000
,
0100
0010
0000
0010
0001
0000
0001
0100
0000
0100
0010
0000
1000
0000
0001
0000
,
0010
0100
0000
0100
1000
0000
1000
0001
0000
0001
1000
0000
0110
0000
1001
0000
,
0001
0010
0000
0100
1000
0000
0010
0100
0000
0001
1000
0000
1100
0000
0011
0000
,
1000
0100
0000
0010
0001
0000
1000
0010
0000
0100
0001
0000
0101
0000
1010
0000
,
1000
0100
0000
0010
0001
0000
1000
0001
0000
0100
0010
0000
1001
0000
0110
0000
,
0001
0100
0000
0010
1000
0000
0010
0100
0000
0001
1000
0000
1001
0000
0011
0000
,
1000
0100
0000
0001
0010
0000
0100
0010
0000
0001
1000
0000
1100
0000
0011
0000
,
1001
0000
0000
1000
0010
0100
0001
0000
0000
0100
0010
1000
0001
0000
0000
0010
0100
1000
0010
0000
0000
0101
0000
0000
,
1000
0000
0100
0000
0010
0000
0001
0000
0100
0000
0010
0000
1000
0000
0001
0000
1000
0000
0010
0000
1000
0000
0100
0000
0010
0000
0000
0000
0000
0000
0001
0000
0000
0000
0000
0000
1000
0000
0000
0001
0000
0000
1000
0000
0000
0001
0000
0000
,
0110
1001
1100
0101
,
0011
1010
1100
0101
,
1010
0000
0000
0000
1100
0000
0000
0110
0000
0000
0011
0000
0000
1000
0010
0100
,
0010
1000
0000
0000
1010
0000
0000
0101
0000
0000
1001
0000
0000
0001
1000
0100
,
1000
0001
0000
0000
1001
0000
0000
0110
0000
0000
1001
0000
0000
1000
0100
0010
,
0100
1000
0000
0000
1100
0000
0000
1001
0000
0000
0011
0000
0000
0001
0010
0100
,
0010
0001
0000
0000
1100
0000
0000
0101
0000
0000
0011
0000
0000
1000
0001
0010
,
0100
1000
0000
0000
1001
0000
0000
0000
0002
0000
0203
0000
0320
0000
2030
0000
,
3101
0010
0000
1000
0100
0000
0010
0001
0000
1000
0001
0000
1000
0010
0100
0001
,
0010
0100
0000
1000
0100
0000
1000
0001
0000
0010
0100
0000
1000
0001
0010
0100
,
0010
0100
0000
1000
0100
0000
0010
0001
0000
0100
0010
0000
1000
0100
0010
0001
,
0100
0010
0000
1000
0001
0000
0010
0100
0000
1000
0001
0000
0100
0010
1000
0001
,
1000
0100
0000
0010
0001
0000
1000
0100
0000
0010
0001
0000
0100
0010
1000
0100
,
0010
0001
0000
1000
0100
0000
0010
0100
0000
0001
1000
0000
0010
0100
0001
1000
,
0100
0010
0000
0001
1000
0000
0010
0100
0000
0010
0001
0000
1000
0001
0010
0001
,
1000
0010
0000
0100
0001
0000
0010
1000
0000
0100
0010
0000
0001
0010
0001
0010
,
1100
0000
0000
0000
0011
0000
0000
1001
0000
0000
1010
0000
0000
0100
0001
0000
,
1010
0000
0000
0000
0011
0000
0000
1100
0000
0000
1001
0000
0000
1000
0010
0100
,
1001
0000
0000
0000
0101
0000
0000
1001
0000
0000
1010
0000
0000
0001
0100
0000
,
1010
0000
0000
0000
0101
0000
0000
0110
0000
0000
1010
0000
0000
0001
1000
0100
,
0011
0000
0000
0000
1100
0000
0000
0101
0000
0000
0011
0000
0000
0100
1000
0000
,
0011
0000
0000
0000
1001
0000
0000
0110
0000
0000
0101
0000
0000
1000
0100
0010
,
1100
0000
0000
0000
0101
0000
0000
1100
0000
0000
1001
0000
0000
0001
0010
0000
,
0100
1000
0010
0100
0001
0010
0100
1000
0010
1000
0100
1000
0002
0000
0000
0000
0000
0000
0000
0000
0000
0000
0000
0000
,
1000
0000
0103
0000
0010
0000
0000
1000
0000
0000
0100
0000
0010
0000
0000
0001
,
0000
0000
0100
0000
0010
0000
0000
0100
0000
0000
0001
0000
0020
0000
0000
0000
,
0230
0000
0000
0000
,
0000
0000
0000
0000
0000
0000
0000
0000
0000
0000
0000
0000
0000
0000
0000
1300
,
0200
0000
0000
0000
,
0000
0000
0320
0032
,
2003
0000
0000
0000
,
3020
0000
0000
0230
,
0000
0000
0000
0311
0000
0000
2100
0000
0000
0001
0000
0000
0000
0000
0000
0000
,
0000
0000
0000
3110
0000
0000
0201
0000
0000
1000
0000
0000
0000
0000
0000
0000
,
0000
0000
0000
1301
0000
0000
2010
0000
0000
0100
0000
0000
0000
0000
0000
0000
,
0000
0000
0000
3101
0000
0000
1020
0000
0000
0001
0000
0000
0000
0000
0000
0000
,
0000
0000
0000
1130
0000
0000
0201
0000
0000
1000
0000
0000
0000
0000
0000
0000
,
0000
0000
0000
1310
0000
0000
1002
0000
0000
0010
0000
0000
0000
0000
0000
0000
,
0000
0000
0000
1013
0000
0000
2100
0000
0000
0001
0000
0000
0000
0000
0000
0000
,
0000
0000
0000
3101
0000
0000
0210
0000
0000
1000
0000
0000
0000
0000
0000
0000
,
0301
0000
0010
0000
1100
0000
0010
0001
1000
0000
0100
0000
0011
0000
0010
0100
,
1000
0000
0001
0000
1001
0000
1000
0100
0010
0000
0001
0000
0101
0000
0010
1000
,
0100
0000
0010
0000
0001
1000
0000
0010
0000
0000
1000
0000
0001
1000
0000
0100
,
0000
0000
1000
0000
0001
0000
1000
0100
0000
0000
0010
0000
0001
0000
1000
0100
,
0000
0000
0010
0000
0001
0000
0100
0010
0000
0000
1000
0000
0010
0000
0100
0001
,
0000
0000
0001
0000
1000
0000
0010
0100
0000
0000
0001
0000
0010
0000
0100
1000
,
0000
0000
1000
0000
0001
0000
1000
0100
0000
0000
0010
0000
0001
0000
1000
0100
,
0011
0000
1001
0000
1100
0010
1100
0001
,
0110
0000
1001
0000
0101
0000
0010
1000
0000
0000
1100
0000
0011
0000
1000
0100
,
0000
0000
0011
0000
1100
0000
0010
0001
0000
0000
1010
0000
1100
0000
0001
0010
,
0000
0000
0110
0000
1001
0000
1000
0100
0000
0000
0011
0000
1001
0000
0010
0100
,
0000
0000
1010
0000
0101
0000
1000
0010
0000
0000
1001
0000
0110
0000
0001
0100
,
0010
0000
0110
0000
0101
0000
1000
0110
0000
0000
0011
0000
1100
0000
0001
1010
,
0000
0000
0101
0000
1100
0000
0010
0101
0000
0000
0011
0000
0110
0000
1000
0101
,
0000
0000
1100
0000
0101
0000
0010
1001
0000
0000
1100
0000
1001
0000
0001
0110
,
0000
0000
0000
1000
0000
0000
0001
0000
0000
0010
0000
0000
0100
1000
0010
0100
0001
1000
0001
1000
0100
0010
0100
0010
,
0001
1000
0000
0100
0010
0000
0001
1000
0000
0010
0100
0000
0101
0000
0101
0000
,
1000
0100
0000
0001
1000
0000
0100
0010
0000
1000
0100
0000
0011
0000
0011
0000
,
1000
0010
0000
0001
0100
0000
1000
0100
0000
0001
0010
0000
1001
0000
1001
0000
,
0100
1000
0000
0010
0001
0000
0100
0010
0000
0001
1000
0000
0110
0000
0110
0000
,
0001
0100
0000
1000
0010
0000
0100
0001
0000
0001
0010
0000
1100
0000
1100
0000
,
0010
0001
0000
0100
1000
0000
0100
0010
0000
0100
1000
0000
0101
0000
0101
0000
,
0010
1000
0000
0100
0010
0000
1000
0001
0000
0010
0100
0000
1010
0000
1010
0000
,
0001
0100
0000
1000
0010
0000
0001
0010
0000
1000
0100
0000
1001
0000
1001
0000
,
0100
0000
1001
0000
1001
0000
0000
0110
0000
0000
0011
0000
1100
0000
0000
0101
,
0000
0000
0110
0000
1001
0000
0000
1100
0000
0000
1010
0000
1001
0000
0000
1010
,
0000
0000
1100
0000
0110
0000
0000
0011
0000
0000
0101
0000
0110
0000
0000
1010
,
0000
0000
1001
0000
0110
0000
0000
0011
0000
0000
1010
0000
0101
0000
0000
1001
,
1100
0010
0101
0010
1001
1000
0110
0001
,
0011
0100
1100
0001
1001
0100
0101
0001
,
0001
0010
0100
1000
0010
1000
0100
1000
0100
0010
0001
0100
0010
1000
0100
0010
,
0001
0100
0010
1000
0100
0010
0001
0100
0001
0010
0001
1000
0010
0100
0001
1000
0010
0100
0010
1000
0001
0010
0100
1000
,
0022
0100
1000
0100
,
1000
1000
0100
0100
,
0033
0000
0000
0000
;
