#TITLE:Great Palace;
#SUBTITLE:Zelda II;
#ARTIST:近藤浩治;
#TITLETRANSLIT:;
#SUBTITLETRANSLIT:;
#ARTISTTRANSLIT:Koji Kondo;
#CREDIT:;
#BANNER:bn.PNG;
#BACKGROUND:bg.PNG;
#LYRICSPATH:;
#CDTITLE:rr-ddr-v2.PNG;
#MUSIC:zelda2_grosserpalast.mp3;
#OFFSET:-3.320;
#SAMPLESTART:8.120;
#SAMPLELENGTH:16.300;
#SELECTABLE:YES;
#BPMS:0.000=150.010;
#STOPS:78.500=0.400
,157.500=0.400
;
#BGCHANGES:;
// cache tags:
#FIRSTBEAT:0.000;
#LASTBEAT:162.000;
#SONGFILENAME:Songs/mike songs/Great Palace - Zelda 2/palace.sm;
#HASMUSIC:1;
#HASBANNER:1;
#MUSICLENGTH:72.348;
// end cache tags

//---------------dance-single - ----------------
#NOTES:
     dance-single:
     :
     Hard:
     7:
     0.610,0.700,0.511,1.000,0.000,192.000,37.000,80.000,0.000,0.000:
1000
0010
0100
0001
0100
1000
0010
1000
,
2200
0000
3300
0202
0000
0303
2200
3300
,
2020
0000
3030
0220
0000
0330
0022
0033
,
0202
0000
0303
2200
0000
3300
1010
0000
,
0001
0100
1000
0010
0100
0001
0100
0100
,
2200
0000
3300
2200
0000
3300
0202
0303
,
0220
0000
0330
0022
0000
0033
0202
0303
,
2020
0000
3030
2200
0000
3300
0202
0303
,
0100
1000
0020
0000
0031
0100
0000
2000
,
0000
0000
3000
0010
0000
2000
0000
0000
,
3001
0100
0010
0001
0000
0001
0100
0000
,
0100
1000
0010
1000
0000
0100
0010
0000
,
0001
0100
1000
0000
0010
2000
0000
3002
,
0000
0000
0000
0103
0000
2000
0000
0000
,
3010
0001
0100
0010
0000
0001
0100
0000
,
0010
1000
0010
1000
0000
0100
0010
0000
,
0001
0200
0000
0302
0000
0000
0000
0000
,
1003
0010
0000
0100
0000
0002
0000
0000
,
0103
1000
0000
0010
0000
0001
0100
1000
,
0010
1000
0000
0001
0000
0100
1000
0001
,
1000
0100
0010
0001
0100
0010
0022
0000
,
0033
0202
0000
0303
2020
3030
2200
0000
,
3300
0202
0000
0303
0022
0033
0220
0000
,
0330
2020
0000
3030
0100
0000
0010
1000
,
0010
1000
0001
0100
0010
0001
0202
0000
,
0303
2020
0000
3030
0220
0330
2002
0000
,
3003
2200
0000
3300
0022
0033
0202
0000
,
0303
2020
0000
3030
0110
0000
0001
0100
,
1000
0010
1000
0100
0000
0001
0000
0000
,
0000
1000
0000
0010
0000
0000
1000
0010
,
0001
0010
0000
1000
0100
0000
1000
0010
,
0100
1000
0000
0010
1000
0000
0001
1000
,
0001
0000
0010
0001
0000
0200
0000
0000
,
0000
1300
0000
0010
0000
0000
1000
0100
,
0010
0001
0000
0100
0010
0000
0100
0001
,
0010
0001
0000
0010
0100
0000
1000
0010
,
0000
2200
0000
0000
0000
3300
0001
0100
,
0000
0020
0000
0032
0000
0000
1003
0010
,
0000
1000
0000
0001
0100
0010
0001
0100
,
0000
1000
0000
0010
1000
0001
0100
0010
,
0001
1000
0100
0001
1001
0000
0000
0000
;

//---------------dance-single - Copied from----------------
#NOTES:
     dance-single:
     Copied from:
     Medium:
     5:
     0.385,0.364,0.290,0.000,0.000,174.000,21.000,0.000,0.000,0.000:
1000
0000
0100
0000
0100
1000
0010
1000
,
0100
0000
0000
0101
0000
0000
0100
0000
,
1010
0000
0000
0110
0000
0000
0001
0000
,
0101
0000
0000
1100
0000
0000
0010
0000
,
0001
0000
1000
0000
0100
0010
1000
0001
,
0100
0000
0000
1100
0000
0000
0001
0000
,
0110
0000
0000
0011
0000
0000
0001
0000
,
1010
0000
0000
1100
0000
0000
0010
0000
,
0100
0000
0010
0000
0001
0100
0000
1000
,
0000
0000
0000
0010
0000
1000
0000
0000
,
0001
0100
0010
0001
0000
0001
0100
0000
,
0100
1000
0010
1000
0000
0100
0010
0000
,
0001
0000
1000
0000
0010
1000
0000
0001
,
0000
0000
0000
0100
0000
1000
0000
0000
,
0010
0001
0100
0010
0000
0001
0100
0000
,
0010
1000
0010
1000
0000
0100
0010
0000
,
0001
0100
0000
0001
0000
0000
0000
0000
,
1000
0010
0000
0100
0000
0001
0000
0000
,
0100
1000
0000
0001
0000
0000
0000
0000
,
0010
1000
0000
0001
0000
0100
1000
0000
,
1000
0000
0010
0001
1000
0010
0100
0000
,
0000
0101
0000
0000
1010
0000
0100
0000
,
0000
0101
0000
0000
0011
0000
0100
0000
,
0000
1010
0000
0000
0100
0000
0010
0000
,
0010
0000
0001
0100
0010
0001
1000
0000
,
0000
1010
0000
0000
0010
0000
1001
0000
,
0000
1100
0000
0000
0001
0000
0101
0000
,
0000
1010
0000
0000
0010
0000
0001
0000
,
1000
0000
1000
0100
0000
0001
0000
0000
,
0000
1000
0000
0010
0000
0000
1000
0010
,
0001
0010
0000
1000
0100
0000
1000
0010
,
0100
1000
0000
0010
1000
0000
0001
0000
,
0001
0000
0010
0001
0000
0100
0000
0000
,
0000
1000
0000
0010
0000
0000
1000
0100
,
0010
0001
0000
0100
0010
0000
0100
0001
,
0010
0001
0000
0010
0100
0000
1000
0010
,
0000
1100
0000
0000
0000
0000
0001
0100
,
0000
0010
0000
0001
0000
0000
1000
0010
,
0000
1000
0000
0001
0100
0010
0001
0100
,
0000
1000
0000
0001
1000
0000
0100
0000
,
0001
1000
0100
0010
1000
0000
0000
0000
;

//---------------dance-single - Copied from Copied f----------------
#NOTES:
     dance-single:
     Copied from Copied f:
     Easy:
     4:
     0.288,0.280,0.290,0.000,0.000,125.000,21.000,0.000,0.000,0.000:
1000
0100
0100
0010
,
0100
0000
0000
0001
0000
0000
0100
0000
,
0010
0000
0000
0010
0000
0000
0001
0000
,
0100
0000
0000
1000
0000
0000
0010
0000
,
0001
1000
0100
1000
,
0100
0000
0000
0100
0000
0000
0001
0000
,
0010
0000
0000
0010
0000
0000
0001
0000
,
1000
0000
0000
0100
0000
0000
0010
0000
,
0100
0000
0010
0000
0101
0000
0000
1000
,
0000
0000
0000
0010
0000
1000
0000
0000
,
0101
0000
0000
0001
0000
0001
0000
0000
,
0110
0000
0000
1000
0000
0000
0110
0000
,
0001
0000
1000
0000
0110
0000
0000
0001
,
0000
0000
0000
0100
0000
1000
0000
0000
,
0110
0000
0000
0010
0000
0001
0000
0000
,
1010
0000
0010
0000
0000
0100
0000
0000
,
0011
0000
0000
0001
0000
0000
0000
0000
,
1010
0000
0000
0100
0000
0001
0000
0000
,
0110
0000
0000
0001
0000
0000
0000
0000
,
1010
0000
0000
0001
0000
0010
1000
0000
,
1000
0010
1000
0100
,
0000
0001
0000
0000
1000
0000
0100
0000
,
0000
0001
0000
0000
0010
0000
0100
0000
,
0000
1000
0000
0000
0100
0000
0010
0000
,
0010
0001
0010
1000
,
0000
0010
0000
0000
0010
0000
1000
0000
,
0000
0100
0000
0000
0001
0000
0100
0000
,
0000
1000
0000
0000
0010
0000
0001
0000
,
1000
0000
1010
0000
0000
0001
0000
0000
,
0000
1000
0000
0010
0000
0000
1010
0000
,
0000
0010
0000
0000
0100
0000
1010
0000
,
0000
1000
0000
0000
1010
0000
0001
0000
,
0001
0000
0110
0000
0000
0100
0000
0000
,
0000
1000
0000
0010
0000
0000
1010
0000
,
0000
0001
0000
0100
0000
0000
1100
0000
,
0000
0100
0000
0010
0000
0000
1010
0000
,
0000
0100
0000
0000
0000
0000
0101
0000
,
0000
0010
0000
0001
0000
0000
1100
0000
,
0000
1000
0000
0000
0000
0000
0001
0000
,
0000
1000
0000
0001
1000
0000
0100
0000
,
0010
0100
1000
0000
;

//---------------dance-single - Copied from----------------
#NOTES:
     dance-single:
     Copied from:
     Challenge:
     10:
     0.861,0.700,1.000,0.000,0.000,320.000,116.000,0.000,0.000,0.000:
1000
0010
0100
0001
0100
1000
0010
1000
,
1100
0001
0010
0101
1000
0010
1100
0001
,
1010
0100
1000
0110
0010
1000
0011
0010
,
0101
0100
0010
1100
0001
0100
1010
0010
,
0001
0100
1000
0010
0100
0001
0100
0100
,
1100
0010
0100
1100
0001
0010
0101
1000
,
0110
0100
1000
0011
0100
0010
0101
0100
,
1010
0001
0010
1100
0100
1000
0011
0100
,
0100
1000
0011
0010
0101
1100
0010
1100
,
0010
0100
0001
0110
0010
1001
0100
1000
,
1001
0100
0010
1001
0100
0001
0100
1001
,
0110
1000
0010
1010
0001
0100
1010
0100
,
0001
0100
1001
0100
0011
1100
0010
0101
,
1000
0100
0010
0110
0001
1100
0010
0100
,
1010
0001
0100
0110
1000
0001
0101
0100
,
0011
1000
0010
1100
0001
0100
1010
0010
,
0101
0110
1000
1001
0100
0010
0001
0100
,
1010
0011
0100
1100
0010
0101
1000
0100
,
0110
1100
0010
0011
0010
0001
1000
0100
,
0011
1010
0000
0011
0000
1100
1000
0001
,
1000
0100
0010
0001
0100
0010
0011
1000
,
0100
0101
0010
0001
1010
0010
1100
0010
,
0100
0101
1000
0100
0011
0100
0110
1000
,
0001
1010
0010
0001
0100
0100
0010
1000
,
0010
1000
0001
0100
0010
0001
0101
0100
,
0100
1010
0010
0010
0110
0100
1001
0001
,
0001
1100
0100
1000
0011
0010
0101
0100
,
0001
1010
1000
0010
0110
0100
0001
0100
,
1010
0010
1010
0110
0010
1001
0100
0010
,
0001
1010
0100
0011
0010
0100
1100
0010
,
0001
0011
0100
1010
0101
0001
1010
0010
,
0100
1100
0001
0110
1001
0010
0001
1000
,
1001
0100
0110
0101
1000
0110
1000
0001
,
0010
1100
0100
0011
1000
0100
1010
0100
,
0010
0101
0010
1100
0110
0001
1100
0001
,
0010
1001
0000
0011
0110
0001
1100
0110
,
0010
1100
0100
0010
0010
0100
0101
1100
,
0001
0110
1000
0011
0100
0010
1100
0011
,
0001
1010
0010
0001
0100
0010
0011
0110
,
0000
1100
0000
0110
1000
0001
0100
0010
,
0001
1000
0100
0001
1001
0000
0000
0000
;
