#TITLE:Chaos Angel - Act 1;
#SUBTITLE:[Sonic Advance 3];
#ARTIST:Sonic Team;
#TITLETRANSLIT:;
#SUBTITLETRANSLIT:;
#ARTISTTRANSLIT:;
#CREDIT:;
#BANNER:choasact1.png;
#BACKGROUND:choasact1-bg.png;
#LYRICSPATH:;
#CDTITLE:!hiryuu.png;
#MUSIC:chaosact1.ogg;
#OFFSET:-0.177;
#SAMPLESTART:6.471;
#SAMPLELENGTH:25.417;
#SELECTABLE:YES;
#BPMS:0.000=151.130,140.000=75.565,172.000=151.130;
#STOPS:;
#BGCHANGES:;
// cache tags:
#FIRSTBEAT:16.000;
#LASTBEAT:272.000;
#SONGFILENAME:Songs/keyboard/chaosact1/chaosact1.sm;
#HASMUSIC:1;
#HASBANNER:1;
#MUSICLENGTH:129.087;
// end cache tags

//---------------dance-single - MANIAC----------------
#NOTES:
     dance-single:
     MANIAC:
     Hard:
     10:
     0.789,0.817,0.627,0.015,1.000,630.000,81.000,2.000,0.000,0.000:
0000
0000
0000
0000
,
0000
0000
0000
0000
,
0000
0000
0000
0000
,
0000
0000
0000
0000
,
1000
0010
0000
0100
0000
0110
0000
0000
0001
0010
0000
0100
0000
1001
0000
0000
,
0100
0010
0000
0001
0000
1010
0000
0000
0010
0100
0000
0001
0000
0011
0000
0000
,
0010
0100
0000
1000
0000
1100
0000
0000
0010
0100
0000
0001
0000
0101
0000
0000
,
1000
0000
0010
0100
0000
0100
0010
0000
0010
1000
0000
0010
0000
0100
0000
0001
,
0000
0000
1010
0000
0000
0000
0010
0000
1000
0010
0100
0010
1000
0010
0100
0010
,
0000
0000
0101
0000
0000
0000
0100
0000
0001
0100
0010
0100
0001
0100
0010
0100
,
0000
0000
1001
0000
0000
0000
0001
0000
1000
0001
1000
0010
1000
0001
1000
0010
,
0100
0000
0001
0100
0000
0100
0010
0000
1000
0010
0000
0100
0000
0001
0000
1000
,
0001
0000
0000
0101
0000
0000
0100
0010
1000
0000
0010
0000
1010
0000
0100
0000
,
0010
0000
0000
0110
0000
0000
0010
1000
0100
0000
0001
0000
0011
0000
1000
0000
,
0001
0000
0000
1010
0000
0000
0100
0001
0010
0000
0001
0000
1001
0000
1000
0000
,
1010
0010
0110
0101
0001
0101
0001
1001
,
1001
0000
0010
0100
1000
0000
0001
0000
0000
0000
1001
0000
0000
0000
0001
0000
,
0101
0000
0100
0001
1000
0000
0010
0000
0000
0000
0110
0000
0000
0000
0010
0100
,
0001
0000
0100
0010
1000
0000
0010
0100
0001
0000
0100
0010
1000
0000
0001
0000
,
1001
0000
1000
0000
1010
0000
0010
0000
0100
0001
0100
0000
0010
1000
0010
0000
,
1000
0000
0010
0100
0000
0100
0001
0100
0010
0000
1010
0000
1000
0000
1001
0000
,
0001
0000
0100
0010
0000
0010
1000
0010
0100
0000
0101
0000
0001
0000
1001
0000
,
1000
0000
0010
0100
0000
0100
0001
0100
0010
0000
1010
0000
1000
0000
1001
0000
,
0001
0000
0100
0000
0010
0000
1000
0000
0010
0100
0001
0000
0100
0010
1000
0000
,
0001
0000
0100
0010
1000
0000
0010
0000
0110
0000
0100
0000
0101
0000
0001
0000
,
1001
0000
0010
0100
0001
0000
0100
0000
0110
0000
0010
0000
1010
0000
1000
0000
,
1001
0000
0001
0100
0010
0000
1000
0000
1010
0000
0001
0000
0101
0000
0100
0000
,
0100
0010
0000
1010
0000
0010
0000
0000
0001
0100
0000
0101
0000
0100
0000
0000
,
0010
0100
0000
0110
0000
0010
0000
0000
0000
1001
0000
0000
1001
0000
0000
0000
,
0001
0100
0000
0110
0000
0010
0000
0000
1000
0100
0000
0110
0000
0010
0000
0000
,
0001
1000
0000
1001
0000
1000
0000
0000
0000
0110
0000
0000
0110
0000
0000
0000
,
1000
0010
0000
1000
0000
0010
0100
0001
0100
0010
0000
0100
0000
0001
0010
0100
,
1000
0001
0000
0010
0000
0001
0100
0010
0000
1010
0000
0000
0101
0000
0000
0000
,
0100
0010
0000
1000
0000
0001
0010
0100
1000
0001
0000
0100
0000
0001
0100
0010
,
1000
0100
0000
1000
0000
0001
0010
0100
0000
0011
0000
0000
1100
0000
0000
0000
,
0001
0100
0000
0010
1000
0010
0100
0001
0010
0100
0000
1000
0010
0100
0001
1000
,
0001
1000
0000
0010
0100
0001
0010
0100
1000
0010
0000
0100
0001
1000
0010
0100
,
0001
0010
0000
0001
0100
0010
1000
0001
0000
0110
0000
0010
0000
1010
0000
0001
,
0000
0100
0010
0100
0001
1000
0100
0010
0000
0100
0010
0001
1000
0010
0100
0001
,
1000
0010
0100
0010
1000
0010
0100
0010
0001
0100
0010
0100
0001
0100
0010
0100
,
1000
0100
1000
0010
1000
0100
1000
0010
0001
0100
0001
0010
0001
0100
0001
0010
,
1000
0100
0001
1000
0100
0001
1000
0100
0000
1100
0000
0100
0000
0101
0000
0001
,
1000
0010
0001
1000
0010
0001
1000
0010
0100
0001
0100
0010
1000
0010
0100
0001
,
1000
0010
0000
0100
0000
0100
0000
0000
0001
0010
0000
0100
0000
0100
0000
0000
,
1000
0001
0000
0100
0000
0100
0000
0000
0001
0010
0000
0100
0000
0100
0000
0000
,
1000
0001
0000
0010
0000
0010
0000
0000
0001
1000
0000
0010
0000
0010
0000
0000
,
0100
0001
0000
0010
0000
0010
0000
0000
0100
1000
0000
0010
0000
0010
0000
0000
,
1000
0010
0000
0100
0000
0100
0010
1000
0001
0100
0000
0100
0000
0010
1000
0001
,
0100
0010
0000
0010
0000
0100
0001
1000
0100
0010
0000
0010
0000
0100
0001
1000
,
0001
0100
0000
0010
1000
0100
0000
0010
0100
0001
0000
0100
0010
1000
0000
0001
,
0100
0010
0000
1000
0100
1000
0000
0001
0010
0001
0000
0100
0010
0100
0000
0001
,
1000
0010
0000
0100
0000
0101
0000
0000
0010
0100
0000
0010
0000
1010
0000
0100
,
0001
0010
0000
1000
0000
1010
0000
0000
0010
0100
0000
0001
0000
0101
0000
0010
,
1000
0010
0000
0100
0000
0101
0000
0000
0010
0001
0000
1000
0000
1001
0000
0010
,
0100
0010
0000
1000
0001
1000
0000
0010
0100
0010
0000
1000
0001
1000
0000
0001
,
0100
0010
0000
1000
0000
1010
0000
0000
0100
0001
0000
0100
0000
0101
0001
1000
,
0010
0100
0000
0001
0000
0101
0000
0000
1000
0010
0000
0100
0000
0110
0100
0010
,
1000
0001
0000
0100
0000
0011
0000
0000
0100
0010
0000
1000
0000
1001
0001
0100
,
0010
1000
0010
0000
0100
0001
0100
0000
0010
1000
0010
0100
0010
0100
0001
0100
,
0001
0100
0000
0010
0000
0100
0000
0000
1000
0010
0000
0100
0000
0010
0000
0000
,
0100
0001
0000
0010
0000
0100
1000
0010
0000
0110
0000
0000
0110
0000
0000
0000
,
1000
0010
0000
0100
0000
0001
0010
0100
1000
0001
0000
0100
0000
0010
1000
0001
,
0010
0100
0000
1000
0000
0001
0100
0010
0000
1001
0000
0000
1001
0000
0000
0000
,
0100
0001
0000
0001
0100
0000
0110
0000
1000
0010
0000
0010
1000
0000
0110
0000
,
0001
0010
0000
0010
1000
0000
1000
0010
0000
0101
0000
0000
0101
0000
0000
0000
,
0001
0100
0010
0000
1000
0010
0100
0000
0010
0100
1000
0000
0100
0010
0001
0000
,
0100
0010
1000
0001
0100
0010
1000
0010
0000
0101
0000
0000
1010
0000
0000
0000
,
2002
0000
0000
0000
,
3003
0000
0000
0000
;

//---------------dance-single - TRICKY----------------
#NOTES:
     dance-single:
     TRICKY:
     Medium:
     9:
     0.546,0.553,0.333,0.015,0.802,448.000,43.000,2.000,0.000,0.000:
0000
0000
0000
0000
,
0000
0000
0000
0000
,
0000
0000
0000
0000
,
0000
0000
0000
0000
,
1000
0010
0000
0100
0000
0010
0000
0000
1000
0010
0000
0100
0000
0010
0000
0000
,
0100
0001
0000
0010
0000
0001
0000
0000
0100
0001
0000
0010
0000
0001
0000
0000
,
1001
0000
0001
0100
0000
0100
0001
0000
,
1000
0000
0010
0100
0000
0100
0001
0000
0000
0001
0000
0001
0000
0001
0000
0001
,
0000
0110
0000
0100
1000
0100
1000
0100
,
0000
1001
0000
0010
0001
0010
0001
0010
,
0000
0110
0000
0010
1000
0010
1000
0010
,
0100
0000
0000
0001
0000
0000
1000
0000
0001
1000
0000
1000
0000
1000
0000
1000
,
0001
0000
0000
0100
0000
0000
0001
0100
0001
0000
0000
0000
0101
0000
0000
0000
,
0010
0000
0000
1000
0000
0000
0010
1000
0010
0000
0000
0000
1010
0000
0000
0000
,
0100
0000
0000
0010
0000
0000
0100
0010
0100
0000
0000
0000
0110
0000
0000
0000
,
1000
0000
0100
0001
0000
0100
0000
0010
,
1010
0000
0100
1000
0000
0001
0000
0001
,
0100
0000
0001
1000
0000
1001
0000
0000
,
0001
0000
1000
0010
0000
0110
0000
0001
,
1000
0010
0100
0010
0100
0001
0010
0100
,
1000
0000
0000
0010
0000
0000
1000
0010
1000
0000
0000
0000
1010
0000
0000
0000
,
0001
0000
0000
0100
0000
0000
0001
0100
0001
0000
0000
0000
0101
0000
0000
0000
,
0001
0000
0000
1000
0000
0000
0001
1000
0001
0000
0000
0000
1001
0000
0000
0000
,
0110
0000
0010
0100
0000
0001
0000
1000
,
0010
0000
1000
0010
0000
0110
0000
0001
,
1000
0000
0010
0100
0000
0110
0000
0000
,
0001
0010
0100
1000
0000
1001
0000
0001
,
0100
0010
0000
0000
0000
0000
0000
0000
1000
0001
0000
0000
0000
0000
0000
0000
,
0100
0010
0000
0000
0000
0000
0000
0000
0000
1001
0000
0000
1001
0000
0000
0000
,
0001
0100
0000
0000
0000
0000
0000
0000
0010
1000
0000
0000
0000
0000
0000
0000
,
0001
1000
0000
0000
0000
0000
0000
0000
0000
0110
0000
0000
0110
0000
0000
0000
,
1000
0010
0000
1000
0000
0000
0010
0000
0100
0001
0000
0100
0000
0000
0001
0000
,
0100
0010
0000
0100
0000
0000
0010
0000
0000
0100
0000
0000
0100
0000
0000
0000
,
0001
0010
0000
0001
0000
0000
0010
0000
0100
1000
0000
0100
0000
0000
1000
0000
,
0001
1000
0000
0001
0000
0000
1000
0000
0000
0001
0000
0000
0001
0000
0000
0000
,
0001
0100
0000
0000
1000
0000
0001
0000
0100
0010
0000
0000
0100
0000
0001
0000
,
0010
0100
0000
0000
1000
0000
0010
0000
0100
0001
0000
0000
1000
0000
0001
0000
,
0100
0010
0000
0100
0010
0000
0100
0000
0000
0001
0000
0010
0000
0100
0000
1000
,
0000
0010
0100
0000
0001
0000
0100
0000
0000
1000
0001
0000
0100
0000
0010
0000
,
0001
1000
0001
0000
1000
0000
0001
0000
0100
0010
0100
0000
0010
0000
0100
0000
,
0001
1000
0001
0000
0010
0000
0100
0000
1000
0010
1000
0000
0001
0100
0001
0000
,
1000
0000
0000
1010
0000
0000
1001
0000
0000
0100
0000
0100
0000
0100
0000
0100
,
0001
0000
0000
0101
0000
0000
0110
0000
1010
0000
0000
0101
0000
0000
1001
0000
,
1000
0000
0000
1000
0000
1100
0000
0000
0001
0000
0000
0001
0000
0101
0000
0000
,
0010
0000
0000
0100
0000
0110
0000
0000
1000
0000
0000
0001
0000
1001
0000
0000
,
0001
0000
0000
1000
0000
1010
0000
0000
1000
0000
0000
0001
0000
0101
0000
0000
,
0001
0000
0000
0100
0000
0110
0000
0000
1000
0000
0000
0010
0000
0110
0000
0000
,
1000
0010
0000
1000
0000
0010
0000
0000
0001
0100
0000
0001
0000
0100
0000
0000
,
1000
0010
0000
1000
0000
0010
0000
0000
0001
0100
0000
0001
0000
0100
0000
0000
,
0001
0100
0000
0000
0010
1000
0000
0000
0001
0100
0000
0000
0010
1000
0000
0000
,
0001
0010
0000
0010
1000
0000
1000
0010
0000
0010
0000
0001
0000
0001
0100
0000
,
1000
0010
0000
1000
0000
0010
0000
0000
0001
0100
0000
0001
0000
0100
0000
0000
,
1000
0001
0000
1000
0000
0001
0000
0000
0010
0100
0000
0010
0000
0100
0000
0000
,
1000
0010
0000
0100
0000
0001
0000
0000
0010
0001
0000
1000
0000
0100
0000
0000
,
0001
0010
0000
0010
0001
0000
1000
0010
0000
0100
0000
0001
0000
1000
0000
0001
,
0010
0001
0000
0010
0000
0001
0000
0000
1000
0100
0000
1000
0000
0100
0000
1000
,
0010
0100
0000
0010
0000
0100
0000
0000
0001
1000
0000
0001
0000
1000
0000
0001
,
0100
0001
0000
0100
0000
0001
0000
0000
1000
0010
0000
1000
0000
0010
0000
1000
,
0010
1000
0010
0000
0100
0001
0100
0000
0010
1000
0010
0000
0001
0100
0001
0000
,
1000
0010
0000
1000
0000
0010
0000
0000
1000
0010
0000
1000
0000
0010
0000
0000
,
1000
0010
0000
1000
0000
0010
1000
0000
0000
1010
0000
0000
1010
0000
0000
0000
,
0001
0100
0000
0001
0000
0100
0000
0000
0001
0100
0000
0001
0000
0100
0000
0000
,
0001
0100
0000
0001
0000
0100
0001
0000
0000
0101
0000
0000
0101
0000
0000
0000
,
0100
0001
0000
0001
0100
0000
0010
0000
1000
0010
0000
0010
1000
0000
0100
0000
,
0001
0010
0000
0010
1000
0000
1000
0010
0000
0110
0000
0000
0110
0000
0000
0000
,
0001
0100
0000
0010
0000
1000
0010
0000
0100
0001
0000
0100
0000
0010
1000
0000
,
0001
0010
0000
0010
0001
0000
0001
1000
0000
0001
0000
0000
1000
0000
0000
0000
,
2002
0000
0000
0000
,
3003
0000
0000
0000
;

//---------------dance-single - BASIC----------------
#NOTES:
     dance-single:
     BASIC:
     Easy:
     6:
     0.369,0.448,0.054,0.015,0.391,324.000,7.000,2.000,0.000,0.000:
0000
0000
0000
0000
,
0000
0000
0000
0000
,
0000
0000
0000
0000
,
0000
0000
0000
0000
,
1000
0000
0000
0010
0000
0000
0100
0000
0000
0001
0000
0000
1000
0000
0000
0000
,
0001
0000
0000
0010
0000
0000
0100
0000
0000
1000
0000
0000
0001
0000
0000
0000
,
0100
0100
0010
0010
,
1000
0000
0000
0010
0000
0000
0100
0000
0000
0001
0000
0001
0000
0001
0000
0000
,
0000
1000
0000
0100
1000
0000
1100
0000
,
0000
0001
0000
0010
0001
0000
0011
0000
,
0000
0100
0000
0010
0100
0000
0110
0000
,
0001
0000
0000
1000
0000
0000
0010
0000
0000
0100
0000
0100
0000
0100
0000
0000
,
0010
0000
0000
0100
0000
0000
0000
0000
0010
0000
0000
0000
0100
0000
0000
0000
,
0001
0000
0000
1000
0000
0000
0000
0000
0001
0000
0000
0000
1000
0000
0000
0000
,
0010
0000
0000
1000
0000
0000
0000
0000
0001
0000
0000
0000
0100
0000
0000
0000
,
0001
0010
0100
1000
,
0001
0000
0100
0001
0000
0100
0000
0000
,
0010
0000
1000
0010
0000
1000
0000
0000
,
0010
1000
0100
0001
,
0010
0001
0100
1000
,
0010
0000
0000
0010
0000
0000
0000
0000
0010
0000
0000
0000
0010
0000
0000
0000
,
0100
0000
0000
0100
0000
0000
0000
0000
0100
0000
0000
0000
0100
0000
0000
0000
,
0001
0000
0000
0001
0000
0000
0000
0000
1000
0000
0000
0000
1000
0000
0000
0000
,
0010
0100
0001
1000
,
0001
0000
0100
0010
0000
1000
0000
0010
,
0100
0000
0001
0010
0000
0100
0000
0000
,
1000
0001
1000
0001
0000
1000
0000
0001
,
1000
0000
0100
0000
,
0010
0000
0000
0000
0000
0000
0000
0000
0000
0001
0000
0000
0001
0000
0000
0000
,
0001
0000
0100
0000
,
0010
0000
0000
0000
0000
0000
0000
0000
0000
1000
0000
0000
1000
0000
0000
0000
,
0010
0000
0000
0010
0000
0000
0010
0000
0100
0000
0000
0100
0000
0000
0100
0000
,
0001
0000
0000
1000
0000
0000
0001
0000
0000
1000
0000
0000
0001
0000
0000
0000
,
1000
0000
0000
1000
0000
0000
1000
0000
0001
0000
0000
0001
0000
0000
0001
0000
,
0100
0000
0000
0010
0000
0000
1000
0000
0000
0001
0000
0000
1000
0000
0000
0000
,
0001
0010
0001
0010
0100
1000
0100
1000
,
0001
0010
0100
1000
0001
0100
0010
1000
,
0001
0010
0000
0001
0000
0010
0000
0000
0000
0001
0000
0010
0000
0100
0000
1000
,
0000
0010
0100
0000
0000
0010
0000
0100
1000
0001
0000
0100
0000
0010
0000
0000
,
1000
0001
0000
0100
0000
0010
0000
0000
0100
0010
0000
1000
0000
0001
0000
0000
,
0010
0001
0000
0010
0000
0001
0000
0000
1000
0010
0000
1000
0000
0010
0000
1000
,
0010
0000
0000
0010
0000
0000
0010
0000
0000
0100
0000
0100
0000
0100
0000
0100
,
0001
0000
0000
0001
0000
0000
0001
0000
1000
0000
0000
1000
0000
0000
1000
0000
,
0001
0010
0001
0010
,
0100
1000
0100
1000
,
0010
0100
0010
0100
,
0001
1000
0001
1000
,
1000
0010
0000
0000
1000
0000
0000
0000
0010
0000
0000
0000
1000
0000
0000
0000
,
0001
0100
0000
0000
0001
0000
0000
0000
0100
0000
0000
0000
0001
0000
0000
0000
,
0100
0010
0000
0000
0100
0000
0000
0000
0010
0000
0000
0000
0100
0000
0000
0000
,
0001
1000
0000
0000
0001
1000
0000
0000
0001
1000
0000
0000
0001
1000
0000
0000
,
0010
0100
0000
0000
0010
0000
0000
0000
0100
0000
0000
0000
0010
0000
0000
0000
,
1000
0001
0000
0000
1000
0000
0000
0000
0001
0000
0000
0000
1000
0000
0000
0000
,
0010
1000
0000
0000
0010
0000
0000
0000
1000
0000
0000
0000
0010
0000
0000
0000
,
0100
0001
0000
0000
0100
0000
0000
0000
0001
0000
0000
0000
0100
0000
0000
0000
,
0001
0000
0000
0010
0000
0010
0000
0000
1000
0000
0000
0100
0000
0100
0000
0000
,
1000
0000
0000
0001
0000
0001
0000
0000
0100
0000
0000
0010
0000
0010
0000
0000
,
0100
0000
0000
0010
0000
0000
0100
0000
0001
0000
0000
0100
0000
0000
0010
0000
,
1000
0000
0000
0010
0000
0000
0100
0000
0001
0000
0000
0010
0000
0000
0100
0000
,
1000
0010
0000
0000
1000
0000
0000
0000
1000
0010
0000
0000
1000
0000
0000
0000
,
1000
0010
0000
0000
1000
0000
0000
0000
0000
0010
0000
0000
0010
0000
0000
0000
,
0100
0001
0000
0000
0100
0000
0000
0000
0100
0001
0000
0000
0100
0000
0000
0000
,
0100
0001
0000
0000
0100
0000
0000
0000
0000
0001
0000
0000
0001
0000
0000
0000
,
0100
0001
0000
0000
0100
0000
0000
0000
0010
1000
0000
0000
0010
0000
0000
0000
,
0001
1000
0000
0000
1001
0000
0000
0000
0000
0001
0000
0000
1000
0000
0000
0000
,
0001
0100
0000
0000
0010
0000
0000
0000
1000
0010
0000
0000
0100
0000
0000
0000
,
0001
1000
0000
0000
0001
1000
0000
0000
0000
1001
0000
0000
1001
0000
0000
0000
,
2002
0000
0000
0000
,
3003
0000
0000
0000
;
