#TITLE:Clouded Cookie Box;
#SUBTITLE:;
#ARTIST:The Cookie Rapist;
#TITLETRANSLIT:;
#SUBTITLETRANSLIT:;
#ARTISTTRANSLIT:;
#CREDIT:Aoreo;
#BANNER:Bn-Cookie.png;
#BACKGROUND:Bg-Cookie.png;
#LYRICSPATH:;
#CDTITLE:;
#MUSIC:Clouded Cookie Box.ogg;
#OFFSET:-0.019;
#SAMPLESTART:112.938;
#SAMPLELENGTH:12.000;
#SELECTABLE:YES;
#BPMS:0.000=250.000;
#STOPS:;
#BGCHANGES:;
// cache tags:
#FIRSTBEAT:64.000;
#LASTBEAT:624.000;
#SONGFILENAME:Songs/SPEEEDCOOOORE/Clouded Cookie Box - [Aoreo]/Clouded Cookie Box.sm;
#HASMUSIC:1;
#HASBANNER:1;
#MUSICLENGTH:157.049;
// end cache tags

//---------------dance-single - J. Nero----------------
#NOTES:
     dance-single:
     J. Nero:
     Challenge:
     14:
     0.873,1.000,0.579,0.274,0.478,820.000,91.000,43.000,108.000,5.000:

0000
0000
0000
0000
,
0000
0000
0000
0000
,
0000
0000
0000
0000
,
0000
0000
0000
0000
,
0000
0000
0000
0000
,
0000
0000
0000
0000
,
0000
0000
0000
0000
,
0000
0000
0000
0000
,
0000
0000
0000
0000
,
0000
0000
0000
0000
,
0000
0000
0000
0000
,
0000
0000
0000
0000
,
0000
0000
0000
0000
,
0000
0000
0000
0000
,
0000
0000
0000
0000
,
0000
0000
0000
0000
,
1001
0000
0101
0000
,
0110
0000
0000
1010
0000
0000
1100
0000
,
1001
0000
0101
0000
,
0011
0000
0000
0110
0000
0000
0110
0000
,
1100
0000
1010
0000
,
0110
0000
0000
0101
0000
0000
1001
0000
,
1010
0000
0110
0000
,
0101
0000
0000
1001
0000
0000
1010
0000
,
1100
0000
0110
0000
,
0011
0000
0000
0101
0000
0000
1010
0000
,
1001
0000
0101
0000
,
0110
0000
0000
1010
0000
0000
1100
0000
,
1001
0000
0101
0000
,
0011
0000
0000
0110
0000
0000
0110
0000
,
1100
0000
1010
0000
,
0110
0000
0000
0101
0000
0000
1001
0000
,
1010
0000
0010
0000
1000
0001
1000
0000
,
0001
0100
0001
0000
1000
0000
0001
0000
,
0010
0000
0100
0000
0010
0100
0010
0000
,
0100
1000
0100
0000
1000
0000
0010
0000
,
0100
0000
0001
0000
0100
0001
0100
0000
,
0010
1000
0010
0000
1000
0000
0100
0000
,
0010
0000
0001
0000
0010
0100
1000
0000
,
0100
1000
0010
0000
0100
0000
0010
0000
,
0200
0001
0010
0001
,
0320
1000
0100
1000
,
0230
0001
0320
2030
,
3002
1000
1003
0001
,
0200
0010
0001
0310
,
2002
0000
0000
0000
0000
0000
0000
0000
0MM0
0000
0MM0
0000
0MM0
0MM0
0MM0
0MM0
,
0MM0
0000
0MM0
0000
0MM0
0000
0MM0
0000
0MM0
0000
0MM0
0000
0MM0
0000
0MM0
0000
0MM0
0000
0MM0
0000
0MM0
0000
0MM0
0MM0
0MM0
0MM0
0MM0
0MM0
0MM0
0MM0
0MM0
0MM0
,
0MM0
0MM0
0MM0
0MM0
0MM0
0MM0
0MM0
0MM0
0MM0
0MM0
0MM0
0MM0
0MM0
0MM0
0MM0
0MM0
0MM0
0MM0
0MM0
0MM0
0MM0
0MM0
0MM0
0MM0
3MM3
0000
0000
0000
0000
0000
0000
0000
,
1000
0100
1000
0010
0100
0001
0010
0100
,
1000
0000
0010
0000
0100
0000
0001
0000
1000
0000
0001
0000
0100
0001
0100
0001
,
0100
0001
0010
0100
1000
0010
0100
0001
,
0010
0100
1000
0010
0100
0000
0100
0000
,
0001
0100
0010
1000
0100
0010
0100
1000
,
0001
0000
0100
0000
0010
0000
0100
0000
0001
0000
1000
0000
0001
0000
1000
0001
,
1000
0001
0100
0010
0100
0001
0010
0100
,
1000
0000
0010
0000
0100
0000
0001
0000
1000
0000
0000
0000
0001
0100
0001
0100
,
0001
0100
0001
0010
0100
1000
0010
1000
,
0010
0000
0100
0000
0001
0000
1000
0000
0001
0000
0010
0000
0100
1000
0100
1000
,
0001
0000
0100
0000
0010
0000
0100
0000
0001
0000
0000
0000
1000
0100
1000
0100
,
1000
0000
0001
0000
0100
0000
0001
0000
1000
0001
1000
0001
1000
0001
1000
0001
,
1000
0001
0010
0100
0010
0001
0100
0010
,
1000
0000
0001
0000
1000
0000
0010
0000
0100
0000
0000
0000
0001
0100
0001
0100
,
0001
0000
0100
0000
0001
0000
0010
0100
,
0010
0000
0000
0000
0100
0000
0000
0000
1000
0100
1000
0100
1000
0100
1000
0100
,
1000
0100
1000
0001
,
0100
0000
0001
0010
0000
0010
0100
0000
,
1000
0000
0010
1000
0001
0010
0000
0100
,
0010
0000
0100
1000
0000
1000
0001
0000
,
0100
0000
0001
0010
0100
0010
0000
0100
,
0010
0000
0100
1000
0000
1000
0001
0000
,
0100
0000
0010
1000
0100
0010
0000
0001
,
0100
0000
0010
0100
0000
0100
0001
0000
,
1000
1100
0100
1001
,
0001
0011
0010
0110
,
0100
1100
1000
1001
,
0001
0101
0100
1001
,
2202
3303
0000
0000
,
2222
3333
0000
0000
,
0022
1000
0033
0022
1000
0033
0022
0000
,
2233
0000
0000
0000
3300
0000
0000
0000
0001
1000
0001
1000
0001
1000
0001
1000
,
0001
0100
0001
0100
0010
1000
0010
1000
0001
0000
0010
0000
0100
0000
0010
0000
,
0001
0000
1000
0000
0010
0000
0100
0000
0001
0100
0001
0100
0001
0100
0001
0100
,
0001
0100
0010
1000
0100
0010
0001
0010
,
0100
0000
1000
0000
0001
0000
1000
0000
0100
1000
0100
1000
0100
1000
0100
1000
,
0400
0000
0300
2000
3004
0000
0003
0000
,
0100
0000
0001
0000
0010
0000
0100
0000
1000
0000
0010
0000
0100
0000
0001
0100
,
0001
0010
0100
1000
0001
0100
0010
1000
,
1010
0000
0110
0101
,
0001
0010
0100
0010
0001
1000
0001
1000
,
0100
0000
0010
0000
0100
0000
1000
0000
0001
0000
0100
0000
0001
0100
0001
0100
,
0001
0100
0010
1000
0100
0010
0100
1000
,
0001
0000
0000
0000
1000
0001
1000
0001
1000
0000
0001
0000
0100
0000
0001
0100
,
0001
0100
0010
1000
0010
1000
0001
1000
0001
1000
0100
0010
0001
0010
0001
1000
,
0001
1000
0010
1000
0010
0100
0010
0100
0001
0000
0100
0000
0010
0000
1000
0000
,
0100
1000
0100
1000
0001
0010
0001
0010
0100
1000
0001
1000
0001
0000
1000
0001
,
1000
0001
1000
0001
1000
0001
0100
0000
0001
0100
0001
0100
0001
0100
0001
0100
,
0001
0100
0010
1000
,
0001
0000
1000
0100
0000
0100
0010
0000
,
0100
0000
1000
0010
0100
0010
0000
0100
,
0001
0000
0010
0100
0000
0100
1000
0000
,
0001
0000
0100
0010
1000
0001
0000
0010
,
0100
0000
1000
0010
0000
0010
0100
0000
,
0001
0000
0010
0100
1000
0010
0000
0100
,
0001
0000
0010
0100
0000
0100
1000
0000
,
0001
0000
1000
0100
0010
0100
0000
0010
,
0001
0000
0100
0010
0000
0010
0100
0000
,
0001
0000
0100
0010
1000
0001
0000
0010
,
0100
0000
1000
0010
0000
0010
0100
0000
,
0001
0000
0010
0100
1000
0010
0000
0100
,
0001
0000
0010
0100
0000
0100
1000
0000
,
0001
0000
0010
0100
1000
0001
0000
0100
,
0010
0000
1000
0100
0000
0100
1000
0000
,
1001
0000
0101
0000
,
0110
0000
0000
1010
0000
0000
1100
0000
,
0110
0000
0011
0000
,
0110
0000
0000
1100
0000
0000
1001
0000
,
0101
0000
0110
0000
,
1010
0000
0000
0101
0000
0000
1001
0000
,
1001
0000
1100
0000
,
0110
0000
0000
0011
0000
0000
0110
0000
,
1100
0000
1001
0000
,
0101
0000
0000
0110
0000
0000
1010
0000
,
1100
0000
1001
0000
,
0011
0000
0000
0110
0000
0000
1100
0000
,
1001
0000
0000
0000
,
0001
1000
0001
1000
0001
1000
0001
1000
0001
1000
0001
1000
0001
1000
0001
1000
,
0001
1000
0001
1000
0001
1000
0001
1000
0001
1000
0004
0000
0003
0000
4000
0000
,
3001
0100
0001
0100
0001
0100
0001
1000
0001
1000
0010
1000
0010
0100
0001
0100
,
0001
1000
0100
0010
0100
1000
0001
0100
,
0001
0000
0010
0000
0100
0000
1000
0000
0001
0000
0010
0000
0100
1000
0100
1000
,
0100
1000
0010
0100
0001
0010
0100
1000
,
0001
0000
0100
0000
0010
0000
0100
0000
0001
0000
1000
0000
0100
0000
0010
0001
,
0010
0001
0010
0100
1000
0010
0100
0001
,
1000
0000
0001
0000
0010
0000
0100
0000
1000
0000
0000
0000
0001
1000
0001
1000
,
0001
1000
0100
0010
0100
1000
0001
0100
,
0001
0100
0001
0100
0001
0000
1000
0000
0100
1000
0100
1000
0100
1000
0100
1000
,
0100
1000
0100
0010
0100
1000
0001
0100
,
0010
0000
0100
0000
0001
0000
0010
0000
0100
1000
0010
0100
0001
0100
0001
1000
,
0001
1000
0100
0010
0100
1000
0001
0100
,
0010
0100
0001
1000
0100
0000
0100
1000
,
0001
0100
0010
0100
0001
0010
0100
1000
,
0001
0000
1000
0000
0010
0000
0100
0000
0001
0000
0000
0000
1000
0001
1000
0001
,
1000
0100
1000
0100
0010
0001
0010
0001
1000
0001
1000
0010
1000
0010
0100
0001
,
0100
0001
0100
0001
0100
0001
0100
0001
0100
0000
0000
0000
0001
0000
0000
0000
,
0200
0001
0010
0001
,
0320
1000
0100
1000
,
0230
0001
0320
2030
,
3002
0010
0010
1000
,
0203
0010
0001
0010
,
0302
1000
0010
1000
,
0203
0010
0302
0023
,
0230
1000
0010
0010
,
2300
0000
0000
0000
,
3002
0000
0000
0000
,
0203
0000
0320
2030
,
3002
0003
0000
0000
,
MMMM
0000
0000
0000
;
