#TITLE:Odin;
#SUBTITLE:;
#ARTIST:Shiraishi;
#TITLETRANSLIT:;
#SUBTITLETRANSLIT:;
#ARTISTTRANSLIT:;
#CREDIT:Mad Matt;
#BANNER:../banner.png;
#BACKGROUND:../bg.png;
#LYRICSPATH:;
#CDTITLE:;
#MUSIC:Odin.ogg;
#OFFSET:0.008;
#SAMPLESTART:12.153;
#SAMPLELENGTH:12.000;
#SELECTABLE:YES;
#DISPLAYBPM:163.000;
#BPMS:0.000=163.000;
#STOPS:;
#BGCHANGES:;
// cache tags:
#FIRSTBEAT:2.500;
#LASTBEAT:105.000;
#SONGFILENAME:Songs/Tachyon Epsilon Short Cuts/Odin - [Mad Matt]/Odin.sm;
#HASMUSIC:1;
#HASBANNER:1;
#MUSICLENGTH:40.098;
// end cache tags

//---------------dance-single - Arvin----------------
#NOTES:
     dance-single:
     Arvin:
     Hard:
     17:
     1.000,1.000,0.025,0.025,1.000,432.000,1.000,1.000,0.000,0.000:






0000
0000
0000
0000
0000
0000
0000
0000
0000
0000
0000
0000
0000
0000
0000
0001
1000
0001
1000
0000
0000
0100
0000
0000
,
0010
0001
0100
0000
0000
0010
1000
0000
,
0000
0000
0000
0001
0000
0000
0010
0000
0000
0000
0000
0000
0000
0000
0000
0001
1000
0001
1000
0000
0000
0010
0000
0000
,
0100
0001
0010
0000
0000
0000
0000
0000
,
0000
0000
0000
0001
0000
0000
1001
0000
0000
0000
0000
0000
0000
0000
0000
1000
0001
1000
0001
0000
0000
0100
0000
0000
,
0010
0000
0000
1000
0000
0000
0001
0000
0000
0000
0000
0000
0000
0000
0000
1000
0100
1000
0100
0000
0000
0000
0000
0000
,
0000
0000
0000
0010
0001
1000
0010
0000
0000
0100
0000
0000
0001
0000
1000
0010
0000
0000
0100
0000
0000
0001
0000
0000
,
1000
0000
0100
0000
0010
0001
0000
0010
0000
0001
0000
1000
0010
0100
0001
1000
,
0100
0000
0000
0010
0000
0000
0001
0000
0000
1000
0000
0000
0001
0000
0100
0000
0010
0000
1000
0000
0001
0000
1000
0000
0001
0000
0010
0000
0100
0000
1000
0000
0100
0000
0010
0000
0001
0000
1000
0000
0001
0000
1000
0000
0010
0000
0100
0000
,
0001
0100
0010
1000
0001
1000
0001
0010
0100
1000
0001
1000
0001
0100
0010
1000
0010
0100
0001
1000
0001
1000
0100
0010
,
0001
0010
0100
1000
0001
1000
0001
0100
0010
1000
0001
1000
0001
0010
0100
1000
0100
0010
0001
1000
0001
1000
0010
0100
,
0001
0100
0010
1000
0001
1000
0001
0010
0100
1000
0001
0010
0001
1000
0010
0100
0001
1000
0010
0100
0010
0100
0001
1000
,
0001
0010
0100
1000
0001
1000
0001
0010
0100
1000
0001
1000
0001
0100
0010
1000
0010
0100
0001
1000
0001
1000
0100
0010
,
0001
0010
0100
1000
0001
1000
0001
0100
0010
1000
0001
1000
0001
0010
0100
1000
0100
0010
0001
1000
0001
1000
0010
0100
,
0001
0100
0010
1000
0001
1000
0001
0010
0100
1000
0001
1000
0001
0100
0010
1000
0010
0100
0001
1000
0001
1000
0100
0010
,
0001
0000
0010
0000
0100
0000
1000
0000
0001
0000
1000
0000
0001
0000
0000
0010
0000
0000
0100
0000
0000
1000
0000
0000
0001
0000
0000
0100
0000
0000
0010
0000
0000
1000
0000
0000
0001
0000
0010
0000
0100
0000
1000
0000
0001
0000
0100
0000
,
0010
0100
0001
1000
0100
1000
0001
0010
0100
1000
0001
1000
0001
0100
0010
1000
0010
0100
0001
1000
0001
1000
0100
0010
,
0001
0010
0100
1000
0001
1000
0001
0100
0010
1000
0001
1000
0001
0010
0100
1000
0100
0010
0001
1000
0001
1000
0010
0100
,
0001
0100
0010
1000
0001
1000
0001
0010
0100
1000
0001
1000
0001
0100
0010
1000
0010
0100
0001
1000
0001
1000
0100
0010
,
0001
0010
0100
1000
0001
1000
0001
0100
0010
1000
0001
0100
0001
1000
0100
0010
0001
1000
0100
0010
0100
0010
0001
1000
,
0001
0100
0010
1000
0001
1000
0001
0100
0010
1000
0001
1000
0001
0010
0100
1000
0100
0010
0001
1000
0001
1000
0010
0100
,
0001
0100
0010
1000
0001
1000
0001
0010
0100
1000
0001
1000
0001
0100
0010
1000
0010
0100
0001
1000
0001
1000
0100
0010
,
0001
0010
0100
1000
0001
1000
0001
0100
0010
1000
0001
1000
0001
0010
0100
1000
0100
0010
0001
1000
0001
1000
0010
0100
,
0001
0000
0100
0000
0010
0000
1000
0000
0001
0000
1000
0000
0001
0000
0000
0010
0000
0000
0100
0000
0000
1000
0000
0000
0001
0000
0000
0100
0000
0000
0010
0000
0000
1000
0000
0000
0001
0000
0000
0010
0000
0000
0100
0000
0000
0010
0000
0000
,
0001
1000
0010
0100
0002
0000
0000
0000
0000
0000
0000
0000
0000
0000
0000
0000
,
0000
0000
0000
0000
,
0000
0003
0000
0000
;

//---------------dance-single - Mad Matt----------------
#NOTES:
     dance-single:
     Mad Matt:
     Challenge:
     18:
     1.000,1.000,0.025,0.025,1.000,432.000,1.000,1.000,0.000,0.000:







0000
0000
0000
0000
0000
0000
0000
0000
0000
0000
0000
0000
0000
0000
0000
0001
1000
0001
1000
0000
0000
0100
0000
0000
,
0010
0001
0100
0000
0000
0010
1000
0000
,
0000
0000
0000
0001
0000
0000
0010
0000
0000
0000
0000
0000
0000
0000
0000
0001
1000
0001
1000
0000
0000
0010
0000
0000
,
0100
0001
0010
0000
0000
0000
0000
0000
,
0000
0000
0000
0001
0000
0000
1001
0000
0000
0000
0000
0000
0000
0000
0000
1000
0001
1000
0001
0000
0000
0100
0000
0000
,
0010
0000
0000
1000
0000
0000
0001
0000
0000
0000
0000
0000
0000
0000
0000
1000
0100
1000
0100
0000
0000
0000
0000
0000
,
0000
0000
0000
0010
0001
1000
0010
0000
0000
0100
0000
0000
0001
0000
1000
0010
0000
0000
0100
0000
0000
0001
0000
0000
,
1000
0000
0100
0000
0010
0001
0000
0010
0000
0001
0000
1000
0010
0100
0001
1000
,
0100
0000
0000
0010
0000
0000
0001
0000
0000
1000
0000
0000
0001
0000
0010
0000
0100
0000
1000
0000
0010
0000
0100
0000
0001
0000
1000
0000
0001
0000
0010
0000
0100
0000
0010
0000
0001
0000
1000
0000
0001
0000
0100
0000
0010
0000
0100
0000
,
0001
0010
0001
1000
0010
0100
0001
0010
0100
1000
0010
0100
0001
1000
0001
0010
0100
0010
0001
1000
0001
0100
0010
0100
,
0001
0010
0001
1000
0010
0100
0001
0100
0010
1000
0100
0010
0001
1000
0001
0100
0010
0100
0001
1000
0001
0010
0100
0010
,
0001
0100
0001
1000
0100
0010
0001
0010
0100
1000
0010
0100
0001
1000
0001
0010
0100
0010
0001
1000
0010
0100
0001
0010
,
0100
0010
0001
0100
0010
1000
0100
0010
0001
0100
0010
1000
0001
1000
0100
0010
0100
1000
0001
1000
0010
0100
0010
1000
,
0100
1000
0001
0100
0010
1000
0100
0010
0001
0100
0010
1000
0001
1000
0100
0010
0100
1000
0001
1000
0010
0100
0010
1000
,
0100
1000
0001
0100
0010
1000
0010
0100
0001
0010
0100
1000
0001
1000
0010
0100
0010
1000
0001
1000
0100
0010
0100
1000
,
0010
0000
1000
0000
0001
0000
0010
0000
0100
0000
1000
0000
0001
0000
0000
0010
0000
0000
0100
0000
0000
1000
0000
0000
0001
0000
0000
0100
0000
0000
0010
0000
0000
1000
0000
0000
0001
0000
0010
0000
0100
0000
1000
0000
0010
0000
0100
0000
,
0001
1000
0100
1000
0010
0100
0001
0100
0010
1000
0100
0010
0001
1000
0001
0100
0010
0100
0001
1000
0001
0010
0100
0010
,
0001
0100
0001
1000
0100
0010
0001
0100
0010
1000
0100
0010
0001
1000
0001
0100
0010
0100
0001
1000
0001
0010
0100
0010
,
0001
0100
0001
1000
0100
0010
0001
0010
0100
1000
0010
0100
0001
1000
0001
0010
0100
0010
0001
1000
0001
0100
0010
0100
,
0001
0010
0001
1000
0010
0100
0001
0100
0010
1000
0100
0010
0001
1000
0001
0100
0010
0100
0001
1000
0100
0010
0001
0100
,
0010
0100
0001
0010
0100
1000
0010
0100
0001
0010
0100
1000
0001
1000
0010
0100
0010
1000
0001
1000
0100
0010
0100
1000
,
0010
1000
0001
0010
0100
1000
0010
0100
0001
0010
0100
1000
0001
1000
0010
0100
0010
1000
0001
1000
0100
0010
0100
1000
,
0010
1000
0001
0010
0100
1000
0100
0010
0001
0100
0010
1000
0001
1000
0100
0010
0100
1000
0001
1000
0010
0100
0010
1000
,
0100
0000
1000
0000
0001
0000
0100
0000
0010
0000
1000
0000
0001
0000
0000
0010
0000
0000
0100
0000
0000
1000
0000
0000
0001
0000
0000
0100
0000
0000
0010
0000
0000
1000
0000
0000
0001
0000
0000
0010
0000
0000
0100
0000
0000
0010
0000
0000
,
0001
1000
0010
0100
0002
0000
0000
0000
0000
0000
0000
0000
0000
0000
0000
0000
,
0000
0000
0000
0000
,
0000
0003
0000
0000
;

//---------------dance-single - Mad Matt----------------
#NOTES:
     dance-single:
     Mad Matt:
     Medium:
     17:
     1.000,1.000,0.025,0.025,1.000,397.000,1.000,1.000,0.000,0.000:

0000
0000
0000
0000
0000
0000
0000
0000
0000
0000
0000
0000
0000
0000
0000
0001
1000
0001
1000
0000
0000
0100
0000
0000
,
0010
0001
0100
0000
0000
0010
1000
0000
,
0000
0000
0000
0001
0000
0000
0010
0000
0000
0000
0000
0000
0000
0000
0000
0001
1000
0001
1000
0000
0000
0010
0000
0000
,
0100
0001
0010
0000
0000
0000
0000
0000
,
0000
0000
0000
0001
0000
0000
1001
0000
0000
0000
0000
0000
0000
0000
0000
1000
0001
1000
0001
0000
0000
0100
0000
0000
,
0010
0000
0000
1000
0000
0000
0001
0000
0000
0000
0000
0000
0000
0000
0000
1000
0100
1000
0100
0000
0000
0000
0000
0000
,
0000
0000
0000
0010
0001
1000
0010
0000
0000
0100
0000
0000
0001
0000
1000
0010
0000
0000
0100
0000
0000
0001
0000
0000
,
1000
0000
0100
0000
0010
0001
0000
0010
0000
0001
0000
1000
0010
0100
0001
1000
,
0100
0000
0000
0010
0000
0000
0001
0000
0000
1000
0000
0000
0001
0000
0010
0000
0100
0000
1000
0000
0001
0000
1000
0000
0010
0000
1000
0000
0001
0000
0100
0000
0010
0000
1000
0000
0001
0000
0100
0000
0001
0000
1000
0000
0001
0000
0010
0000
,
0100
1000
0001
1000
0010
1000
0001
0100
0010
1000
0001
0100
0001
1000
0001
0010
0100
1000
0001
1000
0010
1000
0001
0100
,
0010
1000
0001
0100
0001
1000
0001
0010
0100
1000
0001
1000
0010
1000
0001
0100
0010
1000
0001
0100
0001
1000
0001
0010
,
0100
1000
0001
1000
0010
1000
0001
0100
0010
1000
0001
1000
0100
0010
0001
1000
0001
0100
0001
1000
0010
0100
0001
1000
,
0100
0010
0001
1000
0010
0100
0001
1000
0100
0010
0001
1000
0001
0100
0001
1000
0010
0100
0001
1000
0010
1000
0001
1000
,
0100
0010
0001
1000
0001
0100
0001
1000
0010
0100
0001
1000
0010
1000
0001
1000
0100
0010
0001
1000
0001
0100
0001
1000
,
0010
0100
0001
1000
0010
1000
0001
1000
0100
0010
0001
1000
0001
0100
0001
1000
0010
0100
0001
1000
0010
1000
0001
1000
,
0100
0000
0010
0000
0001
0000
1000
0000
0001
0000
0100
0000
0010
0000
0000
1000
0000
0000
0001
0000
0000
1000
0000
0000
0100
0000
0000
0010
0000
0000
0001
0000
0000
1000
0000
0000
0001
0000
0100
0000
0010
0000
1000
0000
0001
0000
1000
0000
,
0100
0010
0001
1000
0000
0000
0001
0100
0010
1000
0001
1000
0100
1000
0001
0010
0100
1000
0001
0010
0001
1000
0001
0100
,
0010
1000
0001
1000
0100
1000
0001
0010
0100
1000
0001
0010
0001
1000
0001
0100
0010
1000
0001
1000
0100
1000
0001
0010
,
0100
1000
0001
0010
0001
1000
0001
0100
0010
1000
0001
1000
0100
1000
0001
0010
0100
1000
0001
0010
0001
1000
0001
0100
,
0010
1000
0001
1000
0100
1000
0001
0010
0100
1000
0001
1000
0010
0100
0001
1000
0001
0010
0001
1000
0100
0010
0001
1000
,
0010
0000
0100
0000
0001
0000
1000
0000
0100
0000
0010
0000
0001
0000
0000
0000
0000
0000
0100
0000
0000
0000
0000
0000
0001
0000
0000
1000
0000
0000
0010
0000
0000
0100
0000
0000
0001
0000
0000
1000
0000
0000
0100
0000
0000
0010
0000
0000
,
0000
0001
0010
0100
1000
0000
0010
0000
0100
0001
1000
0010
1000
0001
0100
0010
,
0000
1000
0010
0100
0001
0000
1000
0000
0001
0010
0100
1000
0100
0010
0001
1000
,
0000
0010
0100
0001
1000
0010
0100
0001
1000
0100
0010
0001
1000
0010
0100
0010
,
1000
0001
0010
0100
2000
0000
0000
0000
0000
0000
0000
0000
0000
0000
0000
0000
,
0000
0000
0000
0000
,
0000
3000
0000
0000
;

//---------------dance-single - Mad Matt----------------
#NOTES:
     dance-single:
     Mad Matt:
     Beginner:
     16:
     1.000,1.000,0.025,0.025,1.000,352.000,1.000,1.000,0.000,0.000:




0000
0000
0000
0000
0000
0000
0000
0000
0000
0000
0000
0000
0000
0000
0000
1000
0001
1000
0001
0000
0000
0010
0000
0000
,
0100
1000
0010
0000
0000
0100
0001
0000
,
0000
0000
0000
1000
0000
0000
0100
0000
0000
0000
0000
0000
0000
0000
0000
1000
0001
1000
0001
0000
0000
0100
0000
0000
,
0010
1000
0100
0000
0000
0000
0000
0000
,
0000
0000
0000
1000
0000
0000
1001
0000
0000
0000
0000
0000
0000
0000
0000
0001
1000
0001
1000
0000
0000
0010
0000
0000
,
0100
0000
0000
0001
0000
0000
1000
0000
0000
0000
0000
0000
0000
0000
0000
0001
0010
0001
0010
0000
0000
0000
0000
0000
,
0000
0000
0000
0100
1000
0001
0100
0000
0000
0010
0000
0000
1000
0000
0001
0100
0000
0000
0010
0000
0000
1000
0000
0000
,
0001
0000
0010
0000
0100
1000
0000
0100
0000
1000
0000
0001
0100
0010
1000
0001
,
0010
0000
0000
0100
0000
0000
1000
0000
0000
0001
0000
0000
1000
0000
0100
0000
0010
0000
0001
0000
1000
0000
0001
0000
0100
0000
0001
0000
1000
0000
0010
0000
0100
0000
0001
0000
1000
0000
0010
0000
1000
0000
0001
0000
1000
0000
0100
0000
,
0010
0000
0000
0000
0000
0000
0001
1000
0010
1000
0001
0100
0001
1000
0001
0010
0100
1000
0001
1000
0010
1000
0001
0100
,
0010
0000
0000
0000
0000
0000
1000
0010
1000
0001
1000
0100
1000
0001
0010
0100
0010
0001
1000
0010
1000
0001
1000
0100
,
0010
0000
0000
0000
0000
0000
0001
0100
0010
1000
0001
1000
0100
0010
0001
1000
0001
0100
0001
1000
0010
0100
0001
1000
,
0100
0010
0100
1000
0001
0100
0001
1000
0100
0010
0001
1000
0001
0100
0001
1000
0010
0100
0001
1000
0010
1000
0001
1000
,
0100
0000
0000
0000
0000
0000
1000
0001
0010
0100
1000
0001
0010
0001
1000
0001
0100
0010
1000
0001
1000
0100
1000
0001
,
0010
0000
0000
0000
0000
0000
0001
1000
0100
0010
0001
1000
0001
0100
0001
1000
0010
0100
0001
1000
0010
1000
0001
1000
,
0100
0000
0000
0000
0000
0000
0000
0000
0000
0000
0000
0000
1000
0000
0000
0001
0000
0000
0100
0000
0000
0001
0000
0000
0010
0000
0000
0100
0000
0000
1000
0000
0000
0001
0000
0000
1000
0000
0010
0000
0100
0000
0001
0000
1000
0000
0010
0000
,
1000
0001
1000
0100
0000
0000
1000
0010
0100
0001
1000
0001
0010
0001
1000
0100
0010
0001
1000
0100
1000
0001
1000
0010
,
0100
0000
0000
0000
0000
0000
0001
0100
0010
1000
0001
0100
0001
1000
0001
0010
0100
1000
0001
1000
0010
1000
0001
0100
,
0010
0000
0000
0000
0000
0000
1000
0010
0100
0001
1000
0001
0010
0001
1000
0100
0010
0001
1000
0100
1000
0001
1000
0010
,
0100
0000
0000
0000
0000
0000
0001
0010
0100
1000
0001
1000
0010
0100
0001
1000
0001
0010
0001
1000
0100
0010
0001
1000
,
0010
0000
0100
0000
0001
0000
1000
0000
0100
0000
0010
0000
0001
0000
0000
0000
0000
0000
0100
0000
0000
0000
0000
0000
0001
0000
0000
1000
0000
0000
0010
0000
0000
0100
0000
0000
0001
0000
0000
1000
0000
0000
0100
0000
0000
0010
0000
0000
,
0000
0001
0010
0100
1000
0000
0010
0000
0100
0001
1000
0010
1000
0001
0100
0010
,
0000
1000
0010
0100
0001
0000
1000
0000
0001
0010
0100
1000
0100
0010
0001
1000
,
0000
0010
0100
0001
1000
0010
0100
0001
1000
0100
0010
0001
1000
0010
0100
0010
,
1000
0001
0010
0100
2000
0000
0000
0000
0000
0000
0000
0000
0000
0000
0000
0000
,
0000
0000
0000
0000
,
0000
3000
0000
0000
;

//---------------dance-single - Mad Matt----------------
#NOTES:
     dance-single:
     Mad Matt:
     Easy:
     16:
     1.000,1.000,0.025,0.025,1.000,386.000,1.000,1.000,0.000,0.000:



0000
0000
0000
0000
0000
0000
0000
0000
0000
0000
0000
0000
0000
0000
0000
1000
0001
1000
0001
0000
0000
0010
0000
0000
,
0100
1000
0010
0000
0000
0100
0001
0000
,
0000
0000
0000
1000
0000
0000
0100
0000
0000
0000
0000
0000
0000
0000
0000
1000
0001
1000
0001
0000
0000
0100
0000
0000
,
0010
1000
0100
0000
0000
0000
0000
0000
,
0000
0000
0000
1000
0000
0000
1001
0000
0000
0000
0000
0000
0000
0000
0000
0001
1000
0001
1000
0000
0000
0010
0000
0000
,
0100
0000
0000
0001
0000
0000
1000
0000
0000
0000
0000
0000
0000
0000
0000
0001
0010
0001
0010
0000
0000
0000
0000
0000
,
0000
0000
0000
0100
1000
0001
0100
0000
0000
0010
0000
0000
1000
0000
0001
0100
0000
0000
0010
0000
0000
1000
0000
0000
,
0001
0000
0010
0000
0100
1000
0000
0100
0000
1000
0000
0001
0100
0010
1000
0001
,
0010
0000
0000
0100
0000
0000
1000
0000
0000
0001
0000
0000
1000
0000
0010
0000
0100
0000
0001
0000
1000
0000
0010
0000
1000
0000
0001
0000
1000
0000
0100
0000
0010
0000
0001
0000
1000
0000
0100
0000
0010
0000
0001
0000
1000
0000
0001
0000
,
0010
0001
1000
0100
0010
0001
1000
0001
0100
0001
1000
0010
0100
0001
1000
0010
0100
0001
1000
0001
0010
0001
1000
0100
,
0010
0001
1000
0100
0010
0001
1000
0100
1000
0001
0010
0100
1000
0001
1000
0010
0100
0001
1000
0010
1000
0001
0100
0010
,
1000
0000
0001
0000
0100
0000
0010
0000
1000
0000
0001
0000
1000
0000
0100
0000
0010
0000
0001
0000
1000
0000
0100
0000
0010
0000
0001
0000
1000
0000
0100
0000
1000
0000
0001
0000
0010
0000
0000
0100
0000
0000
1000
0000
0000
0001
0000
0000
,
0100
0000
0000
0010
0000
0000
1000
0000
0000
0001
0000
0000
0010
0000
0001
0000
1000
0000
0100
0000
0010
0000
0001
0000
1000
0000
0100
0000
0010
0000
0001
0000
1000
0000
0001
0000
0100
0000
0001
0000
1000
0000
0010
0000
0100
0000
0001
0000
,
1000
0010
0100
0001
1000
0001
0010
0001
1000
0100
1000
0001
0010
0100
1000
0001
0010
0001
1000
0001
0100
0010
1000
0001
,
1000
0010
0100
0001
1000
0010
1000
0001
0100
0010
1000
0001
1000
0100
1000
0001
0010
0100
1000
0001
0010
0100
1000
0001
,
0010
0000
0100
0000
1000
0000
0001
0000
1000
0000
0010
0000
0100
0000
0000
0001
0000
0000
1000
0000
0000
0001
0000
0000
0010
0000
0000
0100
0000
0000
1000
0000
0000
0001
0000
0000
1000
0000
0000
0010
0000
0000
0100
0000
0000
0001
0000
0000
,
1000
0000
0000
0100
0000
0000
0010
0000
0000
0000
0000
0000
0001
0000
0100
0000
0010
0000
1000
0000
0001
0000
0100
0000
0001
0000
1000
0000
0001
0000
0010
0000
0100
0000
1000
0000
0001
0000
0010
0000
0100
0000
1000
0000
0001
0000
1000
0000
,
0100
1000
0001
0010
0100
1000
0001
1000
0010
1000
0001
0100
0010
1000
0001
0100
0010
1000
0001
1000
0100
1000
0001
0010
,
0100
1000
0001
0010
0100
1000
0001
0010
0001
1000
0100
0010
0001
1000
0001
0100
0010
1000
0001
0100
0001
1000
0010
0100
,
0001
0000
1000
0000
0010
0000
0100
0000
0001
0000
1000
0000
0001
0000
0010
0000
0100
0000
1000
0000
0001
0000
0010
0000
0100
0000
1000
0000
0001
0000
0010
0000
0001
0000
1000
0000
0100
0000
0000
0010
0000
0000
0001
0000
0000
1000
0000
0000
,
0010
0100
0001
1000
0001
0000
0100
0000
0001
1000
0010
0100
0001
1000
0100
0010
,
0000
0001
0010
0100
1000
0000
0010
0000
0100
0001
1000
0010
1000
0001
0100
0010
,
0000
1000
0010
0100
0001
0000
1000
0000
0001
0010
0100
1000
0100
0010
0001
1000
,
0000
0010
0100
0001
1000
0010
0100
0001
1000
0100
0010
0001
1000
0010
0100
0010
,
1000
0001
0010
0100
2000
0000
0000
0000
0000
0000
0000
0000
0000
0000
0000
0000
,
0000
0000
0000
0000
,
0000
3000
0000
0000
;
