#TITLE:Reality Check Through The Skull;
#SUBTITLE:;
#ARTIST:DM DOKURO;
#TITLETRANSLIT:;
#SUBTITLETRANSLIT:;
#ARTISTTRANSLIT:;
#CREDIT:Braeden47;
#BANNER:../Banner.png;
#BACKGROUND:../BG.PNG;
#LYRICSPATH:;
#CDTITLE:../CDTitleBRAEDEN.png;
#MUSIC:DM DOKURO - Reality Check Through The Skull.ogg;
#OFFSET:-0.038;
#SAMPLESTART:46.172;
#SAMPLELENGTH:29.999;
#SELECTABLE:YES;
#BPMS:0.000=65.000,18.000=81.250,55.000=162.500,56.000=260.000,320.000=130.000,444.000=260.000,940.000=130.000,944.000=260.000;
#STOPS:;
#BGCHANGES:;
// cache tags:
#FIRSTBEAT:11.000;
#LASTBEAT:1157.500;
#SONGFILENAME:Songs/Index Fusion/Reality Check Through The Skull - [Braeden]/DM DOKURO - Reality Check Through The Skull.sm;
#HASMUSIC:1;
#HASBANNER:1;
#MUSICLENGTH:347.088;
// end cache tags

//---------------dance-single - ----------------
#NOTES:
     dance-single:
     :
     Hard:
     19:
     1.000,1.000,0.242,0.228,0.857,2447.000,84.000,79.000,0.000,0.000:

0000
0000
0000
0000
,
0000
0000
0000
0000
,
0000
0000
0000
0002
,
0000
0000
0000
0000
,
0000
0000
0000
0000
1003
0010
1000
0000
,
0000
0000
0000
0000
0000
0000
0010
1000
,
0020
0000
0000
0000
,
0130
0001
0200
0000
0000
0000
0000
0000
,
0000
0000
0310
1000
0020
0000
0000
0000
,
0000
0000
0000
0000
0130
0001
0200
0000
,
0000
0310
1000
0020
0000
0000
0130
0001
,
0200
0000
0000
0000
0000
0000
0000
0000
0000
0000
0000
0000
0310
0000
0000
0000
1000
0000
0000
0000
0010
0000
0000
0100
0000
0000
0000
0001
0000
0000
0010
0000
,
0001
1000
0002
0000
0000
0103
0010
0200
,
0000
0000
0301
1000
0002
0000
0003
0000
,
1000
0100
0010
0001
0010
0100
1000
0001
0100
0010
1000
0100
0010
0001
0010
0100
,
1000
0001
0100
0010
1000
0100
0010
0001
1000
0100
0010
0001
0010
0100
1000
0001
,
0100
0010
1000
0000
0001
0100
0010
1000
,
0000
1001
0000
1001
0000
0001
0100
0010
,
1000
0010
0100
0000
0001
0100
0010
1000
,
0000
1010
0000
1001
0000
1000
0100
0010
,
0001
0100
0010
0000
1000
0100
0010
0001
,
0000
0101
0000
1001
0000
1000
0100
0010
,
0001
0100
0010
0000
1000
0100
0010
0001
,
0000
1001
0000
1010
0000
1000
0100
0010
,
0001
0100
0010
0000
1000
0100
0010
0001
,
0000
0011
0000
1001
0000
1000
0010
0100
,
0001
0100
0010
0000
1000
0100
0010
0001
,
0000
0011
0000
1001
0000
1000
0010
0100
,
0001
0100
0010
0000
1000
0100
0010
0001
,
0000
1001
0000
0101
0000
0001
0100
0010
,
1000
0100
0010
0001
0010
0100
1000
0001
,
1000
0100
1000
0100
1000
0000
0001
0010
0001
0010
0001
0000
1000
0001
1000
0001
,
2000
0000
0000
0000
3020
0000
0000
0000
0130
0000
0001
0000
0100
0000
0001
1000
,
0002
0203
0000
0310
1000
0010
0100
0001
,
0200
0000
0310
1000
0000
0010
0000
2000
,
0000
0000
3001
0100
0010
0000
1000
0000
0100
0000
0010
0000
0001
0000
1000
0000
,
0002
0000
0103
0020
0000
2030
0000
3020
,
0000
2030
0000
3002
0000
1003
0010
1000
,
0020
0000
0230
0000
0301
0100
0010
1000
,
0001
0010
0100
1000
0100
0010
0001
0100
0010
1000
0100
0010
0100
1000
0001
0100
,
0020
0000
0000
0000
1030
0000
0001
0000
0000
0000
0100
0000
0000
0000
0001
1000
,
0001
0100
0000
0010
0000
1000
0001
0100
,
0020
0000
1030
0001
0100
0010
0000
1000
,
0000
0100
0000
0010
0000
0001
0100
0000
,
0010
1000
0100
0010
0100
1000
0001
0100
,
0010
1000
0100
0010
0001
0010
0100
1000
,
0002
0000
0000
0000
0103
0000
0010
0000
0000
0000
0010
0000
0000
0000
1000
0100
,
0010
0001
0010
0100
1000
0001
0100
0010
1000
0100
0010
0001
0100
0010
1000
0010
,
1000
0001
0100
0010
1000
0100
0010
0001
,
0010
0000
0100
0000
1000
0000
0001
0000
0100
0000
0010
1000
0010
0000
0100
0000
,
0001
0000
1000
0000
0010
0000
0100
0000
0000
0010
0000
0000
1000
0000
0000
0100
0000
0000
0010
0000
0000
0001
0000
0000
,
0010
0000
0100
0000
1000
0000
0001
0000
0100
0000
0001
1000
0001
0000
0010
0000
,
0100
1000
0001
0100
0010
1000
0100
0010
,
0100
0000
1000
0000
0001
0000
0100
0000
0010
0000
1000
0100
1000
0000
0001
0000
,
0010
0100
1000
0100
0010
0001
0100
0010
,
1000
0100
0010
0100
1000
0001
0100
0010
,
2000
3001
2000
3100
0020
0031
0200
0310
,
2000
3100
0010
0001
0020
0130
1000
0001
,
0200
0310
1000
0100
0020
0031
0100
0010
,
2000
0000
3100
0000
0010
0000
0001
0000
1000
0001
1000
0001
1000
0000
0010
0000
,
0100
0001
1000
0100
0010
0100
1000
0001
,
0100
0000
0010
0000
1000
0000
0001
1000
0001
0000
0100
0000
0010
0000
1000
0000
,
0100
0010
0100
1000
0001
0010
0100
1000
,
0001
0000
0100
0000
0010
0000
1000
0000
0100
0000
0010
0000
0001
1000
0001
1000
,
0001
0000
0100
0000
0010
1000
0010
1000
0010
0000
0100
0000
0001
0010
0001
0010
,
0001
0000
1000
0000
0001
1000
0001
1000
0001
0000
1000
0000
0100
0010
0001
1000
,
0100
0000
0000
0000
0010
0000
0000
0000
0001
0000
0000
0000
0010
0000
0000
0001
0000
0000
0010
0000
0000
0100
0000
0000
1000
0000
0000
0000
0000
0000
0001
0000
0000
0000
0000
0000
0100
0000
0000
0010
0000
0000
0100
0000
0000
0010
0000
0000
,
0100
0000
0001
0000
1000
0010
1000
0001
0100
0000
0010
0000
1000
0100
0010
0001
,
0100
0000
0010
0000
1000
0100
0010
0001
0100
0000
0010
0000
1000
0100
0010
0001
,
0100
0000
0010
0000
1000
0100
1000
0001
1000
0000
0100
0000
0010
0001
0010
0001
,
0100
0000
0010
0000
1000
0100
1000
0100
0010
0000
0001
0000
0100
0010
0100
0010
,
1000
0000
0001
0000
0100
0010
0100
0001
1000
0000
0100
0000
0010
0001
1000
0100
,
0010
0000
0001
0000
0100
0010
0100
0010
1000
0000
0100
0000
0010
0001
0010
0001
,
1000
0000
0100
0000
0010
0001
0100
0010
1000
0000
0001
0000
0010
0100
1000
0001
,
0100
0000
0010
0000
1000
0100
0010
0001
0100
0000
0010
0000
1000
0100
1000
0001
,
0100
0000
0010
0000
1000
0100
0010
0001
0100
0000
0010
0000
1000
0100
0010
0001
,
1000
0100
0010
0001
0010
0100
1000
0001
0100
0010
1000
0100
,
0010
0001
0010
0100
1000
0001
0100
0010
1000
0100
0010
0001
,
0010
0100
1000
0001
0100
0010
1000
0100
0010
0100
1000
0001
,
0100
0010
1000
0100
0010
0100
1000
0001
0100
0010
1000
0100
,
0010
0001
0100
0010
1000
0010
0100
0001
,
0010
0001
1000
0001
0100
0001
0010
0001
,
1000
0001
0100
0001
0010
0001
1000
0001
,
0010
0001
1000
0010
0100
0010
1000
0001
,
0010
0100
1000
0100
0010
0001
0100
0010
,
1000
0001
0010
0100
1000
0001
0100
0010
,
1000
0100
1000
0001
1000
0010
0100
0010
,
1000
0001
0010
0100
1000
0100
0010
0001
,
1000
0010
0100
0010
1000
0001
0100
0001
,
0010
0001
1000
0001
0010
0001
1000
0001
,
0100
0001
1000
0001
0010
0001
1000
0001
,
0010
0100
1000
0100
1000
0010
1000
0100
,
1000
0001
0100
0010
1000
0100
0010
0001
,
0100
0010
1000
0010
0100
0001
0010
0100
,
1000
0001
0100
0010
1000
0010
0100
0001
,
0010
0000
0000
0100
0000
0000
1000
0000
0000
0100
1000
0010
0100
0000
0000
0001
0000
0000
1000
0000
0000
0000
0000
0000
,
1001
0000
0001
0100
0101
0000
0010
1000
,
1010
0000
0001
1000
0001
1000
1010
0000
,
1000
0000
0001
0000
0100
0000
0010
0000
0010
0000
0000
0000
1000
0000
0001
0010
,
0100
0000
1000
0000
0001
1000
1001
0000
,
1001
0000
0001
0100
1010
0000
1000
0100
,
0010
0000
0001
0100
0010
1000
0010
0000
,
2000
0000
3001
0100
0120
0000
1030
0001
,
1000
0100
0010
0000
0001
0010
0100
1000
,
1001
0000
1000
0100
0010
0000
0001
1000
,
1001
0000
0001
0000
0100
0010
1010
0000
,
1000
0000
0000
0001
0000
0000
1000
0000
0000
0000
0000
0000
1001
0000
0000
0000
0000
0000
0001
0000
0000
0010
0100
1000
,
0100
0010
0001
0000
0010
0000
0000
0100
0000
1000
0000
0001
0000
0100
0010
1000
,
0100
0010
0001
0000
0100
0000
0000
0010
0000
1000
0000
0100
0000
0010
0001
0100
,
0010
1000
0100
0000
0010
0000
0000
0001
0000
0100
0000
0010
0000
1000
0100
0010
,
0400
0000
0000
0000
0300
0000
0000
0000
0000
0000
0000
0000
0000
0000
0000
0000
0000
0000
0000
0000
0000
0000
0000
0000
0000
0000
0000
0000
1000
0001
1000
0001
,
1000
0100
0010
0001
0100
0010
1000
0100
,
0010
0001
0100
0010
1000
0001
0400
0000
,
0310
1000
0010
0000
2000
0000
3001
0100
,
0010
1000
0100
0010
0000
0001
0100
0010
,
1000
0000
0001
0100
0001
0000
0100
0010
,
0100
0000
0010
1000
0010
0000
0100
0000
0001
1000
0001
0000
0100
0000
0010
0000
,
1010
0000
1000
0001
0200
0000
0310
1000
,
0100
0010
0001
0100
0000
0010
1000
0010
,
1000
0000
0001
0100
0001
0000
1000
0100
,
0010
0000
0001
0000
1000
0001
1000
0000
0001
0000
0100
0000
0010
0000
1000
0000
,
0002
0000
0000
0000
1003
0010
1000
0010
0100
0000
0000
0000
0001
0000
0010
0000
,
0100
0000
1000
0000
0100
0010
0100
0010
0100
0000
1000
0000
0001
1000
0010
1000
,
0001
0000
0000
0000
0100
0010
0100
0001
1000
0000
0000
0000
0100
0000
0010
0000
,
1000
0000
0100
0000
0010
0001
0100
0010
1000
0000
0001
0000
0100
0010
1000
0100
,
0010
0000
0000
0000
0001
1000
0010
1000
0001
0000
0000
0000
0100
0000
0010
0000
,
1000
0000
0100
0000
0010
0001
0100
0010
1000
0000
0001
0000
0100
0010
1000
0100
,
0010
0000
0000
0000
0001
1000
0010
1000
0001
0000
0000
0000
0100
0000
0010
0000
,
1000
0000
0100
0000
0010
0000
0001
0000
0000
0000
0100
0000
0010
1000
0100
0010
,
0002
0000
0203
0000
0320
0000
1030
0100
,
0010
0001
0100
0010
0000
1000
0100
0010
,
0001
0000
1000
0100
1000
0000
0001
0100
,
0010
0000
1000
0001
1000
0000
0010
0000
0100
0001
1000
0000
0010
0000
0100
0000
,
0001
0000
0001
0100
0020
0000
1030
0100
,
0010
0001
0100
0010
0000
1000
0100
0010
,
0001
0000
1000
0100
0010
0000
0001
0010
,
0100
0000
1000
0000
0001
0100
0010
0000
1000
0000
0100
0000
0010
0000
0001
0000
,
1000
0000
0000
0000
0001
0100
0001
0100
0001
0000
0000
0000
0100
0000
0010
0000
,
1000
0000
0010
0000
0100
0001
0100
0001
0100
0000
0010
0000
1000
0010
1000
0010
,
1000
0000
0000
0000
1000
0001
1000
0001
1000
0000
0000
0000
0001
0000
0100
0000
,
0010
0000
1000
0000
0100
0010
0100
0010
0100
0000
1000
0000
0001
0100
0001
0100
,
0001
0000
0000
0000
1000
0001
1000
0001
1000
0000
0000
0000
0010
0000
0100
0000
,
0001
0000
1000
0000
0100
0010
0100
0010
0100
0000
1000
0000
0001
1000
0001
1000
,
0001
0000
0000
0000
0100
0010
0100
0010
0100
0000
0000
0000
0010
0000
0100
0000
,
0010
1000
0100
0010
0000
0001
0100
0010
,
1000
0010
1000
0010
1000
0010
0100
0001
,
0100
0000
0001
0000
0100
0000
0001
0000
1000
0001
1000
0000
0001
0000
0100
0000
,
0010
1000
0100
0010
0001
0100
0010
1000
,
0100
0010
0001
0100
0010
1000
0100
1000
,
0001
0010
0100
1000
0001
0100
0010
1000
,
0001
0010
0001
0010
0100
1000
0100
1000
,
0001
0100
0001
0000
0100
0000
0010
1000
0010
0000
0100
0000
0001
1000
0001
0000
,
1000
0010
1000
0000
0100
0000
0010
0001
0010
0000
0100
0000
1000
0001
1000
0000
,
1001
0001
0100
0010
1000
0100
1000
0001
,
0100
0010
1000
0100
0010
0100
1000
0001
,
0010
0100
1000
0001
0100
0010
1000
0100
,
0010
0000
0000
0001
0000
0000
1000
0000
0100
0000
0010
0000
0100
0000
1000
0000
0001
0000
0100
0000
0010
0000
1000
0000
,
0100
0000
0010
0000
0001
0000
0100
0000
0010
0000
1000
0000
0100
0010
0001
0010
,
0100
1000
0100
0010
0001
0100
0010
1000
,
0010
0100
0001
0100
0010
0100
0001
0100
0010
0100
0001
0100
0010
0000
1000
0001
,
0100
0010
0100
0001
1000
0100
1000
0001
0100
0010
1000
0100
0010
0000
0001
0000
,
1000
0100
0010
0001
0010
0100
1000
0001
0100
0010
1000
0100
,
0010
0001
0010
0100
1000
0001
0100
0010
1000
0100
0010
0001
,
0010
0100
1000
0001
0100
0010
0100
0001
0010
0100
1000
0001
,
0100
0010
1000
0100
0010
0001
0010
0100
1000
0001
0100
0010
,
1000
0100
0010
0100
1000
0001
0010
0100
1000
0001
0100
0010
,
1000
0100
0010
0100
1000
0001
0100
0010
1000
0100
0010
0100
,
1000
0001
0100
0010
0100
0001
0010
0100
1000
0001
0100
0010
,
1000
0100
0010
0100
1000
0001
0100
0010
1000
0100
0010
0001
,
0200
0320
2030
3020
0230
0320
2030
3200
,
0320
0032
2003
3200
2300
3020
0230
0302
,
0203
0320
2030
3200
0320
0032
0023
0230
,
2300
3020
0230
0302
2003
3200
0320
0032
,
1003
0100
0010
0001
0010
0100
1000
0001
0100
0010
1000
0100
0010
0001
0010
0100
,
1000
0001
0100
0010
1000
0100
0010
0001
0010
0100
1000
0001
0100
0010
1000
0100
,
0010
0001
0010
0100
1000
0001
0100
0010
,
1000
0100
0010
0001
0010
0100
1000
0001
0100
0010
1000
0100
0010
0001
0010
0100
,
1000
0001
0100
0010
1000
0100
0010
0001
0010
0100
1000
0001
0100
0010
1000
0100
,
0010
0001
0010
0100
1000
0001
0100
0010
1000
0100
0010
0001
0010
0100
1000
0001
,
0100
0010
1000
0100
0010
0001
0010
0100
1000
0001
0100
0010
1000
0100
0010
0001
,
0010
0100
1000
0001
0100
0010
1000
0100
0010
0001
0010
0100
1000
0001
0100
0010
,
1000
0100
0010
0001
1000
0100
0010
0100
1000
0001
0100
0010
1000
0001
0010
0100
,
1000
0100
0010
0001
0010
0100
1000
0001
0100
0010
1000
0100
0010
0100
1000
0001
,
0010
0100
1000
0001
0100
0010
1000
0100
0010
0001
0010
0100
1000
0000
0000
0000
,
1001
0000
0000
0000
,
0000
0000
0000
0000
,
0000
0000
0000
0000
,
0000
0000
0000
0000
,
0000
0000
0000
0000
,
0000
0000
0000
0000
,
1000
0001
0100
0010
,
1000
0010
1000
0000
1010
0000
0010
0000
,
0100
0010
0100
0000
0110
0000
0010
0000
,
1000
0001
1000
0000
1001
0000
0001
0000
,
0100
0010
0100
0000
0110
0000
0001
0000
,
1000
0001
1000
0000
1001
0000
1000
0000
,
0010
1000
0010
0000
1010
0000
0100
0000
,
0001
0100
0001
0000
0101
0000
0010
0000
,
1000
0001
1000
0000
1001
0000
0001
0000
,
0100
0010
0100
0000
0101
0000
0010
0000
,
1000
0100
1000
0000
1100
0000
1000
0000
,
0001
0100
0010
0000
0110
0000
0010
0000
,
1000
0001
0100
0000
1010
0000
1000
0000
,
0001
0100
0010
0000
1010
0000
1000
0000
,
0001
0010
0001
0000
0044
0000
0033
0000
,
1000
0100
0010
0001
0010
0100
1000
0100
,
0010
0001
0010
0100
1000
0000
0001
0000
0100
0010
1000
0001
0100
0000
0010
0000
,
2000
0000
0000
0000
3020
0000
0000
0000
0130
0001
0100
0010
1000
0100
0010
0001
,
1000
0100
0010
0001
1000
0010
0100
0001
1000
0100
0010
0100
1000
0001
1000
0100
,
0010
0001
0010
0100
1000
0001
0100
0010
1000
0100
0010
0100
1000
0001
0100
0010
,
1000
0100
0010
0001
0010
0100
1000
0001
,
0100
0010
1000
0100
0010
0000
0001
0000
0010
0000
0100
0000
1000
0000
0001
0000
,
0100
0010
1000
0001
0100
0000
0010
0000
1000
0000
0100
0000
0010
0000
0001
0000
,
0100
0010
0100
0010
1000
0001
1000
0001
,
1000
0100
0010
0001
0010
0100
1000
0001
0100
0000
0010
0000
1000
0000
0001
0000
,
1000
0100
1000
0010
1000
0100
1000
0010
,
0100
0010
0100
0001
0100
0010
1000
0100
,
1000
0001
0010
0100
1000
0001
0100
0010
1000
0100
0010
0100
1000
0001
0010
0100
,
1000
0001
0100
0010
1000
0100
0010
0001
0010
0100
1000
0001
0100
0010
1000
0100
,
0010
0001
0010
0100
1000
0001
0100
0010
1000
0100
0010
0001
0010
0001
1000
0100
,
0010
0100
1000
0001
0100
0010
1000
0100
0010
0001
0010
0100
1000
0000
0001
0000
,
1001
1000
0100
0010
0001
0100
0010
1000
,
0001
0100
0010
1000
0100
0010
0100
1000
0001
0100
0010
1000
0100
0010
0001
0100
,
0010
0000
1000
0000
0010
0000
0100
0000
0001
0100
0010
1000
0100
1000
0001
0010
,
0100
1000
0100
0010
0001
0000
0100
0000
0010
0000
1000
0000
0100
0000
0010
0000
,
0001
1000
0100
0010
0001
0010
0100
1000
0001
0100
0010
1000
0100
1000
0001
0010
,
0100
1000
0001
0100
0010
1000
0100
0010
0001
0010
0100
1000
0001
0100
0010
1000
,
0001
1000
0001
1000
0010
0000
0100
0000
0001
0000
0100
0000
0010
0000
1000
0000
,
0100
0010
0100
0000
0010
0000
0100
0000
1000
0000
0001
0000
0100
0000
0010
0000
,
1000
0010
1000
0010
0100
0001
0100
0001
,
1000
0100
0010
0000
0001
0000
0010
0000
0100
1000
0001
0000
0100
0000
0010
0000
,
1000
0100
0010
0001
1000
0100
1000
0001
,
0100
0010
1000
0100
0010
0001
0010
0100
,
1000
0001
0010
0100
1000
0001
0100
0010
,
1000
0010
0100
0001
1000
0100
0010
0001
,
0100
0010
0110
0010
1000
0010
1010
1000
,
0001
0100
0010
1000
0100
0010
0001
0010
0100
1000
0001
0100
0010
1000
0100
0010
,
0001
0100
0010
1000
0001
0010
0100
1000
0100
0010
0001
0100
0004
0000
0000
0000
,
1003
0100
0010
0001
0010
0100
1000
0001
0100
0010
1000
0100
0010
0001
0010
0100
,
1000
0001
0100
0010
1000
0100
0010
0001
0010
0100
1000
0001
0100
0000
0010
0000
,
1000
0100
0010
0001
0010
0100
1000
0001
0100
0010
1000
0100
0010
0001
0010
0100
,
1000
0001
0100
0010
1000
0100
0010
0001
0010
0100
1000
0001
1000
0000
0010
0000
,
0100
0001
0010
0100
1000
0100
0010
0001
0100
0010
1000
0100
0010
0001
0010
0100
,
1000
0001
0100
0010
1000
0100
0010
0100
1000
0001
0100
0010
1000
0000
0001
0000
,
1000
0100
0010
0001
0010
0100
1000
0001
0010
0001
1000
0100
0010
0100
0010
0100
,
1000
0000
0000
0001
0000
0000
0010
0000
0000
0100
0000
0000
1000
0000
0000
0100
0000
0000
0010
0000
0000
0001
0000
0000
1000
0000
0000
0000
0001
0000
0000
0000
1000
0000
0000
0000
0001
0000
0000
0000
0000
0000
0100
0000
0000
0000
0000
0000
,
0010
1000
0010
1000
0001
0100
0001
0100
0010
1000
0100
1000
0001
0010
0100
1000
,
0001
0100
0010
1000
0100
0010
0001
0010
0100
1000
0001
0100
0010
0000
1000
0000
,
0001
0010
0100
1000
0100
0010
0001
0100
0010
1000
0100
0010
0100
1000
0001
0100
,
0010
1000
0001
0010
0100
1000
0100
0010
0001
0100
0010
1000
0001
0000
0100
0000
,
0010
1000
0100
0010
0100
1000
0001
0100
0010
1000
0100
0010
0001
0010
0100
1000
,
0001
0100
0010
1000
0100
0010
0001
0010
0100
1000
0001
0100
0010
1000
0100
0010
,
0001
0000
1001
0000
1001
0000
0000
0001
,
0000
0001
0000
0001
0000
0001
0100
0010
,
1000
0010
1000
0000
0010
0100
0001
0010
,
0000
0011
0000
1001
0000
1000
0100
0010
,
0001
0100
0010
0000
1000
0100
0010
0001
,
0000
0101
0000
1001
0000
1000
0100
0010
,
0001
0100
0010
0000
1000
0100
0010
0001
,
0000
0000
1001
0000
0000
0000
0101
0000
0000
0000
0100
0000
0001
0000
1000
0001
,
1000
0100
0010
0000
0001
0100
0010
1000
,
0000
1001
0000
0101
0000
0100
0010
1000
,
0100
0010
0001
0000
0100
0010
1000
0100
,
0000
1100
0000
1001
0000
0001
0100
0010
,
1000
0100
0010
0001
0010
0100
1000
0001
,
0100
0000
0010
0000
0100
0000
0001
1000
0001
0000
0100
0000
0010
0000
1000
0000
,
0100
0000
0010
0000
0001
0000
1000
0100
1000
0000
0001
0000
0100
0000
0010
0000
,
1000
0010
0100
0001
0100
0010
1000
0100
,
1000
0010
1000
0000
0100
0000
0000
1100
,
0000
1001
0000
0101
0000
0001
0100
0001
,
0100
0001
1000
0000
1001
0000
0000
0101
,
0000
1010
0000
0110
0000
0100
0010
0100
,
0001
1000
0100
0000
0110
0000
0000
0011
,
0000
1001
0000
1010
0000
1000
0100
0010
,
0001
0100
0010
0000
1010
0000
0000
1100
,
0000
0110
0000
0011
0000
0001
0100
0010
,
1000
0100
0010
0000
0011
0000
0000
1001
,
0000
1010
0000
1001
0000
0001
0100
0010
,
1000
0100
0010
0000
1001
0000
0000
0110
,
0000
1001
0000
0101
0000
0010
1000
0100
,
1000
0001
0100
0000
1010
0000
0000
1000
,
0000
0001
0000
0100
0000
0010
1000
0100
,
0010
0001
0100
0000
0010
0000
0000
1000
,
0000
0100
0000
0010
0000
0001
0100
0010
,
1000
0100
0010
0000
0001
0000
0000
0100
,
0000
0010
0000
1000
0000
0001
0100
0010
,
1000
0100
0010
0000
0001
0000
0000
0100
,
0000
0010
0000
1000
0000
0001
0100
0010
,
1000
0100
0010
0000
0001
0000
0000
1000
,
0000
0001
0000
0100
0000
0000
0000
0000
;
