#TITLE:Cheatreal;
#SUBTITLE:Oh Henry!;
#ARTIST:t+pazolite;
#TITLETRANSLIT:;
#SUBTITLETRANSLIT:;
#ARTISTTRANSLIT:;
#CREDIT:;
#BANNER:../Fallback-Ban.png;
#BACKGROUND:../Fallback-BG.png;
#LYRICSPATH:;
#CDTITLE:../~CDTitle-@@.png;
#MUSIC:t+pazolite - Cheatreal.ogg;
#OFFSET:-0.054;
#SAMPLESTART:174.504;
#SAMPLELENGTH:19.950;
#SELECTABLE:YES;
#BPMS:0.000=200.000;
#STOPS:;
#BGCHANGES:;
// cache tags:
#FIRSTBEAT:0.000;
#LASTBEAT:975.000;
#SONGFILENAME:Songs/Oh Henry! Mad Stamina/Cheatreal (18)/Cheatreal.sm;
#HASMUSIC:1;
#HASBANNER:1;
#MUSICLENGTH:296.542;
// end cache tags

//---------------dance-single - @@----------------
#NOTES:
     dance-single:
     @@:
     Challenge:
     18:
     1.000,1.000,0.000,0.017,1.000,3715.000,0.000,5.000,0.000,0.000:
0001
0010
0001
0010
0100
1000
0001
0100
0010
1000
0010
1000
0001
0010
0001
1000
,
0010
0100
0000
0001
0010
0000
0100
1000
0000
0010
0100
0000
0001
0000
1000
0000
,
0001
0100
0001
0100
0010
1000
0001
0010
0100
1000
0100
1000
0001
0100
0001
1000
,
0100
0010
0000
0001
0100
0000
0010
1000
0000
0100
0010
0000
0001
0000
0001
0000
,
1000
0010
1000
0010
0100
0001
1000
0100
0010
0001
0010
0001
1000
0010
1000
0001
,
0010
0100
0000
1000
0010
0000
0100
0001
0000
0010
0100
0000
1000
0000
0001
0000
,
1000
0100
1000
0100
0010
0001
1000
0010
0100
0001
0100
0001
1000
0100
1000
0001
,
0100
0010
0000
1000
0100
0000
0010
0001
0000
0100
0010
0000
1000
0000
0001
0000
,
1000
0100
0010
0001
1000
0010
1000
0001
0100
0001
1000
0100
1000
0010
0100
0001
,
1000
0010
1000
0001
0010
0100
0010
0001
1000
0100
1000
0001
0100
0001
0010
0100
,
1000
0001
0010
0001
1000
0010
0100
0010
1000
0001
1000
0100
0010
0001
0100
0001
,
1000
0010
0100
0010
1000
0001
0010
0100
1000
0001
1000
0010
0100
0001
0010
0001
,
1000
0100
0010
0100
1000
0001
0100
0001
1000
0010
1000
0001
0010
0100
1000
0010
,
1000
0001
0100
0001
1000
0100
1000
0001
0010
0100
1000
0001
0100
0010
1000
0100
,
1000
0001
0010
0100
1000
0001
0100
0010
1000
0001
0010
0001
1000
0010
0100
0010
,
1000
0000
0100
0010
0001
0000
0100
0001
1000
0000
0100
1000
0020
0000
0000
0030
,
0100
0001
1000
0010
1000
0001
0010
0100
1000
0001
0100
0001
1000
0010
1000
0100
,
0010
0100
1000
0001
0100
0010
0100
0001
1000
0010
1000
0001
0010
0100
1000
0001
,
0100
0001
1000
0010
1000
0001
0010
0100
0010
0001
1000
0010
0100
0010
1000
0100
,
0010
0100
1000
0001
0100
0010
0100
0001
1000
0100
0010
0100
1000
0010
0100
0001
,
0010
0100
1000
0001
1000
0010
0100
0001
0100
0010
1000
0001
0010
0100
1000
0010
,
1000
0001
0100
0001
1000
0100
0010
0001
0010
0100
1000
0001
0100
0001
1000
0100
,
1000
0001
0010
0100
1000
0001
0100
0010
0100
0001
1000
0100
0010
0100
1000
0010
,
0100
0001
1000
0100
0010
0100
1000
0001
0100
0010
0100
0001
0010
0100
1000
0010
,
1000
0001
0010
0100
1000
0001
0100
0010
1000
0001
0010
0001
1000
0100
1000
0010
,
0100
0010
1000
0001
0010
0100
0010
0001
1000
0100
1000
0001
0100
0010
1000
0001
,
0010
0001
1000
0100
1000
0001
0100
0010
0100
0001
1000
0100
0010
0100
1000
0010
,
0100
0010
1000
0001
0010
0100
0010
0001
1000
0010
0100
0010
1000
0100
0010
0001
,
0100
0010
1000
0001
1000
0100
0010
0001
0010
0100
1000
0001
0100
0010
1000
0100
,
1000
0001
0010
0001
1000
0010
0100
0001
0100
0010
1000
0001
0010
0001
1000
0010
,
1000
0001
0010
0001
0100
0000
0100
0001
,
1000
0000
0010
0100
0001
0000
1000
0100
0010
0000
0001
0100
0010
0000
1000
0100
,
1000
2000
0000
0000
0000
0000
0000
0000
,
3001
0000
0001
0000
0100
0000
0100
0000
0010
0000
0000
1000
0000
0000
0100
0000
,
1000
0000
1000
0000
0001
0000
0001
0000
0010
0000
0000
0100
0000
0000
1000
0000
,
0001
0000
0001
0000
0100
0000
0100
0000
0010
0000
0000
1000
0000
0000
0100
0000
,
1000
0000
1000
0000
0001
0000
0001
0000
0010
0000
0000
0100
0000
0000
1000
0000
,
0001
0000
0001
0000
0100
0000
0100
0000
0010
0000
0000
1000
0000
0000
0100
0000
,
1000
0000
1000
0000
0001
0000
0001
0000
0010
0000
0000
0100
0000
0000
1000
0000
,
0001
0000
0001
0000
0100
0000
0100
0000
0010
0000
0000
1000
0000
0000
0100
0000
,
0010
0001
0010
0100
1000
0010
1000
0010
0100
0001
0100
0010
1000
0001
1000
0001
,
0010
0100
1000
0001
0100
0010
0100
0010
1000
0001
0100
0001
0010
0100
0010
0100
,
1000
0100
0010
0001
1000
0010
1000
0010
0100
0001
0100
0010
1000
0100
1000
0100
,
0010
0001
0010
0100
1000
0001
1000
0001
0100
0010
0100
0001
0010
0100
0010
0100
,
1000
0001
1000
0010
0100
0001
0100
0001
1000
0010
1000
0001
0010
0100
0010
0100
,
1000
0001
0010
0001
1000
0010
1000
0010
0100
0001
1000
0100
0010
0001
0010
0001
,
1000
0100
1000
0001
0100
0010
0100
0010
1000
0001
0100
0001
0010
0100
0010
0100
,
1000
0000
0000
0001
0000
0000
0100
0000
0010
0000
1000
0000
0100
0000
0000
0000
,
1000
0100
0010
0001
1000
0100
1000
0001
0100
0010
0100
0001
1000
0010
1000
0001
,
0010
0100
1000
0100
0010
0001
1000
0001
0100
0010
1000
0010
0100
0001
1000
0100
,
0010
0100
1000
0001
0100
0010
0100
0001
1000
0010
1000
0001
0010
0100
0010
0001
,
0100
0010
0100
0010
1000
0001
0100
0010
1000
0001
0010
0100
1000
0001
1000
0010
,
0100
0001
0100
0010
1000
0010
0100
0001
1000
0100
0010
0001
1000
0100
1000
0001
,
0100
0010
1000
0010
0100
0001
1000
0001
0010
0100
1000
0100
0010
0001
1000
0010
,
0100
0010
1000
0001
0010
0100
0010
0001
1000
0100
1000
0001
0100
0010
0100
0001
,
0010
0100
0010
0100
1000
0001
0100
0010
1000
0100
1000
0001
0100
0010
0100
0010
,
1000
0100
0010
0001
0100
0010
0100
0001
0010
0100
1000
0001
1000
0010
1000
0001
,
0010
0100
1000
0100
0010
0001
1000
0001
0100
0010
1000
0010
0100
0001
1000
0100
,
0010
0100
1000
0001
0100
0010
0100
0001
1000
0010
1000
0001
0010
0100
0010
0001
,
0100
0010
0100
0010
1000
0001
0100
0010
1000
0001
0010
0100
1000
0001
1000
0010
,
0100
0001
0100
0010
1000
0010
0100
0001
1000
0100
0010
0001
1000
0100
1000
0001
,
0100
0010
1000
0010
0100
0001
1000
0001
0010
0100
1000
0100
0010
0001
1000
0010
,
0100
0010
1000
0001
0010
0100
0010
0001
1000
0100
1000
0001
0100
0010
0100
0001
,
0010
0100
0010
0100
1000
0001
0100
0010
1000
0100
1000
0001
0100
0010
0100
0010
,
1000
0100
0010
0001
0100
0010
0100
0001
0010
0100
1000
0001
1000
0010
1000
0001
,
0010
0100
1000
0010
0100
0010
1000
0100
0010
0001
1000
0010
0100
0001
1000
0100
,
0010
0100
1000
0010
0100
0010
1000
0100
0010
0001
1000
0001
0010
0100
0010
0001
,
0100
0010
0100
0001
0010
0100
1000
0010
0100
0010
1000
0100
0010
0001
1000
0100
,
1000
0010
0100
0001
0010
0100
0010
0001
0100
0010
1000
0001
0010
0100
1000
0001
,
0100
0010
1000
0100
0010
0001
0100
0010
0100
0001
1000
0100
0010
0001
0100
0010
,
1000
0010
0100
0001
0010
0100
1000
0010
0100
0001
1000
0001
0100
0010
0100
0001
,
0010
0100
0010
0001
0100
0010
1000
0100
0010
0100
1000
0010
0100
0001
1000
0010
,
1000
0100
0010
0001
0100
0010
1000
0010
0100
0001
0010
0100
1000
0010
0100
0001
,
1000
0100
0010
0001
0100
0010
1000
0001
1000
0100
0010
0001
1000
0010
0100
0001
,
1000
0100
0010
0001
0100
0010
1000
0010
0100
0001
0010
0100
1000
0010
0100
0001
,
1000
0100
0010
0001
0100
0010
1000
0001
1000
0100
0010
0001
1000
0010
0100
0001
,
1000
0100
0010
0001
0100
0010
1000
0001
0100
0001
1000
0010
1000
0100
0010
0001
,
1000
0010
0100
0001
0010
0100
1000
0001
0010
0001
1000
0100
1000
0010
0100
0001
,
1000
0010
1000
0001
1000
0001
0010
0001
1000
0100
1000
0001
1000
0001
0100
0001
,
1000
0100
0010
0001
0100
0010
1000
0010
0100
0001
0010
0100
1000
0001
2000
0000
,
0000
0000
0000
0000
,
3001
0100
0010
1000
0010
0100
0001
1000
0100
0010
0100
1000
0002
0000
0103
0010
,
1000
0100
0010
0100
1000
0001
0100
0001
0010
0100
0010
0100
1000
0100
1000
0010
,
0100
0001
1000
0010
1000
0001
0010
0100
1000
0010
1000
0010
0100
0010
0100
0001
,
0010
0100
1000
0001
1000
0010
0100
0001
0010
0001
0010
0100
0010
0100
1000
0010
,
0100
0001
0100
0001
1000
0010
1000
0001
0010
0100
0010
0100
1000
0001
0100
0010
,
1000
0100
0010
0001
1000
0001
0100
0010
1000
0100
1000
0100
0010
0100
0010
0001
,
0100
0010
1000
0001
0010
0100
0010
0001
0100
0010
0100
0010
1000
0010
1000
0100
,
0010
0001
1000
0100
1000
0001
0100
0001
0010
0100
0010
0100
1000
0100
1000
0010
,
0100
0001
0100
0001
1000
0010
0100
0001
1000
0100
1000
0010
0100
0001
0100
0001
,
0010
0100
1000
0100
0010
0001
1000
0010
1000
0100
1000
0100
0010
0100
0010
0001
,
0100
0010
0100
0001
1000
0001
0010
0100
1000
0010
1000
0010
0100
0010
0100
0001
,
0010
0001
1000
0100
1000
0001
0100
0001
0010
0100
0010
0100
1000
0100
1000
0001
,
0100
0010
0100
0010
1000
0001
0100
0001
1000
0100
1000
0100
0010
0001
1000
0010
,
1000
0100
0010
0001
1000
0010
0100
0001
0010
0100
0010
0100
1000
0100
1000
0010
,
0100
0001
0100
0010
1000
0001
0010
0001
0100
0010
0100
0010
1000
0010
1000
0100
,
0010
0001
1000
0100
1000
0001
0100
0010
1000
0100
1000
0100
0010
0100
0010
0001
,
0100
0010
0100
0010
1000
0001
0100
0010
1000
0001
0010
0001
0100
0010
1000
0001
,
1000
0010
0100
0010
1000
0001
0010
0001
0100
0010
0100
0010
1000
0010
1000
0100
,
0010
0001
1000
0100
1000
0001
0100
0010
1000
0100
1000
0100
0010
0100
0010
0001
,
0100
0010
1000
0001
1000
0100
0010
0001
0100
0001
0100
0010
0100
0010
1000
0100
,
0010
0001
0010
0001
1000
0100
1000
0001
0100
0010
0100
0010
1000
0001
0010
0100
,
1000
0010
0100
0001
1000
0001
0010
0100
1000
0010
1000
0010
0100
0010
0100
0001
,
0010
0100
1000
0001
0100
0010
0100
0001
0010
0100
0010
0100
1000
0100
1000
0010
,
0100
0001
1000
0010
1000
0001
0010
0001
0100
0010
0100
0010
1000
0010
1000
0100
,
0010
0001
0010
0001
1000
0100
0010
0001
1000
0010
1000
0100
0010
0001
0010
0001
,
0100
0010
1000
0010
0100
0001
1000
0100
1000
0010
1000
0010
0100
0010
0100
0001
,
0010
0100
0010
0001
1000
0001
0100
0010
1000
0100
1000
0100
0010
0100
0010
0001
,
0100
0001
1000
0010
1000
0001
0010
0001
0100
0010
0100
0010
1000
0010
1000
0001
,
0010
0100
0010
0100
1000
0001
0010
0001
1000
0010
1000
0010
0100
0001
1000
0100
,
1000
0010
0100
0001
1000
0100
0010
0001
0100
0010
0100
0010
1000
0010
1000
0100
,
0010
0001
0010
0100
1000
0001
0100
0001
0010
0100
0010
0100
1000
0100
1000
0010
,
0100
0001
1000
0010
1000
0001
0010
0100
1000
0010
1000
0010
0100
0010
0100
0001
,
0010
0100
0010
0100
1000
0001
0010
0100
1000
0001
0100
0001
1000
0010
0100
0001
,
1000
0100
0010
0001
1000
0001
1000
0100
1000
0001
0100
0001
1000
0010
1000
0001
,
0010
0100
1000
0001
0010
0001
0010
0100
1000
0001
0100
0010
0100
0001
1000
0010
,
1000
0001
0010
0100
1000
0100
1000
0001
0100
0010
0100
0001
1000
0010
1000
0001
,
0010
0001
1000
0100
0010
0100
0010
0001
1000
0010
0100
0010
1000
0001
1000
0100
,
1000
0001
0100
0010
1000
0010
1000
0001
1000
0001
0010
0001
1000
0100
1000
0001
,
0100
0010
1000
0001
0100
0001
0100
0010
1000
0001
0010
0100
0010
0001
1000
0100
,
1000
0001
0100
0010
1000
0010
1000
0001
0010
0100
0010
0001
1000
0100
1000
0001
,
0100
0001
1000
0010
0100
0010
0100
0001
1000
0100
0010
0100
1000
0010
1000
0001
,
0100
0010
1000
0001
0100
0001
0100
0010
1000
0001
1000
0100
0010
0100
1000
0001
,
0100
0001
1000
0010
0100
0010
0100
0001
1000
0100
0010
0100
1000
0001
0010
0100
,
1000
0001
0100
0001
1000
0001
1000
0010
1000
0001
0010
0100
1000
0100
0010
0001
,
1000
0001
0100
0010
1000
0010
1000
0001
0010
0100
1000
0010
0100
0001
0100
0001
,
1000
0100
1000
0001
0010
0001
0010
0100
1000
0001
1000
0010
0100
0010
1000
0001
,
0010
0001
1000
0100
0010
0100
0010
0001
1000
0010
0100
0010
1000
0001
0100
0010
,
1000
0001
0010
0001
1000
0001
1000
0100
1000
0001
0100
0010
1000
0010
0100
0001
,
1000
0001
0010
0100
1000
0100
1000
0001
0100
0010
1000
0100
0010
0001
0010
0001
,
1000
0001
0100
0010
1000
0010
1000
0100
0010
0001
1000
0010
1000
0100
1000
0001
,
0010
0100
1000
0001
0010
0001
0010
0100
1000
0010
0100
0001
1000
0001
0010
0001
,
1000
0010
1000
0001
0100
0001
0100
0010
1000
0100
0010
0001
1000
0001
0100
0001
,
1000
0100
0010
0100
1000
0100
1000
0010
0100
0001
1000
0010
1000
0100
1000
0001
,
0010
0001
1000
0100
0010
0100
0010
0001
0100
0010
1000
0001
0100
0001
0010
0001
,
1000
0010
1000
0001
0100
0001
0100
0010
1000
0100
0010
0001
0100
0001
1000
0001
,
0010
0100
1000
0001
0010
0001
0010
0100
1000
0010
0100
0010
1000
0001
1000
0100
,
1000
0001
0100
0010
1000
0010
1000
0100
0010
0001
0010
0100
1000
0010
0100
0001
,
1000
0001
0010
0100
1000
0100
1000
0010
0100
0001
1000
0100
1000
0010
1000
0001
,
0100
0010
1000
0001
0100
0001
0100
0010
1000
0100
0010
0001
1000
0001
0100
0001
,
1000
0100
1000
0001
0010
0001
0010
0100
1000
0010
0100
0001
1000
0001
0010
0001
,
1000
0010
0100
0010
1000
0010
1000
0100
0010
0001
0100
0010
1000
0100
1000
0100
,
0010
0001
1000
0010
0100
0010
0100
0001
0010
0100
1000
0001
0010
0001
0100
0001
,
1000
0100
1000
0001
0010
0001
0010
0100
1000
0010
0100
0001
0010
0001
1000
0001
,
0100
0010
1000
0001
0100
0001
0100
0010
1000
0100
0010
0100
1000
0001
1000
0010
,
1000
0001
0010
0100
1000
0100
1000
0010
0100
0001
0010
0100
1000
0001
1000
0100
,
0010
0001
0010
0100
0010
0001
0010
0100
1000
0010
1000
0001
0100
0001
0010
0001
,
1000
0010
0100
0010
1000
0001
0010
0001
0100
0010
1000
0100
1000
0001
0100
0010
,
1000
0001
0010
0100
1000
0001
0100
0010
0100
0001
1000
0100
0010
0001
0100
0010
,
1000
0001
0010
0100
0010
0001
1000
0010
0100
0001
1000
0100
0010
0001
1000
0010
,
0100
0010
1000
0010
0100
0010
1000
0001
0010
0100
1000
0010
0100
0001
0100
0010
,
1000
0100
0010
0100
1000
0100
1000
0010
0100
0001
0100
0010
0100
0001
0100
0010
,
1000
0100
0010
0100
1000
0100
0010
0100
1000
0001
0010
0001
0100
0010
1000
0001
,
1000
0010
0100
0010
1000
0010
1000
0100
0010
0001
0100
0010
1000
0001
1000
0010
,
0100
0001
0100
0010
0100
0001
0100
0010
1000
0100
1000
0001
0010
0001
0100
0001
,
1000
0100
0010
0100
1000
0001
0100
0001
0010
0100
1000
0010
1000
0001
0010
0100
,
1000
0001
0100
0010
1000
0001
0010
0100
0010
0001
1000
0010
0100
0001
0010
0100
,
1000
0001
0100
0010
0100
0001
1000
0100
0010
0001
1000
0010
0100
0001
1000
0100
,
0010
0100
1000
0100
0010
0100
1000
0001
0100
0010
1000
0100
0010
0001
0010
0100
,
1000
0010
0100
0010
1000
0010
1000
0100
0010
0001
0010
0100
0010
0001
0010
0100
,
1000
0010
0100
0010
1000
0010
0100
0010
1000
0001
0100
0001
0010
0100
1000
0001
,
1000
0010
0100
0001
1000
0001
1000
0100
0010
0100
1000
0010
0100
0001
0100
0001
,
1000
0010
0100
0001
0010
0100
0010
0001
0100
0010
1000
0001
0010
0100
1000
0001
,
0100
0001
1000
0010
0100
0001
1000
0001
0010
0100
1000
0001
0010
0001
1000
0010
,
0100
0001
1000
0001
0010
0100
0010
0001
1000
0100
1000
0001
0100
0010
0100
0001
,
0010
0100
0010
0100
1000
0001
0010
0001
1000
0010
0100
0010
1000
0001
1000
0100
,
0010
0001
1000
0001
0010
0100
0010
0001
1000
0010
0100
0001
0100
0010
1000
0001
,
0010
0100
1000
0100
0010
0001
1000
0010
1000
0001
0100
0010
1000
0001
1000
0100
,
0010
0100
1000
0001
0100
0010
0100
0001
1000
0010
1000
0001
0010
0100
0010
0001
,
0100
0010
0100
0010
1000
0001
0010
0100
1000
0010
1000
0001
0010
0100
0010
0100
,
1000
0100
0010
0001
0100
0010
0100
0001
0010
0100
1000
0001
0100
0010
1000
0001
,
0010
0001
1000
0100
0010
0001
1000
0001
0100
0010
1000
0001
0100
0001
1000
0100
,
0010
0001
1000
0001
0100
0010
0100
0001
1000
0010
1000
0001
0010
0100
0010
0001
,
0100
0010
0100
0010
1000
0001
0100
0001
1000
0100
0010
0100
1000
0001
1000
0010
,
0100
0001
1000
0001
0100
0010
0100
0001
1000
0100
0010
0001
0010
0100
1000
0001
,
0100
0010
1000
0010
0100
0001
1000
0100
1000
0001
0010
0100
1000
0001
1000
0010
,
0100
0010
1000
0001
0010
0100
0010
0001
1000
0100
1000
0001
0100
0010
0100
0001
,
0010
0100
0010
0100
1000
0100
1000
0001
0100
0010
0100
0010
1000
0100
0010
0001
,
1000
0010
0100
0010
1000
0001
0010
0001
0100
0010
0100
0010
1000
0010
1000
0100
,
0010
0100
1000
0001
1000
0010
0100
0010
1000
0100
1000
0100
0010
0100
0010
0001
,
0100
0010
0100
0001
1000
0100
0010
0001
0100
0001
0100
0010
0100
0010
1000
0100
,
0010
0001
0010
0001
1000
0100
0010
0001
0100
0010
0100
0010
1000
0001
0010
0100
,
1000
0010
0100
0010
1000
0001
0010
0100
1000
0010
1000
0010
0100
0010
0100
0001
,
0010
0100
1000
0001
1000
0010
0100
0001
0010
0100
0010
0100
1000
0100
1000
0010
,
0100
0001
0100
0010
1000
0001
0010
0001
0100
0010
0100
0010
1000
0010
1000
0100
,
0010
0001
0010
0001
1000
0100
0010
0001
1000
0010
1000
0100
0010
0001
0010
0001
,
1000
0100
1000
0001
0100
0010
0100
0001
0010
0100
0010
0100
1000
0100
1000
0010
,
0100
0010
1000
0001
1000
0100
0010
0100
1000
0010
1000
0010
0100
0010
0100
0001
,
0010
0100
0010
0001
1000
0010
0100
0001
0010
0001
0010
0100
0010
0100
1000
0010
,
0100
0001
0100
0001
1000
0010
0100
0001
0010
0100
0010
0100
1000
0001
0100
0010
,
1000
0100
0010
0100
1000
0001
0100
0010
1000
0100
1000
0100
0010
0100
0010
0001
,
0100
0010
1000
0001
1000
0100
0010
0001
0100
0010
0100
0010
1000
0010
1000
0100
,
0010
0001
0010
0100
1000
0001
0100
0001
0010
0100
0010
0100
1000
0100
1000
0010
,
0100
0001
0100
0001
1000
0010
0100
0001
1000
0100
1000
0010
0100
0001
0100
0001
,
0010
0100
1000
0001
1000
0010
0100
0001
0010
0100
0010
0100
1000
0100
1000
0010
,
0100
0001
0100
0010
1000
0001
0010
0100
1000
0010
1000
0010
0100
0010
0100
0001
,
0010
0100
0010
0001
1000
0010
0100
0010
1000
0100
1000
0100
0010
0100
0010
0001
,
0100
0010
0100
0010
1000
0001
0100
0001
0010
0100
0010
0100
1000
0001
0010
0100
,
1000
0010
0100
0001
1000
0100
0010
0100
1000
0010
1000
0010
0100
0010
0100
0001
,
0010
0100
0010
0001
1000
0010
1000
0100
0010
0001
0010
0001
1000
0001
1000
0100
,
1000
0010
0100
0001
1000
0001
0010
0100
1000
0010
1000
0010
0100
0010
0100
0001
,
0010
0100
0010
0100
1000
0001
0010
0100
1000
0010
1000
0001
0100
0010
0100
0010
,
1000
0001
0100
0001
1000
0100
0010
0001
0100
0010
0100
0010
1000
0010
1000
0100
,
0010
0001
0010
0100
1000
0001
0100
0010
1000
0100
1000
0100
0010
0100
0010
0001
,
0100
0010
0100
0001
1000
0100
0010
0100
1000
0010
1000
0010
0100
0010
0100
0001
,
0010
0100
0010
0100
1000
0001
0010
0001
0100
0010
0100
0010
1000
0001
0100
0010
,
1000
0100
0010
0001
1000
0010
0100
0010
1000
0100
1000
0100
0010
0100
0010
0001
,
0100
0010
0100
0001
1000
0100
1000
0010
0100
0001
0100
0001
1000
0001
1000
0010
,
1000
0100
0010
0001
1000
0001
0100
0010
1000
0100
1000
0100
0010
0100
0010
0001
,
0100
0010
0100
0010
1000
0001
0100
0010
1000
0100
1000
0001
0010
0100
0010
0100
,
1000
0010
1000
0001
0100
0001
1000
0100
0010
0001
0010
0100
1000
0010
0100
0001
,
0010
0100
1000
0001
0010
0001
1000
0010
0100
0001
1000
0010
1000
0100
0010
0001
,
0100
0010
1000
0001
0100
0001
1000
0100
0010
0001
1000
0100
1000
0010
0100
0001
,
0010
0100
1000
0001
0010
0001
1000
0010
1000
0001
0100
0001
0010
0100
0010
0001
,
0100
0010
1000
0001
0100
0001
1000
0100
0010
0001
0010
0100
1000
0010
0100
0001
,
0010
0100
0010
0001
1000
0100
1000
0001
0100
0010
1000
0010
0100
0001
0010
0100
,
1000
0010
0100
0001
1000
0010
1000
0001
0010
0100
1000
0001
0100
0010
0100
0001
,
0010
0100
0010
0001
1000
0010
1000
0001
0010
0100
0010
0001
0100
0010
1000
0100
,
0010
0100
1000
0001
0010
0001
1000
0010
0100
0001
0100
0010
1000
0100
0010
0001
,
0100
0010
1000
0001
0100
0001
1000
0100
0010
0001
1000
0100
1000
0010
0100
0001
,
0010
0100
1000
0001
0010
0001
1000
0010
0100
0001
1000
0010
1000
0100
0010
0001
,
0100
0010
1000
0001
0100
0001
1000
0100
1000
0001
0010
0001
0100
0010
0100
0001
,
0010
0100
1000
0001
0010
0001
1000
0010
0100
0001
0100
0010
1000
0100
0010
0001
,
0100
0010
0100
0001
1000
0010
1000
0001
0010
0100
1000
0100
0010
0001
0100
0010
,
1000
0100
0010
0001
1000
0100
1000
0001
0100
0010
1000
0001
0010
0100
0010
0001
,
0100
0010
0100
0001
1000
0100
1000
0001
0100
0010
0100
0001
0010
0100
1000
0010
,
0100
0001
1000
0010
1000
0001
0100
0001
1000
0100
0010
0001
1000
0000
1000
0000
,
0001
0010
0001
1000
0001
0100
0001
1000
0010
1000
0001
0100
0001
1000
0100
0010
,
0001
1000
0010
1000
0001
0100
0001
1000
0100
0010
0100
1000
0001
0010
0001
0100
,
0010
1000
0001
0100
0001
1000
0100
0010
0100
1000
0001
0100
0001
0010
0100
1000
,
0100
1000
0001
0010
0001
1000
0100
1000
0001
0100
0010
1000
0001
0000
0001
0000
,
1000
0010
1000
0001
1000
0100
1000
0001
0010
0001
1000
0100
1000
0001
0100
0010
,
1000
0001
0010
0001
1000
0100
1000
0001
0100
0010
0100
0001
1000
0010
1000
0100
,
0010
0001
1000
0100
1000
0001
0100
0010
0100
0001
1000
0100
1000
0010
0100
0001
,
1000
0100
0010
0100
1000
0001
0100
0001
1000
0100
0010
0001
1000
0010
1000
0001
,
0010
0001
1000
0001
0100
0001
1000
0010
1000
0001
0010
0100
1000
0001
0010
0001
,
1000
0100
0010
0001
1000
0010
0100
0010
1000
0001
0010
0001
1000
0010
1000
0001
,
0010
0001
1000
0001
1000
0010
1000
0001
1000
0001
0010
0100
1000
0010
0100
0001
,
1000
0010
0100
0010
1000
0001
0010
0001
1000
0010
0100
0001
1000
0100
1000
0001
,
0100
0001
1000
0001
0010
0001
1000
0100
1000
0001
0100
0010
1000
0001
0100
0001
,
1000
0010
0100
0001
1000
0100
0010
0100
1000
0001
0100
0001
1000
0100
1000
0001
,
1000
0000
0010
1000
0100
0000
0010
0001
0100
0000
0010
1000
0001
0000
0002
0000
,
0000
0000
0000
0000
,
0000
0000
0000
0003
;

//---------------dance-single - @@----------------
#NOTES:
     dance-single:
     @@:
     Hard:
     17:
     1.000,1.000,0.067,0.034,1.000,3289.000,20.000,10.000,0.000,0.000:
0001
0010
0001
0010
0100
1000
0001
0100
0010
1000
0010
1000
0001
0010
0001
1000
,
0010
0100
0000
0001
0010
0000
0100
1000
0000
0010
0100
0000
0001
0000
1000
0000
,
0001
0100
0001
0100
0010
1000
0001
0010
0100
1000
0100
1000
0001
0100
0001
1000
,
0100
0010
0000
0001
0100
0000
0010
1000
0000
0100
0010
0000
0001
0000
0001
0000
,
1000
0010
1000
0010
0100
0001
1000
0100
0010
0001
0010
0001
1000
0010
1000
0001
,
0010
0100
0000
1000
0010
0000
0100
0001
0000
0010
0100
0000
1000
0000
0001
0000
,
1000
0100
1000
0100
0010
0001
1000
0010
0100
0001
0100
0001
1000
0100
1000
0001
,
0100
0010
0000
1000
0100
0000
0010
0001
0000
0100
0010
0000
1000
0000
0001
0000
,
1000
0100
0010
0001
1000
0010
1000
0001
0100
0001
1000
0100
1000
0010
0100
0001
,
1000
0010
1000
0001
0010
0100
0010
0001
1000
0100
1000
0001
0100
0001
0010
0100
,
1000
0001
0010
0001
1000
0010
0100
0010
1000
0001
1000
0100
0010
0001
0100
0001
,
1000
0010
0100
0010
1000
0001
0010
0100
1000
0001
1000
0010
0100
0001
0010
0001
,
1000
0100
0010
0100
1000
0001
0100
0001
1000
0010
1000
0001
0010
0100
1000
0010
,
1000
0001
0100
0001
1000
0100
1000
0001
0010
0100
1000
0001
0100
0010
1000
0100
,
1000
0001
0010
0100
1000
0001
0100
0010
1000
0001
0010
0001
1000
0010
0100
0010
,
1000
0000
0100
0010
0001
0000
0100
0001
1000
0000
0100
1000
0020
0000
0000
0030
,
0100
0001
1000
0010
1000
0001
0010
0100
1000
0001
0100
0001
1000
0010
1000
0100
,
0010
0100
1000
0001
0100
0010
0100
0001
1000
0010
1000
0001
0010
0100
1000
0001
,
0100
0001
1000
0010
1000
0001
0010
0100
0010
0001
1000
0010
0100
0010
1000
0100
,
0010
0100
1000
0001
0100
0010
0100
0001
1000
0100
0010
0100
1000
0010
0100
0001
,
0010
0100
1000
0001
1000
0010
0100
0001
0100
0010
1000
0001
0010
0100
1000
0010
,
1000
0001
0100
0001
1000
0100
0010
0001
0010
0100
1000
0001
0100
0001
1000
0100
,
1000
0001
0010
0100
1000
0001
0100
0010
0100
0001
1000
0100
0010
0100
1000
0010
,
0100
0001
1000
0100
0010
0100
1000
0001
0100
0010
0100
0001
0010
0100
1000
0010
,
1000
0001
0010
0100
1000
0001
0100
0010
1000
0001
0010
0001
1000
0100
1000
0010
,
0100
0010
1000
0001
0010
0100
0010
0001
1000
0100
1000
0001
0100
0010
1000
0001
,
0010
0001
1000
0100
1000
0001
0100
0010
0100
0001
1000
0100
0010
0100
1000
0010
,
0100
0010
1000
0001
0010
0100
0010
0001
1000
0010
0100
0010
1000
0100
0010
0001
,
0100
0010
1000
0001
1000
0100
0010
0001
0010
0100
1000
0001
0100
0010
1000
0100
,
1000
0001
0010
0001
1000
0010
0100
0001
0100
0010
1000
0001
0010
0001
1000
0010
,
1000
0001
0010
0001
0100
0000
0100
0001
,
1000
0000
0010
0100
0001
0000
1000
0100
0010
0000
0001
0100
0010
0000
1000
0100
,
1000
2000
0000
0000
0000
0000
0000
0000
,
3001
0000
0001
0000
0100
0000
0100
0000
0010
0000
0000
1000
0000
0000
0100
0000
,
1000
0000
1000
0000
0001
0000
0001
0000
0010
0000
0000
0100
0000
0000
1000
0000
,
0001
0000
0001
0000
0100
0000
0100
0000
0010
0000
0000
1000
0000
0000
0100
0000
,
1000
0000
1000
0000
0001
0000
0001
0000
0010
0000
0000
0100
0000
0000
1000
0000
,
0001
0000
0001
0000
0100
0000
0100
0000
0010
0000
0000
1000
0000
0000
0100
0000
,
1000
0000
1000
0000
0001
0000
0001
0000
0010
0000
0000
0100
0000
0000
1000
0000
,
0001
0000
0001
0000
0100
0000
0100
0000
0010
0000
0000
1000
0000
0000
0100
0000
,
1000
0000
1000
0000
0001
0000
0001
0000
0100
0000
0000
0010
0000
0000
1000
0000
,
0001
0000
0001
0000
0010
0000
0010
0000
0100
0000
0000
1000
0000
0000
0010
0000
,
1000
0000
1000
0000
0001
0000
0001
0000
0100
0000
0000
0010
0000
0000
1000
0000
,
0001
0000
0001
0000
0010
0000
0010
0000
0100
0000
0000
1000
0000
0000
0010
0000
,
1000
0000
1000
0000
0001
0000
0001
0000
0100
0000
0000
0010
0000
0000
1000
0000
,
0001
0000
0001
0000
0010
0000
0010
0000
0100
0000
0000
1000
0000
0000
0010
0000
,
1000
0000
1000
0000
0001
0000
0001
0000
0100
0000
0000
0010
0000
0000
1000
0000
,
0001
0000
0000
0010
0000
0000
0100
0000
1000
0000
0010
0000
2000
0000
0000
3000
,
1001
0000
0001
0000
1000
0000
1000
0000
0100
0000
0000
0010
0000
0000
0001
0000
,
1000
0000
1000
0000
0010
0000
0010
0000
0100
0000
0000
0001
0000
0000
0010
0000
,
0001
0000
0001
0000
1000
0000
1000
0000
0100
0000
0000
0010
0000
0000
0001
0000
,
1000
0000
0000
0010
0000
0000
0100
0000
0100
0000
0000
0001
0000
0000
0010
0000
,
0001
0000
0001
0000
1000
0000
1000
0000
0100
0000
0000
0010
0000
0000
0001
0000
,
1000
0000
1000
0000
0010
0000
0010
0000
0100
0000
0000
0001
0000
0000
0010
0000
,
0001
0000
0001
0000
1000
0000
1000
0000
0100
0000
0000
0010
0000
0000
0001
0000
,
1000
0000
0000
0010
0000
0000
0100
0000
0001
0000
0010
0000
0200
0000
0300
0000
,
1100
0000
1000
0000
0001
0000
0001
0000
0100
0000
0000
0010
0000
0000
1000
0000
,
0001
0000
0001
0000
0010
0000
0010
0000
0100
0000
0000
1000
0000
0000
0010
0000
,
1000
0000
1000
0000
0001
0000
0001
0000
0100
0000
0000
0010
0000
0000
1000
0000
,
0001
0000
0000
0010
0000
0000
0100
0000
0100
0000
0000
1000
0000
0000
0010
0000
,
1000
0000
1000
0000
0001
0000
0001
0000
0100
0000
0000
0010
0000
0000
1000
0000
,
0001
0000
0001
0000
0010
0000
0010
0000
0100
0000
0000
1000
0000
0000
0010
0000
,
1000
0000
1000
0000
0001
0000
0001
0000
0100
0000
0000
0010
0000
0000
1000
0000
,
0001
0000
0000
0010
0000
0000
0100
0000
1000
0000
0010
0000
0200
0000
0000
0300
,
0101
0000
0001
0000
1000
0000
1000
0000
0010
0000
0000
0100
0000
0000
0001
0000
,
1001
0000
1000
0000
0100
0000
0100
0000
0010
0000
0000
0001
0000
0000
0100
0000
,
0101
0000
0001
0000
1000
0000
1000
0000
0010
0000
0000
0100
0000
0000
0001
0000
,
1001
0000
1000
0000
0100
0000
0100
0000
0010
0000
0000
0001
0000
0000
0100
0000
,
0101
0000
0001
0000
1000
0000
1000
0000
0010
0000
0000
0100
0000
0000
0001
0000
,
1001
0000
1000
0000
0100
0000
0100
0000
0010
0000
0000
0001
0000
0000
0100
0000
,
0101
0000
0001
0000
1000
0000
1000
0000
0010
0000
0000
0100
0000
0000
0001
0000
,
1001
0000
1000
0000
0100
0000
0100
0000
0010
0000
0000
0001
0000
0000
0100
0000
,
0110
0000
0000
0010
0000
0000
1000
0000
1100
0000
0000
0100
0000
0000
0010
0000
,
0011
0000
0000
0001
0000
0000
0100
0000
0110
0000
0010
0000
1010
0000
1000
0000
,
1100
0000
0000
0100
0000
0000
0010
0000
0011
0000
0000
0001
0000
0000
0100
0000
,
0110
0000
0000
0010
0000
0000
1000
0000
1100
0000
0100
0010
0001
0000
0001
0000
,
1000
0100
0010
0001
0100
0010
1000
0001
0100
0001
1000
0010
1000
0100
0010
0001
,
1000
0010
0100
0001
0010
0100
1000
0001
0010
0001
1000
0100
1000
0010
0100
0001
,
1000
0010
1000
0001
1000
0001
0010
0001
1000
0100
1000
0001
1000
0001
0100
0001
,
1000
0100
0010
0001
0100
0010
1000
0010
0100
0001
0010
0100
1000
0001
2000
0000
,
0000
0000
0000
0000
,
3001
0100
0010
1000
0010
0100
0001
1000
0100
0010
0100
1000
0002
0000
0103
0010
,
1000
0100
0010
0100
1000
0001
0100
0001
0010
0100
0010
0100
1000
0100
1000
0010
,
0100
0001
1000
0010
1000
0001
0010
0100
1000
0010
1000
0010
0100
0010
0100
0001
,
0010
0100
1000
0001
1000
0010
0100
0001
0010
0001
0010
0100
0010
0100
1000
0010
,
0100
0001
0100
0001
1000
0010
1000
0001
0010
0100
0010
0100
1000
0001
0100
0010
,
1000
0100
0010
0001
1000
0001
0100
0010
1000
0100
1000
0100
0010
0100
0010
0001
,
0100
0010
1000
0001
0010
0100
0010
0001
0100
0010
0100
0010
1000
0010
1000
0100
,
0010
0001
1000
0100
1000
0001
0100
0001
0010
0100
0010
0100
1000
0100
1000
0010
,
0100
0001
0100
0001
1000
0010
0100
0001
1000
0100
1000
0010
0100
0001
0100
0001
,
0010
0100
1000
0100
0010
0001
1000
0010
1000
0100
1000
0100
0010
0100
0010
0001
,
0100
0010
0100
0001
1000
0001
0010
0100
1000
0010
1000
0010
0100
0010
0100
0001
,
0010
0001
1000
0100
1000
0001
0100
0001
0010
0100
0010
0100
1000
0100
1000
0001
,
0100
0010
0100
0010
1000
0001
0100
0001
1000
0100
1000
0100
0010
0001
1000
0010
,
1000
0100
0010
0001
1000
0010
0100
0001
0010
0100
0010
0100
1000
0100
1000
0010
,
0100
0001
0100
0010
1000
0001
0010
0001
0100
0010
0100
0010
1000
0010
1000
0100
,
0010
0001
1000
0100
1000
0001
0100
0010
1000
0100
1000
0100
0010
0100
0010
0001
,
0100
0010
0100
0010
1000
0001
0100
0010
1000
0001
0010
0001
0100
0010
1000
0001
,
1000
0010
0100
0010
1000
0001
0010
0001
0100
0010
0100
0010
1000
0010
1000
0100
,
0010
0001
1000
0100
1000
0001
0100
0010
1000
0100
1000
0100
0010
0100
0010
0001
,
0100
0010
1000
0001
1000
0100
0010
0001
0100
0001
0100
0010
0100
0010
1000
0100
,
0010
0001
0010
0001
1000
0100
1000
0001
0100
0010
0100
0010
1000
0001
0010
0100
,
1000
0010
0100
0001
1000
0001
0010
0100
1000
0010
1000
0010
0100
0010
0100
0001
,
0010
0100
1000
0001
0100
0010
0100
0001
0010
0100
0010
0100
1000
0100
1000
0010
,
0100
0001
1000
0010
1000
0001
0010
0001
0100
0010
0100
0010
1000
0010
1000
0100
,
0010
0001
0010
0001
1000
0100
0010
0001
1000
0010
1000
0100
0010
0001
0010
0001
,
0100
0010
1000
0010
0100
0001
1000
0100
1000
0010
1000
0010
0100
0010
0100
0001
,
0010
0100
0010
0001
1000
0001
0100
0010
1000
0100
1000
0100
0010
0100
0010
0001
,
0100
0001
1000
0010
1000
0001
0010
0001
0100
0010
0100
0010
1000
0010
1000
0001
,
0010
0100
0010
0100
1000
0001
0010
0001
1000
0010
1000
0010
0100
0001
1000
0100
,
1000
0010
0100
0001
1000
0100
0010
0001
0100
0010
0100
0010
1000
0010
1000
0100
,
0010
0001
0010
0100
1000
0001
0100
0001
0010
0100
0010
0100
1000
0100
1000
0010
,
0100
0001
1000
0010
1000
0001
0010
0100
1000
0010
1000
0010
0100
0010
0100
0001
,
0010
0100
0010
0100
1000
0001
0010
0100
1000
0001
0100
0001
1000
0010
0100
0001
,
1000
0000
0001
0010
0000
0001
0100
0000
0010
0000
1000
0000
0100
0000
0010
0000
,
0001
0000
0100
0010
0000
1000
0100
0000
0010
0000
0001
0000
1000
0000
0010
0000
,
1000
0000
0100
0010
0000
0001
0100
0000
0010
0000
1000
0000
0001
0000
0010
0000
,
0001
0000
1000
0010
0000
1000
0100
0000
0010
0000
0001
0100
0010
0000
0100
0000
,
0001
0000
1000
0100
0000
1000
0010
0000
0100
0000
0001
0000
0010
0000
0100
0000
,
1000
0000
0010
0100
0000
0001
0010
0000
0100
0000
1000
0000
0001
0000
0100
0000
,
0001
0000
0010
0100
0000
1000
0010
0000
0100
0000
0001
0000
1000
0000
0100
0000
,
1000
0000
0001
0100
0000
0001
0010
0000
0100
0000
1000
0010
0100
0000
0010
0000
,
1000
0000
0001
0100
0000
0001
0010
0000
0100
0000
1000
0000
0010
0000
0100
0000
,
0001
0000
0010
0100
0000
1000
0010
0000
0100
0000
0001
0000
1000
0000
0100
0000
,
1000
0000
0010
0100
0000
0001
0010
0000
0100
0000
1000
0000
0001
0000
0100
0000
,
0001
0000
1000
0100
0000
1000
0010
0000
0100
0000
0001
0010
0100
0000
0100
0000
,
1000
0000
0001
0100
0000
0001
0010
0000
0100
0000
1000
0000
0010
0000
0100
0000
,
0001
0000
0010
0100
0000
1000
0010
0000
0100
0000
0001
0000
1000
0000
0100
0000
,
1000
0001
0010
0001
1000
0001
1000
0100
1000
0001
0100
0010
1000
0010
0100
0001
,
1000
0001
0010
0100
1000
0100
1000
0001
0100
0010
1000
0100
0010
0001
0010
0001
,
1000
0001
0100
0010
1000
0010
1000
0100
0010
0001
1000
0010
1000
0100
1000
0001
,
0010
0100
1000
0001
0010
0001
0010
0100
1000
0010
0100
0001
1000
0001
0010
0001
,
1000
0010
1000
0001
0100
0001
0100
0010
1000
0100
0010
0001
1000
0001
0100
0001
,
1000
0100
0010
0100
1000
0100
1000
0010
0100
0001
1000
0010
1000
0100
1000
0001
,
0010
0001
1000
0100
0010
0100
0010
0001
0100
0010
1000
0001
0100
0001
0010
0001
,
1000
0010
1000
0001
0100
0001
0100
0010
1000
0100
0010
0001
0100
0001
1000
0001
,
0010
0100
1000
0001
0010
0001
0010
0100
1000
0010
0100
0010
1000
0001
1000
0100
,
1000
0001
0100
0010
1000
0010
1000
0100
0010
0001
0010
0100
1000
0010
0100
0001
,
1000
0001
0010
0100
1000
0100
1000
0010
0100
0001
1000
0100
1000
0010
1000
0001
,
0100
0010
1000
0001
0100
0001
0100
0010
1000
0100
0010
0001
1000
0001
0100
0001
,
1000
0100
1000
0001
0010
0001
0010
0100
1000
0010
0100
0001
1000
0001
0010
0001
,
1000
0010
0100
0010
1000
0010
1000
0100
0010
0001
0100
0010
1000
0100
1000
0100
,
0010
0001
1000
0010
0100
0010
0100
0001
0010
0100
1000
0001
0010
0001
0100
0001
,
1000
0100
1000
0001
0010
0001
0010
0100
1000
0010
0100
0001
0010
0001
1000
0001
,
0100
0010
1000
0001
0100
0001
0100
0010
1000
0100
0010
0100
1000
0001
1000
0010
,
1000
0001
0010
0100
1000
0100
1000
0010
0100
0001
0010
0100
1000
0001
1000
0100
,
0010
0001
0010
0100
0010
0001
0010
0100
1000
0010
1000
0001
0100
0001
0010
0001
,
1000
0010
0100
0010
1000
0001
0010
0001
0100
0010
1000
0100
1000
0001
0100
0010
,
1000
0001
0010
0100
1000
0001
0100
0010
0100
0001
1000
0100
0010
0001
0100
0010
,
1000
0001
0010
0100
0010
0001
1000
0010
0100
0001
1000
0100
0010
0001
1000
0010
,
0100
0010
1000
0010
0100
0010
1000
0001
0010
0100
1000
0010
0100
0001
0100
0010
,
1000
0100
0010
0100
1000
0100
1000
0010
0100
0001
0100
0010
0100
0001
0100
0010
,
1000
0100
0010
0100
1000
0100
0010
0100
1000
0001
0010
0001
0100
0010
1000
0001
,
1000
0010
0100
0010
1000
0010
1000
0100
0010
0001
0100
0010
1000
0001
1000
0010
,
0100
0001
0100
0010
0100
0001
0100
0010
1000
0100
1000
0001
0010
0001
0100
0001
,
1000
0100
0010
0100
1000
0001
0100
0001
0010
0100
1000
0010
1000
0001
0010
0100
,
1000
0001
0100
0010
1000
0001
0010
0100
0010
0001
1000
0010
0100
0001
0010
0100
,
1000
0001
0100
0010
0100
0001
1000
0100
0010
0001
1000
0010
0100
0001
1000
0100
,
0010
0100
1000
0100
0010
0100
1000
0001
0100
0010
1000
0100
0010
0001
0010
0100
,
1000
0010
0100
0010
1000
0010
1000
0100
0010
0001
0010
0100
0010
0001
0010
0100
,
1000
0010
0100
0010
1000
0010
0100
0010
1000
0001
0100
0001
0010
0100
1000
0001
,
1000
0010
0100
0001
1000
0001
1000
0100
0010
0100
1000
0010
0100
0001
0100
0001
,
1000
0010
0100
0001
0010
0100
0010
0001
0100
0010
1000
0001
0010
0100
1000
0001
,
0100
0001
1000
0010
0100
0001
1000
0001
0010
0100
1000
0001
0010
0001
1000
0010
,
0100
0001
1000
0001
0010
0100
0010
0001
1000
0100
1000
0001
0100
0010
0100
0001
,
0010
0100
0010
0100
1000
0001
0010
0001
1000
0010
0100
0010
1000
0001
1000
0100
,
0010
0001
1000
0001
0010
0100
0010
0001
1000
0010
0100
0001
0100
0010
1000
0001
,
0010
0100
1000
0100
0010
0001
1000
0010
1000
0001
0100
0010
1000
0001
1000
0100
,
0010
0100
1000
0001
0100
0010
0100
0001
1000
0010
1000
0001
0010
0100
0010
0001
,
0100
0010
0100
0010
1000
0001
0010
0100
1000
0010
1000
0001
0010
0100
0010
0100
,
1000
0100
0010
0001
0100
0010
0100
0001
0010
0100
1000
0001
0100
0010
1000
0001
,
0010
0001
1000
0100
0010
0001
1000
0001
0100
0010
1000
0001
0100
0001
1000
0100
,
0010
0001
1000
0001
0100
0010
0100
0001
1000
0010
1000
0001
0010
0100
0010
0001
,
0100
0010
0100
0010
1000
0001
0100
0001
1000
0100
0010
0100
1000
0001
1000
0010
,
0100
0001
1000
0001
0100
0010
0100
0001
1000
0100
0010
0001
0010
0100
1000
0001
,
0100
0010
1000
0010
0100
0001
1000
0100
1000
0001
0010
0100
1000
0001
1000
0010
,
0100
0010
1000
0001
0010
0100
0010
0001
1000
0100
1000
0001
0100
0010
0100
0001
,
0010
0000
0000
0100
0000
0000
1000
0000
0001
0000
0000
0000
2002
0000
3003
0000
,
1000
0010
0100
0010
1000
0001
0010
0001
0100
0010
0100
0010
1000
0010
1000
0100
,
0010
0100
1000
0001
1000
0010
0100
0010
1000
0100
1000
0100
0010
0100
0010
0001
,
0100
0010
0100
0001
1000
0100
0010
0001
0100
0001
0100
0010
0100
0010
1000
0100
,
0010
0001
0010
0001
1000
0100
0010
0001
0100
0010
0100
0010
1000
0001
0010
0100
,
1000
0010
0100
0010
1000
0001
0010
0100
1000
0010
1000
0010
0100
0010
0100
0001
,
0010
0100
1000
0001
1000
0010
0100
0001
0010
0100
0010
0100
1000
0100
1000
0010
,
0100
0001
0100
0010
1000
0001
0010
0001
0100
0010
0100
0010
1000
0010
1000
0100
,
0010
0001
0010
0001
1000
0100
0010
0001
1000
0010
1000
0100
0010
0001
0010
0001
,
1000
0100
1000
0001
0100
0010
0100
0001
0010
0100
0010
0100
1000
0100
1000
0010
,
0100
0010
1000
0001
1000
0100
0010
0100
1000
0010
1000
0010
0100
0010
0100
0001
,
0010
0100
0010
0001
1000
0010
0100
0001
0010
0001
0010
0100
0010
0100
1000
0010
,
0100
0001
0100
0001
1000
0010
0100
0001
0010
0100
0010
0100
1000
0001
0100
0010
,
1000
0100
0010
0100
1000
0001
0100
0010
1000
0100
1000
0100
0010
0100
0010
0001
,
0100
0010
1000
0001
1000
0100
0010
0001
0100
0010
0100
0010
1000
0010
1000
0100
,
0010
0001
0010
0100
1000
0001
0100
0001
0010
0100
0010
0100
1000
0100
1000
0010
,
0100
0001
0100
0001
1000
0010
0100
0001
1000
0100
1000
0010
0100
0001
0100
0001
,
0010
0100
1000
0001
1000
0010
0100
0001
0010
0100
0010
0100
1000
0100
1000
0010
,
0100
0001
0100
0010
1000
0001
0010
0100
1000
0010
1000
0010
0100
0010
0100
0001
,
0010
0100
0010
0001
1000
0010
0100
0010
1000
0100
1000
0100
0010
0100
0010
0001
,
0100
0010
0100
0010
1000
0001
0100
0001
0010
0100
0010
0100
1000
0001
0010
0100
,
1000
0010
0100
0001
1000
0100
0010
0100
1000
0010
1000
0010
0100
0010
0100
0001
,
0010
0100
0010
0001
1000
0010
1000
0100
0010
0001
0010
0001
1000
0001
1000
0100
,
1000
0010
0100
0001
1000
0001
0010
0100
1000
0010
1000
0010
0100
0010
0100
0001
,
0010
0100
0010
0100
1000
0001
0010
0100
1000
0010
1000
0001
0100
0010
0100
0010
,
1000
0001
0100
0001
1000
0100
0010
0001
0100
0010
0100
0010
1000
0010
1000
0100
,
0010
0001
0010
0100
1000
0001
0100
0010
1000
0100
1000
0100
0010
0100
0010
0001
,
0100
0010
0100
0001
1000
0100
0010
0100
1000
0010
1000
0010
0100
0010
0100
0001
,
0010
0100
0010
0100
1000
0001
0010
0001
0100
0010
0100
0010
1000
0001
0100
0010
,
1000
0100
0010
0001
1000
0010
0100
0010
1000
0100
1000
0100
0010
0100
0010
0001
,
0100
0010
0100
0001
1000
0100
1000
0010
0100
0001
0100
0001
1000
0001
1000
0010
,
1000
0100
0010
0001
1000
0001
0100
0010
1000
0100
1000
0100
0010
0100
0010
0001
,
0100
0010
0100
0010
1000
0001
0100
0010
1000
0100
1000
0001
0010
0100
0010
0100
,
1000
0010
1000
0001
0100
0001
1000
0100
0010
0001
0010
0100
1000
0010
0100
0001
,
0010
0100
1000
0001
0010
0001
1000
0010
0100
0001
1000
0010
1000
0100
0010
0001
,
0100
0010
1000
0001
0100
0001
1000
0100
0010
0001
1000
0100
1000
0010
0100
0001
,
0010
0100
1000
0001
0010
0001
1000
0010
1000
0001
0100
0001
0010
0100
0010
0001
,
0100
0010
1000
0001
0100
0001
1000
0100
0010
0001
0010
0100
1000
0010
0100
0001
,
0010
0100
0010
0001
1000
0100
1000
0001
0100
0010
1000
0010
0100
0001
0010
0100
,
1000
0010
0100
0001
1000
0010
1000
0001
0010
0100
1000
0001
0100
0010
0100
0001
,
0010
0100
0010
0001
1000
0010
1000
0001
0010
0100
0010
0001
0100
0010
1000
0100
,
0010
0100
1000
0001
0010
0001
1000
0010
0100
0001
0100
0010
1000
0100
0010
0001
,
0100
0010
1000
0001
0100
0001
1000
0100
0010
0001
1000
0100
1000
0010
0100
0001
,
0010
0100
1000
0001
0010
0001
1000
0010
0100
0001
1000
0010
1000
0100
0010
0001
,
0100
0010
1000
0001
0100
0001
1000
0100
1000
0001
0010
0001
0100
0010
0100
0001
,
0010
0100
1000
0001
0010
0001
1000
0010
0100
0001
0100
0010
1000
0100
0010
0001
,
0100
0010
0100
0001
1000
0010
1000
0001
0010
0100
1000
0100
0010
0001
0100
0010
,
1000
0100
0010
0001
1000
0100
1000
0001
0100
0010
1000
0001
0010
0100
0010
0001
,
0100
0010
0100
0001
1000
0100
1000
0001
0100
0010
0100
0001
0010
0100
1000
0010
,
0100
0001
1000
0010
1000
0001
0100
0001
1000
0100
0010
0001
1000
0000
1000
0000
,
0001
0010
0001
1000
0001
0100
0001
1000
0010
1000
0001
0100
0001
1000
0100
0010
,
0001
1000
0010
1000
0001
0100
0001
1000
0100
0010
0100
1000
0001
0010
0001
0100
,
0010
1000
0001
0100
0001
1000
0100
0010
0100
1000
0001
0100
0001
0010
0100
1000
,
0100
1000
0001
0010
0001
1000
0100
1000
0001
0100
0010
1000
0001
0000
0001
0000
,
1000
0010
1000
0001
1000
0100
1000
0001
0010
0001
1000
0100
1000
0001
0100
0010
,
1000
0001
0010
0001
1000
0100
1000
0001
0100
0010
0100
0001
1000
0010
1000
0100
,
0010
0001
1000
0100
1000
0001
0100
0010
0100
0001
1000
0100
1000
0010
0100
0001
,
1000
0100
0010
0100
1000
0001
0100
0001
1000
0100
0010
0001
1000
0010
1000
0001
,
0010
0001
1000
0001
0100
0001
1000
0010
1000
0001
0010
0100
1000
0001
0010
0001
,
1000
0100
0010
0001
1000
0010
0100
0010
1000
0001
0010
0001
1000
0010
1000
0001
,
0010
0001
1000
0001
1000
0010
1000
0001
1000
0001
0010
0100
1000
0010
0100
0001
,
1000
0010
0100
0010
1000
0001
0010
0001
1000
0010
0100
0001
1000
0100
1000
0001
,
0100
0001
1000
0001
0010
0001
1000
0100
1000
0001
0100
0010
1000
0001
0100
0001
,
1000
0010
0100
0001
1000
0100
0010
0100
1000
0001
0100
0001
1000
0100
1000
0001
,
1000
0000
0010
1000
0100
0000
0010
0001
0100
0000
0010
1000
0001
0000
0002
0000
,
0000
0000
0000
0000
,
0000
0000
0000
0003
;
