#TITLE:From the Depths of Time;
#SUBTITLE:;
#ARTIST:Matt Polard;
#TITLETRANSLIT:;
#SUBTITLETRANSLIT:;
#ARTISTTRANSLIT:;
#CREDIT:;
#BANNER:../BN.png;
#BACKGROUND:../BG.png;
#LYRICSPATH:;
#CDTITLE:../CDTitleBRAEDEN.png;
#MUSIC:From the Depths of Time.ogg;
#OFFSET:-0.040;
#SAMPLESTART:15.180;
#SAMPLELENGTH:12.000;
#SELECTABLE:YES;
#DISPLAYBPM:*;
#BPMS:0.000=122.560,27.500=490.240,29.500=980.480,32.000=200.003,128.000=100.002,174.000=200.003;
#STOPS:27.500=0.229
,27.875=0.229
,28.250=0.229
,28.625=0.229
,29.000=0.184
,31.500=0.184
,306.000=0.300
,306.500=0.300
,307.000=0.150
,307.500=0.150
,308.000=0.075
,308.250=0.075
,308.500=0.150
,309.000=0.150
,309.500=0.300
,310.000=0.300
,311.500=0.450
,312.000=0.150
,312.500=0.150
,313.000=0.300
,313.500=0.300
,315.000=0.150
,316.500=0.150
,317.000=0.150
,317.500=0.300
,318.000=0.300
,319.500=0.150
,320.000=0.037
,320.125=0.037
,320.250=0.037
,320.375=0.038
,320.500=0.150
,321.000=0.150
;
#BGCHANGES:;
// cache tags:
#FIRSTBEAT:4.000;
#LASTBEAT:322.000;
#SONGFILENAME:Songs/Index Gradation/From the Depths of Time - [Braeden]/From the Depths of Time.sm;
#HASMUSIC:1;
#HASBANNER:1;
#MUSICLENGTH:124.813;
// end cache tags

//---------------dance-single - ----------------
#NOTES:
     dance-single:
     :
     Beginner:
     4:
     0.174,0.322,0.120,0.032,0.000,133.000,15.000,4.000,0.000,0.000:
0000
0000
0000
0000
,
0000
1000
0000
0100
,
0000
0010
0000
0001
,
0001
0001
0001
0001
,
0000
1000
0000
0100
,
0000
0010
0000
0001
,
0000
0000
1000
0000
0000
0000
0000
2002
,
0000
0000
0000
0000
0000
0000
0000
3003
,
0100
0000
0000
0000
,
0100
0100
0100
0000
,
0010
0000
0000
0000
,
0001
0000
1000
1000
,
1000
0000
0000
0000
,
0001
0000
0100
0100
,
0100
0000
0000
0000
,
0010
0000
0000
0000
,
1001
0000
0000
0000
,
0100
0000
0000
0000
,
0010
0000
0000
0000
,
0010
0000
0000
0000
,
1001
0000
0000
0000
,
0100
0000
0000
0000
,
0010
0000
0000
0000
,
0010
0010
0010
0010
,
0010
0000
0000
0000
,
1000
0000
0000
0000
,
0001
0000
0000
0000
,
0100
0000
0010
0010
,
0010
0000
0000
0000
,
1000
0000
0000
0000
,
0001
0000
0000
0000
,
1000
0000
0001
0001
,
0001
0000
1001
0000
,
0110
0000
1001
0000
,
1001
0000
0110
0000
,
1001
0000
1001
0000
,
0110
0000
0100
0000
,
0010
0000
0001
0000
,
1000
0000
0100
0000
,
0010
0000
0001
0000
,
1000
0000
0001
0000
,
1000
0000
0100
0000
,
0010
0000
0001
0000
,
1000
0000
0001
0000
,
0000
0000
1001
0000
,
0000
0000
0100
0000
,
0000
0000
0010
0000
,
0000
0000
0100
0000
,
0000
0000
0001
0001
,
0001
0000
1000
1000
,
1000
0000
0100
0100
,
0100
0000
0010
0010
,
0010
0010
0010
0000
,
0000
0000
1000
0000
,
0001
0001
0001
0000
,
0000
0000
1000
0000
,
0100
0100
0100
0000
,
0000
0000
0010
0000
,
0000
0000
0001
0000
,
0000
0000
1000
0000
,
0000
0000
0001
0000
,
0000
0000
1000
0000
,
0000
0000
0100
0000
,
0000
0000
0010
0000
,
0000
0000
1001
0000
,
0000
0000
0100
0000
,
0000
0000
0010
0000
,
0000
0000
1001
0000
,
0000
0000
0001
0000
,
0000
0000
0100
0000
,
0000
0000
0010
0000
,
0000
0000
1000
0000
,
0000
0000
0100
0000
,
0000
0000
0010
0000
,
0000
0000
0001
0000
,
0000
0000
1000
0000
,
0001
0000
0000
0000
1000
0000
0000
1000
,
0000
0000
0000
0100
0000
0000
0000
0100
,
0000
0100
0000
0010
,
0000
0010
0010
0010
0000
0000
0000
0001
,
0000
1000
0000
2002
3003
0000
0000
0000
;

//---------------dance-single - ----------------
#NOTES:
     dance-single:
     :
     Easy:
     6:
     0.350,0.451,0.264,0.128,0.000,257.000,33.000,16.000,0.000,0.000:
0000
0000
0000
0000
,
1000
0100
0010
0001
,
0100
0010
1000
0001
,
1000
0100
1000
0000
0001
0100
0001
0000
,
1000
0000
0000
0100
0010
0100
0010
0100
,
0000
0010
0000
0001
0000
0100
0000
0010
,
1000
0000
1000
0010
0000
0010
0000
0002
,
0000
0000
0000
0000
,
1003
0000
0000
0000
,
0100
0010
0100
0010
,
0100
0000
0000
0100
0000
0000
1000
0000
,
0001
0000
1000
1000
,
0001
0000
0000
0100
0000
0000
0010
0000
,
1000
0001
1000
0100
,
0010
0000
0010
0001
,
1000
0100
0010
0100
,
1000
0000
0000
0001
0000
0000
1000
0000
,
0000
0000
0000
0000
,
0100
0000
0000
0010
0000
0000
0100
0000
,
0000
0000
1001
0000
,
0100
0000
0000
0010
0000
0000
0001
0000
,
0000
0000
0000
0000
,
0001
0000
1000
0001
,
1000
1000
1000
1000
,
1001
0000
0000
0110
0000
0000
0001
0000
,
0100
0001
1000
0100
,
1100
0000
0000
0101
0000
0000
0001
0000
,
1000
0000
0001
0001
,
1001
0000
0000
0110
0000
0000
0001
0000
,
1000
0001
0100
0001
,
1001
0000
0000
0110
0000
0000
0001
0000
,
1000
0000
0100
0100
,
1001
1100
0100
0110
,
0010
0011
0001
1001
,
0100
0110
0001
1001
,
0100
0110
0001
1001
,
1000
2000
0000
0000
3002
0000
0000
0000
,
0203
0000
0320
0000
,
2030
0000
3200
0000
,
0320
0000
0032
1000
,
2003
0000
3020
0000
,
0230
0000
0302
0000
,
2003
0000
3200
0000
,
0320
0000
0000
0030
0001
0000
0000
0000
,
0000
0000
0000
0000
1000
0000
0000
0001
,
0000
0000
1000
0100
,
0010
0000
0100
0000
0010
0000
0000
0010
,
0000
0001
1000
0100
,
0010
0100
1000
0001
,
0010
0100
1000
0010
,
0100
0001
1000
0100
,
0010
0001
1000
1000
,
1000
0000
1000
0000
1001
0000
0000
0101
,
0000
0001
1000
0100
,
0010
0000
0001
0000
1010
0000
0000
0101
,
0000
0001
1000
0000
,
1001
0000
1001
0000
0100
0000
0000
0010
,
0000
0100
1000
0001
,
0100
0000
0010
0000
1001
0000
0000
1100
,
0000
0001
0100
1000
,
0001
0000
0000
0000
0001
0000
0000
1000
,
0000
0100
0010
0000
0000
0000
0000
0000
,
0001
0000
0000
0000
1100
0000
0000
0011
,
0000
0110
0000
0000
,
0001
0000
0000
0000
1000
0000
0001
0001
,
0000
1000
0000
0000
0100
0000
0000
0000
,
0010
0000
0100
0000
,
0000
0000
0010
0010
,
0010
0000
1001
0000
,
0000
0000
0100
1000
0100
0000
0000
0000
,
0100
0000
0000
0000
0010
0000
0000
0010
,
0000
0000
0001
0001
0000
0000
0000
0000
,
1001
0000
0000
0000
0100
0010
0100
0010
,
0000
0100
0000
0000
1000
0000
0000
1000
,
0000
0000
0001
0000
0001
0000
0000
0001
,
0000
0000
0001
1000
0001
0000
0000
0000
,
1001
0000
0000
0000
1000
0100
1000
0100
,
0010
0001
0010
0001
0010
0100
0000
1000
,
0001
0100
0001
0100
0001
0000
0100
0010
,
0000
1000
0100
0010
0001
0010
0000
1000
,
1000
0010
1000
0101
0000
0000
0000
0000
;

//---------------dance-single - Copied from----------------
#NOTES:
     dance-single:
     Copied from:
     Hard:
     10:
     0.717,0.902,0.769,0.337,0.276,488.000,96.000,42.000,0.000,0.000:
0000
0000
0000
0000
,
1000
0000
0100
0000
1000
0000
0100
0000
0001
0000
0100
0000
1000
0010
0100
0000
,
0001
1000
0100
0010
0100
0010
0011
0001
,
1000
0100
1000
0100
0010
0001
0010
0001
1000
0010
1000
0010
1000
0010
0100
0010
,
0100
0001
1000
0100
0010
0001
0010
0200
,
0000
2300
0000
3020
0000
0032
0000
0103
,
0020
0000
1030
0200
0000
0301
0000
2002
,
0000
0000
0000
0000
0000
0000
0000
3003
,
1001
0000
0000
1100
0000
0000
0100
0010
,
0001
0000
0000
0000
0001
0000
0010
0000
0100
0000
0000
0000
1000
0000
0100
0010
,
0100
0000
0000
1002
0000
0000
1003
0100
,
0010
0000
0001
1000
0100
1000
0001
0000
,
1001
0000
0000
0110
0000
0000
0001
0010
,
0001
0000
0100
1000
0100
0000
1100
0000
,
1001
0000
0000
1001
0000
0000
0100
0010
,
0200
0000
2300
3000
1001
0000
1001
0000
,
1100
1000
0100
0020
0032
0023
0130
0020
,
0031
0020
0031
0020
0230
2300
3002
1003
,
1010
0000
0000
0102
0000
1000
1000
0000
,
0000
0103
0000
0000
2000
3000
0002
0003
,
1001
0000
0000
1000
0100
0002
0000
0100
,
0000
0100
0000
0010
0000
0103
0000
0000
,
1000
0010
0001
0010
1000
0100
0001
0100
,
1000
1001
1001
1001
,
1001
0000
0000
1001
0000
0000
0100
1000
,
0100
0000
1000
0000
0010
0000
0100
0000
0001
0000
0100
0000
0010
0000
1000
0100
,
1000
0000
0000
1001
0000
0000
0001
0001
,
0011
0000
0000
0000
0001
0000
0001
1000
0001
0000
1000
0001
0100
0000
0000
0000
,
2100
0000
0000
0001
0000
0000
3001
1000
,
0100
0000
0000
0000
0010
0000
0001
0000
1001
0000
0000
0000
1100
0000
1000
0100
,
1000
0000
1000
1001
0000
0000
0001
0001
,
0001
0000
0100
0100
0100
0000
0101
0000
,
1000
0000
0000
0000
0110
0000
0000
0000
0001
0000
0000
1000
1100
0000
0010
0010
,
0010
0000
0000
0000
0000
0000
0000
0000
0011
0000
0000
0000
0000
0000
0000
0000
1000
0000
1100
0000
0000
0000
0010
0000
0011
0000
0000
0000
1000
0010
1000
0001
,
1000
0000
0000
0000
0000
0000
0000
0000
1001
0000
0000
0000
0000
0000
0000
0000
0001
0000
0000
0000
0010
0100
1000
0000
0100
0000
0000
0000
0100
0000
0100
0000
,
0100
0000
0000
0000
0110
0000
0000
0000
0001
0011
0000
0100
1100
0000
1000
1000
,
0110
0000
0000
1000
0010
0100
0000
0001
0000
0100
0000
0010
0000
2000
0000
0000
,
3100
0000
0200
2000
0000
0000
3300
0000
1100
0000
0000
0000
0001
0000
0000
0000
,
1001
0000
0000
0001
1000
0100
0000
0001
0000
0100
0000
0010
0000
0001
0000
0000
,
2000
0000
0000
0010
0000
0000
0001
0000
3001
0000
0000
0000
0001
0000
0000
0000
,
1001
0000
0000
0001
1000
0010
0000
0010
0000
1000
0000
1000
0000
0001
0000
0000
,
1000
0000
0010
0200
0000
0000
0300
0000
1100
0000
0000
0000
0001
0010
0001
0010
,
0000
0000
0000
0000
0100
1000
0100
1000
0000
0000
0000
0000
0100
0000
1000
0100
,
1100
0000
0000
0000
1000
1000
1100
0100
,
0000
0000
0001
0000
1000
0000
1100
0010
,
0000
1001
0100
0000
0010
0010
0002
0013
,
0100
0100
2000
3000
1010
0000
1001
0001
,
0000
1000
1001
1000
0100
0001
0100
1000
,
0100
0000
0010
0000
0100
1000
0001
1000
0100
0000
0010
0000
0001
0000
0010
0000
,
0001
0100
0001
1000
0001
1000
0010
0100
,
0010
0000
1000
0000
0001
0000
1000
0100
1000
0000
0100
0000
0010
0000
0100
0000
,
0010
0100
0001
1000
0110
0000
0110
0000
,
0011
0000
1100
0000
1001
0000
0000
1100
,
0000
0000
0110
0000
0001
0000
0100
1000
,
0100
0000
0101
0000
1001
0000
0000
1100
,
0000
0000
0100
0010
0100
0000
0000
0000
,
0110
0000
1000
0001
1000
0000
0001
1000
0001
0000
0000
0000
0000
0000
0011
0000
,
0000
0000
1000
0100
1000
0000
0001
0100
,
0001
0000
0000
0000
1001
0000
0100
1000
0100
0000
0000
0000
0000
0000
0011
0000
,
0000
0000
0001
1000
0001
0000
0000
0000
,
1100
0000
0000
0000
0002
1003
0001
2000
,
3100
2000
3200
0310
0100
0010
0100
0010
,
0200
0310
0001
0100
0002
0103
0002
0013
,
0100
0010
0110
0001
0010
0100
1000
0100
,
0200
0310
0100
0010
0110
0000
1100
0101
,
0000
1001
0000
0001
1000
0000
0100
1000
,
0100
1000
0100
0010
0001
0100
0001
0100
,
0001
1000
0010
1000
0110
0000
0110
0000
,
0200
0300
0000
0000
1001
0000
0000
0000
,
0000
0000
0001
1000
0001
0000
0000
0000
,
1100
0000
0000
0000
1001
0000
0000
1100
,
0000
0000
1001
0011
0000
0000
0000
0000
,
1001
0000
0000
1000
1100
1000
0100
1001
,
0000
0000
1000
0010
1000
0000
0001
0100
0001
0000
1000
0010
1000
0000
0001
0100
,
0001
0000
0100
0010
0100
0010
0100
0000
0101
0000
0000
0000
0000
0000
1010
0000
,
0000
0000
0100
0100
0002
0000
0003
0000
,
1010
0000
0000
0000
1001
0100
0100
0100
,
0001
0001
0001
0000
0100
0000
0010
0000
1001
0000
0100
0000
1000
0000
1001
0000
,
0011
1001
1100
1001
0001
1000
1001
0001
,
1000
1001
1001
1010
1100
1000
0100
1000
,
0001
1000
0001
0010
0100
0000
0000
0000
0100
0000
0000
0000
1001
0000
0000
0000
0000
0000
0000
0000
0000
0000
0000
0000
0000
0000
0000
0000
0000
0000
0000
0000
;

//---------------dance-single - Copied from----------------
#NOTES:
     dance-single:
     Copied from:
     Medium:
     8:
     0.483,0.483,0.417,0.409,0.000,319.000,52.000,51.000,0.000,0.000:
0000
0000
0000
0000
,
1000
0100
1000
0000
0001
0100
0001
0000
,
1000
0010
1000
0000
0001
0100
0001
0000
,
0010
0100
1000
0010
0100
0001
0010
0100
,
1000
0000
0000
0001
1000
0100
0010
0100
,
0000
0100
0000
0100
0000
0100
0000
0100
,
0010
0000
0010
0001
0000
1000
0000
2002
,
0000
0000
0000
0000
0000
0000
0000
3003
,
1001
0000
0000
1000
0000
0000
0100
0000
,
0010
0000
0100
0010
0100
0000
0010
0000
,
0011
0000
0000
1100
0000
0000
0100
1000
,
0100
0000
0100
0100
,
0110
0000
0000
1001
0000
0000
1000
0100
,
1000
0000
0001
0100
0001
0000
1000
0000
,
1001
0000
0000
0110
0000
0000
0001
0010
,
0001
2000
3100
0010
,
0001
0000
0000
1000
0100
1000
0000
0100
,
0000
0010
0001
0100
0001
1000
0010
1000
,
0001
0000
1000
0000
0001
0200
0000
0000
,
0310
0000
1002
0000
,
0103
0000
0000
1000
0010
0200
0000
0302
,
0000
0203
0000
0320
0000
2030
0000
0000
,
3010
0001
1000
0001
1000
0100
1000
0100
,
1000
1000
1000
1000
,
1001
0000
0000
1100
0000
0000
0001
0000
,
0010
0000
0100
1000
0100
0000
0010
0000
,
0011
0000
0000
1001
0000
0000
0100
1000
,
0100
0000
0010
0001
,
1001
0000
0000
0110
0000
0000
0001
0010
,
0001
0000
0001
0010
0001
0000
1000
0000
,
1001
0000
0000
0110
0000
0000
0001
1000
,
0001
0000
0100
0100
,
0110
0011
0100
1100
,
0001
1001
0100
0110
,
0001
1001
0100
0110
,
0001
1001
0100
0110
,
2000
0000
3002
0000
,
0203
0000
0320
0000
,
2030
0000
3002
0000
,
0203
0000
0320
0000
,
2030
0000
3002
0000
,
0203
0000
0320
0000
,
2030
0000
3002
0000
,
0203
0000
0000
0000
0310
1000
0010
2000
,
0000
0000
3000
0000
0001
0000
0010
0100
,
0000
1000
0001
0000
0010
0100
1000
0100
,
0010
0001
0100
0000
0110
0000
0010
1000
,
0000
1000
0001
1000
0100
0010
0001
0100
,
0010
1000
0002
0000
2003
0000
0000
3100
,
0000
0010
0001
0000
1000
0010
0100
0001
,
1000
0010
0100
0001
0001
0100
0001
1000
,
0100
1000
0100
0000
0100
0000
0100
0000
,
0100
0000
0100
0000
0110
0000
0000
1001
,
0000
0000
1000
0000
0100
0000
1000
0001
,
1000
0000
0001
0000
1001
0000
0000
0110
,
0000
0000
0001
1000
0001
0000
0000
0000
,
0110
0000
0101
0000
1001
0000
0000
0110
,
0000
0000
1000
0100
0001
0000
0001
0100
,
1000
0000
1000
0000
1001
0000
0000
0110
,
0000
0000
0001
1000
0001
0000
0000
0000
,
0200
0000
0000
0000
0320
0000
0000
1000
,
0000
1000
2030
0000
0000
0000
0000
0000
,
3002
0000
0000
0003
0011
0000
0000
0110
,
0000
1100
0000
0000
,
1001
0000
0000
0000
0200
0000
0320
0032
,
0000
2003
0000
3000
2001
0000
0000
0000
,
3200
0000
0320
0000
,
0000
0000
0130
0100
,
0220
0330
2000
0000
,
0000
3000
0001
1000
0002
0000
0000
0003
,
0200
0000
0000
0300
0110
0000
0000
1001
,
0000
0000
0110
0110
0000
0000
0000
0000
,
2000
0000
3000
0000
0001
0100
0001
0200
,
0000
0320
0000
0000
2030
0000
0000
0000
,
0002
0000
3003
0000
1001
0000
0000
0110
,
0000
0000
1001
1001
0002
0000
0000
0000
,
2000
0000
3003
0000
1000
0100
0010
0001
,
0100
0010
1000
0100
0010
0001
0000
0100
,
0010
1000
0010
1000
0001
0000
0010
0100
,
0000
1000
0010
1000
0100
1000
0000
0100
,
0010
0100
1000
1001
0000
0000
0000
0000
;

//---------------dance-single - ----------------
#NOTES:
     dance-single:
     :
     Challenge:
     15:
     1.000,1.000,0.280,0.128,1.000,912.000,35.000,16.000,14.000,5.000:

0000
0000
0000
0000
,
1000
0000
0100
0000
100M
0000
0100
0000
0010
0000
0100
0000
100M
0010
0100
0000
,
0001
1000
010M
0010
0100
0010
M011
0001
,
1000
0000
0100
0000
1000
0000
0100
0000
0010
0000
0001
0000
0010
0000
0001
0000
1000
0000
0010
0000
1000
0000
0001
0000
1000
0010
1000
0000
0100
0000
0010
0000
,
0001
1000
0001
1000
1000
0010
0100
0010
,
00M0
1000
M000
0001
000M
0100
0M00
0010
,
0010
0000
0000
0000
1000
0000
1000
0000
0000
0000
0001
0000
0000
0000
M000
00M0
,
0000
0M00
000M
0000
M000
0000
0000
0000
0000
0000
0000
0000
0000
0000
0000
0000
,
1001
0000
1100
1000
0000
0100
0010
0010
,
0001
0000
0100
0000
0001
0000
0001
0000
0100
0000
0010
0000
1000
0000
0100
0010
,
0100
0000
0110
0001
0000
1000
1001
0001
,
0100
0000
0010
0000
1000
0000
0100
0000
0010
0000
0001
0000
1000
0000
0001
1000
,
0001
1000
1001
0010
0100
0001
1000
0100
,
0001
0000
0100
0000
1000
0000
0010
0000
0100
0000
0100
0000
0001
0000
1000
0001
,
1000
0000
1001
2000
0000
3100
0010
0001
,
0100
0000
0010
0000
1000
0000
0010
1000
0001
0000
0000
0000
1001
0000
0000
0000
,
1000
0100
0010
0001
0010
0100
1000
0001
0100
0001
1000
0100
1000
0001
1000
0100
,
1000
0001
0100
0001
1000
0001
0100
0001
1000
0100
0010
0001
0010
0100
1000
0001
,
0010
0001
1000
0100
0010
0100
1000
0001
0010
0100
0010
0100
1000
0100
0010
0001
,
0100
0000
0000
0001
0000
0000
1000
0000
0000
0001
0000
0000
0100
0000
0000
0010
0000
0000
1000
0000
0000
0100
0000
0000
1000
0000
0000
0000
0100
0000
0000
0000
0010
0000
0000
0000
0004
0000
0000
0000
0000
0000
0000
0000
0000
0000
0000
0000
,
1003
0100
0010
0001
1000
0100
0010
0001
1000
0100
1000
0100
0010
0001
0100
0010
,
1000
0100
1000
0010
0100
0001
1000
0001
1000
0010
0100
0010
1000
0001
0100
0001
,
1000
0010
0100
0010
1000
0001
0100
0010
0100
0001
0100
0010
0100
0001
1000
0001
,
0100
0000
0010
0000
0100
0000
0010
0000
0000
1000
0000
0000
0001
0000
0010
0000
0100
0000
1000
0000
0000
0001
0000
0000
0100
0000
0010
0000
1000
0000
0001
0000
0000
0100
0000
0000
0010
0000
1000
0000
0001
0000
1000
0000
0000
0100
0000
0000
,
0010
0100
1000
0001
0100
0010
1000
0001
0010
0100
1000
0001
0100
0010
0100
0001
,
0010
0100
1000
0001
0100
0010
1000
0001
0010
0100
1000
0001
0100
0010
1000
0001
,
0010
0100
1000
0001
0100
0010
1000
0100
0010
0100
1000
0001
0010
0100
1000
0001
,
0100
0010
1000
0100
0010
0001
0010
0100
1000
0001
0100
0010
1000
0001
1000
0100
,
0010
0100
1000
0001
0010
0100
1000
0001
0100
0010
1000
0100
0010
0001
0010
0100
,
1000
0001
0100
0010
0100
0001
0010
0100
1000
0001
0100
0010
1000
0100
0010
0001
,
0010
0100
1000
0001
0100
0010
1000
0100
0010
0100
1000
0001
0010
0100
1000
0001
,
0100
0010
1000
0100
0010
0100
1000
0001
0010
0100
1000
0001
1000
0100
0010
0001
,
1000
0000
0000
0000
1110
0000
0000
0000
0111
0000
0000
1000
1100
0000
0010
0001
,
0011
0000
0000
0000
0000
0000
0000
0000
1011
0000
0000
0000
0000
0000
0000
0000
1000
0000
0100
0000
0000
0000
0010
0000
0001
0000
0000
0000
1000
0010
1000
0001
,
1000
0000
0000
0000
0000
0000
0000
0000
1101
0000
0000
0000
0000
0000
0000
0000
0001
0000
0000
0000
0010
0100
1000
0000
0100
0000
0000
0000
0100
0000
00M0
0000
,
0100
0000
0000
0000
0110
0000
0000
0000
0001
0011
0000
0100
1100
0000
1000
1000
,
0110
0000
0000
1000
0010
0200
0000
0302
0000
0203
0000
0320
0000
2030
0000
0000
,
3100
0000
0200
2000
0000
0000
3300
0000
1100
0000
0000
0000
0001
0000
0000
0000
,
1001
0000
0000
0001
1000
0200
0000
0320
0000
0032
0000
0023
0000
0032
0000
0000
,
2003
0000
0000
0010
0000
0000
0001
0000
3001
0010
0100
1000
0001
0010
0100
0000
,
1101
0000
0000
0001
1000
0010
0000
0010
0000
1000
0000
1000
0000
0001
0000
0000
,
1000
0000
0010
0200
0000
0000
0300
0000
1100
0000
0000
0000
0001
0010
0001
0010
,
0000
0000
0000
0000
0100
1000
0100
1000
0000
0000
0000
0000
0100
0000
1000
0100
,
1100
0000
0000
0000
1000
1000
1100
0100
,
0000
0000
0010
0000
0001
0000
0100
0000
0010
1000
0001
0010
0100
1000
0001
0100
,
0010
1000
0100
0010
0001
0010
0100
1000
0001
0100
0010
1000
0001
0010
0100
1000
,
0001
0100
0010
0100
0001
0010
0100
1000
0001
0100
0010
1000
0001
0010
0100
1000
,
0001
0100
0010
0100
0001
0010
0100
1000
0001
0010
0100
1000
0001
0100
0010
1000
,
0100
0000
0000
0010
0000
0000
0001
0000
0000
1000
0000
0000
0100
0000
1000
0000
0100
0000
1000
0000
0100
0000
1000
0000
0100
0000
0000
0010
0000
0000
0001
0000
0000
0100
0000
0000
0010
0000
0000
1000
0000
0000
0001
0000
0000
0010
0000
0000
,
0100
1000
0001
0100
0010
1000
0100
0010
0001
0010
0100
1000
0001
0100
0010
1000
,
0100
0010
0100
1000
0001
0010
0100
1000
0001
0100
0010
1000
0001
0010
0100
1000
,
0001
0100
0010
1000
0100
0010
0001
0010
0100
1000
0010
1000
0010
0100
0001
1000
,
0100
0010
0001
1000
0100
0010
0100
1000
0010
0000
0000
0000
1001
0000
1000
0000
,
0000
0010
0100
0001
0001
1000
0100
1000
,
0010
0000
0010
0000
0100
0000
0001
1000
0001
0000
0000
0000
1001
0000
1000
0000
,
0000
0000
0101
0001
0100
0010
1000
0010
,
0100
0000
0001
0100
0001
0000
1000
0001
1000
0000
0010
0000
0100
0000
0001
0000
,
0010
0100
1000
0100
1000
0010
0100
0001
,
1000
0000
0001
0000
1000
0000
0100
1000
0100
0000
0000
0000
0011
0000
0001
0000
,
0000
0001
1000
0100
0010
0000
0002
1003
,
0001
0000
0100
0000
0001
0000
0000
0000
1000
0001
0100
0010
1000
0100
0010
0001
,
0010
0100
1000
0001
0100
0010
1000
0100
0010
0001
0010
0100
1000
0001
0100
0010
,
1000
0001
0010
0100
1000
0001
0100
0010
1000
0100
0010
0100
1000
0001
0010
0100
,
1000
0001
0100
0010
1000
0100
0010
0001
0010
0100
1000
0001
0100
0010
1000
0100
,
0010
0001
0010
0100
1000
0001
0100
0010
0100
0001
0010
0100
0010
0001
0100
0010
,
1000
0100
0010
0001
0010
0100
1000
0001
0100
0010
0100
0001
0010
0100
1000
0001
,
0100
0010
1000
0100
0010
0100
1000
0001
0010
0100
1000
0001
0100
0010
1000
0100
,
0010
0100
1000
0001
0010
0100
1000
0001
0100
0010
1000
0100
0010
0001
0010
0100
,
1000
0001
0100
0010
0100
0001
0010
0100
1000
0001
0100
0010
0100
0001
0010
0100
,
1000
0001
0100
0010
1000
0100
0010
0100
1000
0001
0010
0100
1000
0001
0100
0010
,
1000
0100
0010
0100
1000
0001
0010
0100
1000
0001
0100
0010
1000
0001
0010
0100
,
1000
0001
0100
0010
1000
0100
0010
0001
0010
0100
1000
0001
0100
0010
1000
0001
,
0010
0100
1000
0001
0100
0010
1000
0001
0010
0100
1000
0001
0100
0001
1000
0100
,
0010
0100
1000
0001
0010
0100
1000
0001
0100
0010
1000
0100
0010
0100
1000
0001
,
0100
0010
1000
0010
1000
0000
0000
0000
0101
0000
0000
0000
0000
0000
1010
0000
,
0000
0000
0110
0110
0001
0000
0000
0000
,
0110
0000
0000
0000
1000
0100
0010
0001
,
0010
0010
0010
0000
0100
0000
1000
0000
0100
0000
0010
0000
0001
0000
0010
0000
,
0100
1000
0100
0010
0001
0010
0100
1000
,
0100
0010
0001
0010
0100
1000
0100
1000
,
0001
1000
0001
0010
0100
0000
0000
0000
0100
0000
0000
0000
1001
0000
0000
0000
0000
0000
0000
0000
0000
0000
0000
0000
0000
0000
0000
0000
0000
0000
0000
0000
;
