#TITLE:Draculas Castle;
#SUBTITLE:(BZ Remix);
#ARTIST:Michiru Yamane \ Brodde Z;
#TITLETRANSLIT:;
#SUBTITLETRANSLIT:;
#ARTISTTRANSLIT:;
#CREDIT:This DWI is mady by ObliVioN. Music by Brodde Z.;
#BANNER:DCBZR.jpg;
#BACKGROUND:DCBZR-bg.jpg;
#LYRICSPATH:;
#CDTITLE:;
#MUSIC:Draculas_Castle_(BZ_Remix).mp3;
#OFFSET:-0.020;
#SAMPLESTART:70.500;
#SAMPLELENGTH:12.000;
#SELECTABLE:YES;
#BPMS:0.000=139.014;
#STOPS:;
#BGCHANGES:;
// cache tags:
#FIRSTBEAT:8.000;
#LASTBEAT:365.500;
#SONGFILENAME:Songs/IzzySM Keyboard Mega Pack/Draculas_Castle_BZ_Remix/steps.sm;
#HASMUSIC:1;
#HASBANNER:1;
#MUSICLENGTH:158.902;
// end cache tags

//---------------dance-single - Heavy----------------
#NOTES:
     dance-single:
     Heavy:
     Hard:
     12:
     0.981,1.000,0.176,0.346,1.000,1008.000,28.000,55.000,0.000,0.000:
0000
0000
0000
0000
,
0000
0000
0000
0000
,
1000
0000
0100
0000
0010
0000
0001
0000
0001
0000
0001
1000
0000
1000
0001
0000
,
1000
0000
0100
0000
0010
0000
0001
0000
1000
0000
0100
0010
0000
0010
1000
0000
,
0100
0000
0010
0000
1000
0000
0100
0000
0010
0000
0100
1000
0000
0100
0001
0000
,
0010
0000
1000
0000
0001
0000
1000
0000
0001
0000
1000
0100
0000
0010
0001
0000
,
1000
0000
0001
0000
0100
0000
1000
0000
1000
0000
0001
0100
0000
1000
0100
0000
,
0001
0000
0100
0000
0010
0000
0001
0000
1000
0000
0001
1000
0000
0100
0010
0000
,
1000
0000
0010
0000
0100
0000
1000
0000
0001
0000
0001
0010
0000
0100
0010
0000
,
1000
0000
0001
0000
0010
0000
0001
0000
1000
0000
0100
1000
0000
0100
0001
0000
,
0100
0000
0010
0000
1000
0000
0001
0000
0100
0000
0010
0001
0000
0010
0001
0000
,
1000
0000
0010
0000
0001
0000
0100
0000
0010
0000
1000
0010
0000
0100
0010
0000
,
0001
0000
0010
0000
0100
0000
0010
0000
0100
0000
1000
0100
0000
0001
0100
0000
,
0010
0000
0100
0000
0001
0000
0010
0000
0100
0000
1000
0100
0000
0100
0001
0000
,
1000
0000
0100
0000
0010
0000
0001
0000
0010
0000
0100
1000
0000
0001
0010
0000
,
1100
0000
0001
0000
0010
0000
0100
0000
0001
0000
1000
0010
0000
1000
0001
0000
,
1000
0100
0001
0010
0100
0000
1000
0001
0100
0010
1000
0000
0001
0010
0100
0001
,
0100
0000
1000
0010
0100
0001
0010
0000
1000
0100
0001
0010
0001
0000
0010
1000
,
0100
0001
0010
0000
0001
0010
0100
0001
0010
0000
1000
0010
0100
0010
1000
0000
,
0001
0010
0001
0010
0100
0000
1000
0100
0001
0100
1000
0000
0010
0100
0001
1000
,
0010
0000
0100
0010
0100
0001
1000
0000
0010
0001
1000
0100
1000
0000
0100
0010
,
0001
0010
0100
0000
0010
1000
0010
0001
0010
0000
1000
0100
0010
0001
1000
0000
,
0001
0010
0100
1000
0001
0010
0100
1000
0001
0010
0100
1000
0001
0010
0100
1000
,
0001
0010
0100
1000
0001
0010
0100
1000
0001
0010
0100
1000
0001
0010
0100
1000
0001
0010
0100
1000
0001
0010
0100
1000
0000
0000
0000
0000
0000
0000
0000
0000
,
0000
1000
0000
1000
0000
1000
0000
1000
,
2000
0000
3001
0010
0001
0000
1000
0000
0010
0100
0001
0010
0100
0000
1000
0000
,
0002
0000
0103
0010
1000
0000
0001
0000
1000
0010
0100
0001
0010
0000
1000
0000
,
0002
0000
0103
1000
0100
0000
0001
0000
1000
0010
0001
0010
0100
0000
0010
0000
,
2000
0000
3001
0010
0100
0000
0001
0000
0100
0010
0001
0010
1000
0000
0001
0000
,
2000
0000
3010
0100
0001
0000
1000
0000
0001
0010
0100
1000
0001
0000
1000
0000
,
0020
0000
1030
0100
0001
0000
0100
0000
0001
0010
1000
0010
0100
0000
0001
0000
,
0200
0000
0310
0001
0100
0000
1000
0000
0001
0100
1000
0010
0001
0000
1000
0000
,
2001
0001
0000
0001
0000
0001
3000
0001
,
1000
0010
0001
0010
0001
0000
0100
0000
1000
0001
0010
0001
0010
0000
0100
0000
,
0001
1000
0010
1000
0010
0000
0100
0000
0001
1000
0010
1000
0010
0000
0100
0000
,
1000
0001
0100
0001
0100
0000
0010
0000
1000
0001
0100
0001
0100
0000
0010
0000
,
0001
1000
0100
1000
0100
0000
0010
0000
0001
1000
0100
1000
0100
0000
0010
0000
,
0100
0001
0010
0100
1000
0000
0001
0000
0100
0001
0010
0100
1000
0000
0001
0000
,
0010
1000
0100
0010
0001
0000
1000
0000
0010
1000
0100
0010
0001
0000
1000
0000
,
0100
1000
0010
0100
1000
0000
0100
0000
0100
0001
0010
1000
0100
0000
0100
0000
,
0001
0010
0001
1000
0100
0010
0001
0010
1000
0100
0010
0001
1000
0100
0010
1000
,
2002
0000
0000
0000
0000
0000
0000
3003
,
0010
1000
0001
0010
0100
0001
1000
0010
0100
0001
0010
0100
1000
0100
1000
0010
,
0100
0001
0010
0001
0010
0100
0010
0100
1000
0100
0001
0010
0100
0001
0010
1000
,
0100
0001
1000
0100
0010
0100
0010
1000
0001
0100
0001
0010
1000
0001
0010
0001
,
1000
0100
0010
0100
1000
0010
0100
0010
0100
0001
0100
0010
1000
0100
0001
0010
,
0001
0100
1000
0010
1000
0100
0010
0001
0010
0100
0010
0100
1000
0001
1000
0010
,
0100
0001
1000
0100
0010
0100
0001
1000
0100
0010
1000
0001
0100
0010
1000
0100
,
1000
0001
0100
0010
0100
0001
1000
0100
0001
1000
0100
0001
0100
1000
0010
0100
,
2000
0000
0000
0000
0000
0000
0100
0000
0000
0002
0000
0000
3000
0000
0000
0000
0200
0000
0003
0000
0000
1000
0000
0000
0320
0000
0000
0000
0000
0000
0001
0000
0000
2030
0000
0000
0000
0000
0000
0001
0000
0000
0200
0000
0000
3000
0000
0000
,
1000
0000
0001
0000
0000
0000
0001
0000
0000
0000
0001
0000
0000
0000
1300
0100
,
0002
0000
0000
0000
0000
0000
1000
0000
0000
0200
0000
0000
0003
0000
0000
0300
0002
0000
0000
0000
0000
0100
0000
0000
2003
0000
0000
0000
0000
0000
0001
0000
0000
3020
0000
0000
0000
0000
0000
0001
0000
0000
0230
0000
0000
0000
0000
0000
,
0320
1000
0000
1000
0000
1000
0000
0031
,
0010
0100
0001
1000
0100
1000
0001
0010
1000
0100
0010
1000
0100
1000
0100
0010
,
1000
0001
0010
0001
1000
0010
1000
0100
0010
1000
0100
0001
0010
0001
0100
0001
,
2002
0000
0000
0000
3003
0000
0002
0023
2000
0000
0000
0000
3030
0000
0110
0000
,
2002
0000
0000
0000
3003
0000
2000
3200
0002
0000
0000
0003
0301
0000
0000
0000
,
0220
0000
0000
0000
0000
0000
0000
0000
0000
0000
0000
0000
0000
0000
0000
0330
,
1000
0000
0001
0010
0100
0000
1000
0001
0010
0000
1000
0010
0100
0000
0001
0010
,
1000
0000
0100
0010
1000
0000
0001
0010
0001
0000
0100
0001
1000
0000
0001
0010
,
1000
0000
1000
0010
0001
0000
0100
0001
1000
0000
0010
1000
0001
0000
0010
1000
,
0100
0000
1000
0001
0010
0000
0100
0010
0001
0000
1000
0100
0001
0000
0010
1000
,
0001
0000
1000
0010
0100
0000
0001
1000
0100
0000
0001
0100
1000
0000
0010
0100
,
0001
0000
0100
0001
1000
0000
0100
0001
1000
0000
0100
0010
1000
0000
0001
0010
,
1000
0000
0100
0001
1100
0000
0001
1000
0101
0000
0010
1000
0110
0000
0001
1000
,
0011
0000
1000
0001
1100
0000
0100
0001
1010
0000
0100
0010
1001
0000
0100
0001
,
0110
0000
1000
0000
0100
0000
0001
0000
0001
0000
0001
1000
0000
0100
0010
0000
,
1000
0000
0010
0000
1000
0000
0001
0000
0100
0000
0010
0100
0000
0001
0010
1000
,
0100
0000
0001
0000
1000
0000
0100
0000
0010
0000
1000
0001
0000
0100
0010
1000
,
0100
0000
0000
0000
0001
0000
0000
0000
1000
0000
0000
0000
0001
0000
0000
0000
0010
0000
1000
0000
0010
0000
1000
0000
0100
0000
0010
0000
0001
0010
1000
0010
,
0001
0000
0100
0000
1000
0000
0010
0000
0100
0000
0010
1000
0000
0010
1000
0000
,
0001
0010
0100
0000
0010
0000
1000
0000
1000
0001
0000
0100
0001
0000
0100
0000
,
0010
0100
0001
0100
1000
0010
0100
0001
0100
0000
0001
1000
0000
1000
0001
0000
,
1100
0110
0011
0110
1001
0011
1100
0110
,
0001
1000
0010
0100
0001
1000
0010
0100
1000
0001
0010
0001
0100
1000
0010
1000
,
0100
0001
0010
1000
0100
0001
0010
0001
0010
0100
1000
0100
0010
1000
0100
0001
,
1000
0010
0100
0001
0010
0100
0001
0010
0100
1000
0010
0100
1000
0001
0100
0010
,
0001
1000
0010
1000
0010
1000
0001
1000
0100
0001
0010
0100
0001
0100
0001
0100
,
0010
1000
0001
0010
0100
0010
0100
1000
0100
1000
0001
0010
0100
1000
0100
0010
,
1000
0100
0001
1000
0001
0010
0100
0010
0100
0001
1000
0100
1000
0001
1000
0001
,
1000
0010
0100
0001
0100
1000
0001
0100
0010
1000
0100
0001
0010
1000
0100
0001
,
0010
0001
0100
1000
0010
0001
1000
0010
0100
0001
0100
0001
1000
0001
0100
0001
,
2000
0000
0000
0000
0000
0000
3100
0000
0000
0002
0000
0000
0000
0000
0000
0003
0200
0000
0000
0000
0000
1000
0000
0000
0302
0000
0000
0000
0000
0000
0010
0000
0000
0203
0000
0000
0000
0000
0000
1300
0000
0000
0002
0000
0000
0000
0000
0000
,
0203
0000
1000
0000
0000
0000
1000
0000
0000
0000
1000
0000
0000
0000
1000
0300
,
0001
0010
0001
0010
0100
1000
0100
1000
0100
0010
0100
0010
1000
0001
1000
0001
0100
0001
0100
0001
1000
0100
1000
0100
,
2002
0000
0000
0000
0000
0000
0000
3003
,
1000
0100
0010
1000
0001
0100
1000
0001
1000
0100
0010
1000
0100
1000
0001
0010
,
1000
0010
1000
0001
0100
1000
0001
0010
0100
0010
1000
0100
0001
0100
0001
1000
,
0220
0000
0000
0000
0330
0000
0002
0203
2000
0000
0000
0000
3300
0000
1001
0000
,
0220
0000
0000
0000
0330
0000
0001
0200
2000
0000
0000
0000
3300
0000
0000
0000
,
2002
0000
0000
0000
,
0000
0000
0000
3003
0000
0000
0000
0000
;
