#TITLE:Eclipse (Solar);
#SUBTITLE:;
#ARTIST:Glome;
#TITLETRANSLIT:;
#SUBTITLETRANSLIT:;
#ARTISTTRANSLIT:;
#CREDIT:;
#BANNER:../fthescorept1bn.png;
#BACKGROUND:../fthescorept1bg.png;
#LYRICSPATH:;
#CDTITLE:;
#MUSIC:Eclipse Solar.ogg;
#OFFSET:0.009;
#SAMPLESTART:49.450;
#SAMPLELENGTH:11.560;
#SELECTABLE:YES;
#BPMS:0.000=165.000;
#STOPS:;
#BGCHANGES:;
// cache tags:
#FIRSTBEAT:3.750;
#LASTBEAT:168.000;
#SONGFILENAME:Songs/Fuck The Score Part I/Eclipse (Solar) [Dossar]/Eclipse Solar.sm;
#HASMUSIC:1;
#HASBANNER:1;
#MUSICLENGTH:63.456;
// end cache tags

//---------------dance-single - ----------------
#NOTES:
     dance-single:
     :
     Challenge:
     24:
     1.000,1.000,0.000,0.047,1.000,708.000,0.000,3.000,0.000,0.000:
0000
0000
0000
0000
0000
0000
0000
0000
0000
0000
0000
0000
0000
0000
0000
1000
,
0001
0010
0100
0000
1000
0000
0010
0100
0001
0010
0001
0100
0010
1000
0100
1000
,
0010
0100
0001
0010
0100
1000
0010
0100
0000
0100
0010
0000
1000
0100
0010
0000
,
0001
0000
0100
0000
0010
0000
1000
0000
0001
0000
0000
0000
0100
0000
0001
0000
1000
0010
0100
0001
1000
0010
1000
0000
0001
0000
0100
0000
0010
0000
0000
0000
,
1000
0100
0010
0001
1000
0000
0100
0000
0010
0001
0010
0000
0100
0000
1000
0000
,
0100
0000
0000
0000
1000
0100
0010
0001
0010
0000
0000
0000
0001
0000
0000
0000
1000
0100
0010
0001
0010
0000
0100
0000
1000
0000
0100
0000
0010
0000
0001
0000
,
1000
0000
1000
0100
1000
0000
0001
0000
0100
0010
1000
0100
0010
0001
1000
0000
,
0001
0100
0010
0100
0001
1000
0001
0100
0010
1000
0001
0100
0001
0000
0000
0000
1000
0010
1000
0001
0100
0010
1000
0001
0100
0001
1000
0010
0100
0001
1000
0001
,
1000
0010
0100
0001
0100
0001
0100
0001
,
1000
0000
0100
0000
0010
0001
0010
0100
1000
0000
0000
0000
0001
0000
0000
0000
1000
0000
0100
0000
0010
0000
0001
0000
0010
0000
0100
0000
1000
0000
0000
0000
,
0001
0100
0010
1000
0100
1000
0010
0100
0001
0000
1000
0000
0100
0000
0010
0000
,
0100
1000
0010
0100
0001
0000
0100
0010
1000
0100
0010
0000
0100
0000
1000
0000
,
0001
0100
0010
1000
0001
0100
0001
1000
0100
0000
1000
0000
0001
0000
0100
0000
0001
0000
0000
0000
1000
0000
0010
0000
0100
0000
0001
0000
1000
0000
0000
0000
,
0001
0000
0000
0000
1000
0100
0010
0001
1000
0000
0000
0000
0010
0000
0000
0000
0100
0000
0001
0000
1000
0000
0000
0000
0100
0000
0000
0000
0010
0000
0001
0000
,
1000
0000
0010
0000
0100
0001
0010
0100
1000
0000
0001
0100
0010
0000
1000
0000
,
0100
0010
0001
0100
0010
0000
1000
0100
0010
0001
0100
0001
0010
0100
1000
0000
,
0001
0000
0000
0000
1000
0100
0010
0001
0010
0000
0000
0000
0100
0000
0000
0000
0010
0001
0010
0100
1000
0000
0000
0000
0001
0010
0100
1000
0001
0010
0001
1000
,
0100
0000
1000
0000
0100
0000
0010
0000
0001
0000
0000
0000
1000
0000
0000
0000
0001
1000
0010
1000
0001
0000
0000
0000
0100
0000
0000
0000
0010
0000
0000
0000
,
1000
0001
0010
0100
1000
0000
0100
1000
0001
0010
0100
1000
0001
0000
0100
0000
,
0010
0000
1000
0000
0001
0000
0100
0000
0010
0000
1000
0000
0001
0100
0001
1000
0010
0100
0001
1000
0001
0100
0010
1000
0001
0000
0100
0000
0010
0000
1000
0000
,
0001
1000
0010
1000
0001
0100
0010
1000
0001
0100
0001
1000
0010
0100
0001
1000
0010
1000
0001
0100
0001
1000
0010
0100
0001
1000
0001
1000
0010
0100
0001
1000
,
0001
1000
0010
0100
0001
1000
0010
0100
0001
1000
0010
0100
0001
1000
0010
0100
,
0001
0000
1000
0000
0100
0000
0000
0000
0010
0000
0000
0000
0100
0000
1000
0000
0001
0010
0100
1000
0001
0010
0100
1000
0001
0000
0000
0000
0010
0000
0100
0000
,
1000
0000
0100
0000
0010
0000
0000
0000
0001
0000
0000
0000
1000
0000
0001
0100
0010
1000
0001
0100
0001
0000
1000
0000
0010
0000
0100
0000
0001
0000
0000
0000
,
1000
0100
0010
0000
0001
0000
0010
0100
0000
1000
0100
0000
0010
0000
0001
0000
,
1000
0010
0000
0100
0000
0001
0000
1000
0100
0000
0000
0000
1000
0000
0000
0000
0001
0010
0100
1000
0000
0000
0000
0000
0001
0000
0100
0000
0001
1000
0010
1000
,
0001
0000
0100
0000
0001
0000
1000
0100
0010
0001
0010
0100
1000
0000
0001
1000
,
0001
0100
0010
1000
0001
1000
0010
0100
0001
1000
0001
0100
0010
1000
0001
0100
0001
0000
1000
0000
0010
0000
0100
0000
0001
0000
0000
0000
1000
0000
0000
0000
,
0001
0010
0100
1000
0200
0000
0000
0000
0310
0001
0010
0100
2000
0000
0000
0000
3100
1000
0100
0010
0002
0000
0000
0000
1003
0000
0100
0000
1000
0000
0000
0000
,
0001
0100
0001
1000
0010
1000
0001
0000
1000
0010
1000
0001
0100
0001
1000
0000
0001
0100
0010
1000
0001
0100
0001
0000
1000
0010
0100
0001
1000
0010
1000
0000
,
0001
0010
0100
1000
0001
0010
0001
0000
1000
0100
0010
0001
1000
0100
1000
0000
0001
0010
0100
1000
0100
0010
0001
0000
1000
0100
0010
0001
0010
0100
1000
0000
,
0001
0100
0010
1000
0001
0100
0001
0000
1000
0010
0100
0001
1000
0010
1000
0000
0001
0100
0010
1000
0001
0100
0001
0000
1000
0010
0100
0001
1000
0010
1000
0000
,
0001
0010
0100
1000
0001
0010
0001
0000
1000
0100
0010
0001
1000
0100
1000
0000
0001
0100
0010
1000
0001
0100
0001
1000
0010
0100
0001
1000
0010
1000
0001
0100
,
0001
0000
0000
0000
1000
0000
0000
0000
0010
0000
0000
0000
0100
0000
0000
0000
0001
0100
0001
1000
0010
0100
0001
1000
0010
1000
0001
0100
0010
1000
0001
0100
,
0001
0000
0000
0000
1000
0100
0010
0001
0010
0000
0100
0000
1000
0000
0100
0000
0010
0000
0001
0000
1000
0000
0000
0000
0001
0000
0100
0000
0000
0000
0100
0000
,
0010
1000
0001
0000
1000
0000
0100
1000
0100
0010
0001
1000
0100
0010
0100
1000
,
0001
0010
0100
0010
0001
1000
0100
1000
0000
0001
0100
0000
0010
1000
0001
0000
,
0100
0000
0001
0000
0010
0000
0100
0000
1000
0000
0000
0000
0001
0000
0100
0000
0001
1000
0010
0100
0001
1000
0001
0000
0100
0000
0010
0000
1000
0000
0000
0000
,
0001
0100
0010
1000
0100
0000
0010
0000
0001
1000
0001
0000
0010
0000
0100
0000
,
1000
0000
0000
0000
0001
0010
0100
1000
0100
0000
0000
0000
0010
0000
0000
0000
0100
1000
0100
0010
0001
0000
1000
0000
0100
0000
0010
0000
0100
0000
1000
0000
,
0001
0000
1000
0010
0100
0000
0001
0000
1000
0010
0100
0001
1000
0001
0100
0000
,
0001
1000
0010
1000
0001
0100
0010
1000
0001
0100
0001
1000
0010
0000
0000
0000
1000
0001
1000
0010
0100
0001
1000
0010
0100
0001
0100
0010
1000
0001
1000
0010
,
0100
0000
0000
0000
;

//---------------dance-single - ----------------
#NOTES:
     dance-single:
     :
     Hard:
     18:
     1.000,1.000,0.000,0.047,1.000,672.000,0.000,3.000,0.000,0.000:
0000
0000
0000
0000
0000
0000
0000
0000
0000
0000
0000
0000
0000
0000
0000
1000
,
0001
0010
0100
0000
1000
0000
0010
0100
0001
0010
0001
0100
0010
1000
0100
1000
,
0010
0100
0001
0010
0100
1000
0010
0100
0000
0100
0010
0000
1000
0100
0010
0000
,
0001
0000
0100
0000
0010
0000
1000
0000
0001
0000
0000
0000
0100
0000
0001
0000
1000
0010
0100
0001
1000
0010
1000
0000
0001
0000
0100
0000
0010
0000
0000
0000
,
1000
0100
0010
0001
1000
0000
0100
0000
0010
0001
0010
0000
0100
0000
1000
0000
,
0100
0000
0000
0000
1000
0100
0010
0001
0010
0000
0000
0000
0001
0000
0000
0000
1000
0100
0010
0001
0010
0000
0100
0000
1000
0000
0100
0000
0010
0000
0001
0000
,
1000
0000
1000
0100
1000
0000
0001
0000
0100
0010
1000
0100
0010
0001
1000
0000
,
0001
0100
0010
1000
0001
0100
0001
0000
1000
0010
0100
0001
1000
0000
0000
0000
0001
0100
0010
1000
0001
0000
0000
0000
1000
0001
0100
0010
1000
0001
0100
0001
,
1000
0010
0100
0001
0100
0001
0100
0001
,
1000
0000
0100
0000
0010
0001
0010
0100
1000
0000
0000
0000
0001
0000
0000
0000
1000
0000
0000
0000
0100
0000
0000
0000
1000
0000
0000
0000
1000
0000
0000
0000
,
0001
0100
0010
1000
0100
1000
0010
0100
0001
0000
1000
0000
0100
0000
0010
0000
,
0100
1000
0010
0100
0001
0000
0100
0010
1000
0100
0010
0000
0100
0000
1000
0000
,
0001
0100
0010
1000
0001
0100
0001
0000
1000
0000
0010
0000
0100
0000
0001
0000
1000
0000
0000
0000
0001
0000
0100
0000
0010
0000
1000
0000
0001
0000
0000
0000
,
1000
0000
0000
0000
0001
0010
0100
1000
0001
0000
0000
0000
0100
0000
0000
0000
0010
0000
1000
0000
0001
0000
0000
0000
0010
0000
0000
0000
0100
0000
1000
0000
,
0001
0000
0100
0000
0010
1000
0100
0010
0001
0000
1000
0010
0100
0000
0001
0000
,
0010
0100
1000
0010
0100
0000
0001
0010
0100
1000
0010
1000
0100
0010
0001
0000
,
1000
0000
0000
0000
0001
0010
0100
1000
0100
0000
0000
0000
0010
0000
0000
0000
0100
1000
0100
0010
0001
0000
0000
0000
1000
0100
0010
0001
1000
0100
1000
0000
,
0001
0000
0010
0000
0100
0000
1000
0000
0001
0000
0000
0000
0100
0000
0000
0000
0001
1000
0010
1000
0001
0000
0000
0000
0100
0000
0000
0000
0010
0000
0000
0000
,
1000
0001
0010
0100
1000
0000
0100
1000
0001
0010
0100
1000
0001
0000
0100
0000
,
0010
0000
1000
0000
0001
0000
0100
0000
0010
0000
1000
0000
0001
0100
0001
1000
0010
0000
1000
0001
1000
0010
0100
0001
1000
0000
0010
0000
0100
0000
0001
0000
,
1000
0010
0100
0001
1000
0010
1000
0000
0001
0100
0010
1000
0001
0100
0001
0000
1000
0010
1000
0001
0100
0010
1000
0000
0001
0100
0001
1000
0010
0100
0001
0000
,
1000
0001
0100
0010
1000
0001
0100
0010
1000
0001
0100
0010
1000
0001
0100
0010
,
1000
0000
0001
0000
0010
0000
0000
0000
0100
0000
0000
0000
0010
0000
0001
0000
1000
0100
0010
0001
1000
0100
1000
0000
0001
0000
0000
0000
0010
0000
0100
0000
,
1000
0000
0100
0000
0010
0000
0000
0000
0001
0000
0000
0000
1000
0000
0001
0100
0010
1000
0001
0100
0001
0000
1000
0000
0010
0000
0100
0000
0001
0000
0000
0000
,
1000
0100
0010
0000
0001
0000
0010
0100
0000
1000
0100
0000
0010
0000
0001
0000
,
1000
0010
0000
0100
0000
0001
0000
1000
0100
0000
0000
0000
1000
0000
0000
0000
0001
0010
0100
1000
0000
0000
0000
0000
0001
0000
0100
0000
0001
1000
0010
1000
,
0001
0000
0100
0000
0001
0000
1000
0100
0010
0001
0010
0100
1000
0000
0001
1000
,
0001
0100
0010
1000
0001
0100
0001
0000
1000
0010
0100
0001
1000
0010
1000
0000
0001
0000
1000
0000
0010
0000
0100
0000
0001
0000
0000
0000
1000
0000
0000
0000
,
0001
0010
0100
1000
0200
0000
0000
0000
0310
0001
0010
0100
2000
0000
0000
0000
3100
1000
0100
0010
0002
0000
0000
0000
1003
0000
0100
0000
1000
0000
0000
0000
,
0001
0100
0001
1000
0010
1000
0001
0000
1000
0010
0100
0001
1000
0000
0000
0000
0001
0100
0010
1000
0010
0100
0001
0000
1000
0010
0100
0001
1000
0000
0000
0000
,
0001
0010
0100
1000
0001
0010
0001
0000
1000
0100
0010
0001
1000
0000
0000
0000
0001
0010
0100
1000
0100
0010
0001
0000
1000
0100
0010
0001
1000
0000
0000
0000
,
0001
0100
0010
1000
0001
0100
0001
0000
1000
0010
0100
0001
1000
0000
0000
0000
0001
0100
0010
1000
0001
1000
0010
0000
0100
0001
0100
0010
1000
0000
0000
0000
,
0001
0010
0100
1000
0001
0010
0001
0000
1000
0100
0010
0001
1000
0100
1000
0000
0001
0100
0010
1000
0001
0100
0001
0000
1000
0010
0100
0001
1000
0010
1000
0000
,
0001
0000
0000
0000
1000
0000
0000
0000
0010
0000
0000
0000
0100
0000
0000
0000
0001
1000
0001
0100
0010
1000
0001
0000
1000
0010
1000
0001
0100
0010
1000
0000
,
0001
0000
0000
0000
1000
0100
0010
0001
0010
0000
0100
0000
1000
0000
0100
0000
0010
0000
0001
0000
1000
0000
0000
0000
0001
0000
0100
0000
0000
0000
0100
0000
,
0010
1000
0001
0000
1000
0000
0100
1000
0100
0010
0001
1000
0100
0010
0100
1000
,
0001
0010
0100
0010
0001
1000
0100
1000
0000
0001
0100
0000
0010
1000
0001
0000
,
0100
0000
0001
0000
0010
0000
0100
0000
1000
0000
0000
0000
0001
0000
0100
0000
0001
1000
0010
0100
0001
1000
0001
0000
0100
0000
0010
0000
1000
0000
0000
0000
,
0001
0100
0010
1000
0100
0000
0010
0000
0001
1000
0001
0000
0010
0000
0100
0000
,
1000
0000
0000
0000
0001
0010
0100
1000
0100
0000
0000
0000
0010
0000
0000
0000
0100
1000
0100
0010
0001
0000
1000
0000
0100
0000
0010
0000
0100
0000
1000
0000
,
0001
0000
1000
0010
0100
0000
0001
0000
1000
0010
0100
0001
1000
0001
0100
0000
,
0001
1000
0010
1000
0001
0100
0001
0000
1000
0010
1000
0001
0100
0000
0000
0000
0001
1000
0010
1000
0001
0100
0001
0000
1000
0010
1000
0001
0100
0001
1000
0000
,
0010
0000
0000
0000
;
