#TITLE:Pika Girl;
#SUBTITLE:;
#ARTIST:S3RL;
#TITLETRANSLIT:;
#SUBTITLETRANSLIT:;
#ARTISTTRANSLIT:;
#CREDIT:owenviau1;
#BANNER:../Banner.png;
#BACKGROUND:../BG.png;
#LYRICSPATH:;
#CDTITLE:../CDTitleOV1.png;
#MUSIC:Pika Girl - S3RL.ogg;
#OFFSET:-1.056;
#SAMPLESTART:28.138;
#SAMPLELENGTH:29.999;
#SELECTABLE:YES;
#DISPLAYBPM:175.000;
#BPMS:0.000=175.000,10.000=155.583,11.000=93.551,12.000=57.419,13.000=175.000,133.000=87.500,139.000=175.000,291.000=87.500,303.000=175.000,399.000=87.500,407.000=175.000;
#STOPS:;
#BGCHANGES:;
// cache tags:
#FIRSTBEAT:0.000;
#LASTBEAT:635.500;
#SONGFILENAME:Songs/Index Fusion - Part 2/Pika Girl - [Owen]/Pika Girl.sm;
#HASMUSIC:1;
#HASBANNER:1;
#MUSICLENGTH:220.775;
// end cache tags

//---------------dance-single - ----------------
#NOTES:
     dance-single:
     :
     Hard:
     9:
     0.835,0.756,0.054,0.390,0.020,1192.000,12.000,86.000,10.000,1.000:
0001
0010
0100
1000
0010
0100
0001
1000
,
0001
0010
0001
1000
0010
0100
0001
0010
,
0100
1000
0010
0100
0001
1000
0100
0010
,
0002
0000
0000
0000
0000
2003
3200
0000
0000
0000
0000
0000
0320
0000
0000
0032
0000
0000
0000
0000
0000
0003
0000
0000
,
0000
2000
3020
0000
0032
2003
0000
3000
,
0000
0200
0320
0030
0002
0003
2000
3000
,
0020
0230
0000
0300
0000
0000
0000
2000
,
3200
0320
0032
0000
2003
3020
0000
0030
,
0200
0302
0023
0000
0230
2300
0000
3000
,
0000
0002
0023
0030
0200
0300
2000
3000
,
0002
0203
0000
0300
0000
0000
0000
2000
,
3002
2003
3010
0001
1000
0001
0100
0001
,
1000
0010
0100
0001
1000
0100
1000
0010
,
0100
0001
0010
0100
1000
0010
0100
0001
,
1000
0001
0010
0001
0100
0010
1000
0100
,
1000
0010
0100
0001
0010
0100
1000
0010
,
0100
0001
1000
0001
0010
0001
1000
0010
,
0100
0001
0010
0100
1000
0010
1000
0001
,
0010
0000
0000
0000
0100
0000
0000
0000
2000
0000
3000
0000
0002
0000
0003
0000
0200
0000
0000
0000
0000
0300
0000
0000
0020
0000
0000
0000
0000
0000
0000
0000
,
0130
0001
1001
0100
0010
0001
0100
0010
,
1000
0001
0100
0001
0010
0100
1000
0010
,
1000
0100
0010
0001
0010
0100
1000
0001
,
0100
0010
1000
0100
0010
0001
0100
0010
,
1000
0100
1000
0010
0100
0001
0010
0001
,
1000
0010
0100
0001
0010
0100
1000
0010
,
1000
0001
0010
0001
0100
0010
0100
0001
,
1000
0010
0100
0010
1000
0001
0100
0010
,
1000
0100
0010
0001
0100
0010
1000
0100
,
1000
0001
0010
0100
1000
0010
0100
0001
,
0010
0001
1000
0100
1000
0010
0100
0010
,
1000
0001
1000
0010
0100
0001
1000
0100
,
0010
0001
0100
0010
1000
0100
1000
0010
,
0100
0001
0010
0100
1000
0010
0100
0001
,
0010
0000
0200
0000
2300
0000
3000
0000
0002
0003
0200
0000
0300
0000
0020
0000
,
0030
2000
3000
0020
0000
0000
0000
0000
,
0000
0000
0030
0000
0200
0000
0000
0300
0200
0000
0000
0300
0002
0000
2003
0000
,
3020
0000
0131
0100
0001
1000
0001
0010
,
0100
1000
0001
0100
0010
1000
0010
0001
,
0100
0010
1000
0010
0001
1000
0010
0100
,
0001
0010
0100
1000
0001
0100
0010
1000
,
0100
0010
0001
0100
0010
1000
0100
1000
,
0010
0100
0001
0010
0100
1000
0010
0100
,
0001
1000
0001
0010
0001
0100
0010
1000
,
0100
0010
0002
0000
0000
0000
0000
0000
,
2003
0000
3010
0001
0010
0100
0001
1000
,
0001
0100
0010
1000
0100
1000
0001
0010
,
0001
1000
0010
0100
0001
0010
0100
1000
,
0010
1000
0100
0010
0001
0010
0100
1000
,
0010
0100
0001
1000
0001
0100
0010
1000
,
0100
1000
0001
0100
0010
1000
0100
0010
,
0001
0100
0001
0010
0100
1000
0010
0100
,
0001
0010
0100
1000
0010
1000
0001
0100
,
0010
1000
0101
0001
0010
0001
1000
0010
,
0100
0001
1000
0001
0100
0001
0010
0100
,
1000
0010
1000
0001
0100
0010
1000
0100
,
0010
0001
1000
0001
0010
0100
1000
0010
,
0100
0001
0010
0001
0100
0010
1000
0001
,
1000
0100
1000
0010
0100
0001
0010
0100
,
1000
0010
0100
0001
0010
0001
1000
0010
,
0100
0001
2000
3100
0020
0031
2000
0000
,
3010
0001
1001
0100
0010
0001
0100
0010
,
1000
0001
0100
0001
0010
0100
1000
0010
,
1000
0100
0010
0001
0010
0100
1000
0001
,
0100
0010
1000
0100
0010
0001
0100
0010
,
1000
0100
1000
0010
0100
0001
0010
0001
,
1000
0010
0100
0001
0010
0100
1000
0010
,
1000
0001
0010
0001
0100
0010
0100
0001
,
1000
0010
0100
0010
1000
0001
0100
0010
,
1000
0100
0010
0001
0100
0010
1000
0100
,
1000
0001
0010
0100
1000
0010
0100
0001
,
0010
0001
1000
0100
1000
0010
0100
0010
,
1000
0000
0001
0000
1000
0000
0010
0000
0100
0000
0001
0000
1000
0001
1000
0001
,
1000
0001
0100
0010
1000
0100
1000
0010
,
0100
0001
0010
0100
1000
0010
0100
0001
,
0010
0000
0200
0000
2300
0000
3000
0000
0002
0003
0200
0000
0300
0000
0020
0000
,
0030
0000
2000
0000
3000
0000
0000
0000
0020
0000
0030
0000
0002
0000
0000
0003
,
0000
0000
0010
0100
1000
0010
0100
0001
,
1000
0100
0010
0001
0010
0100
1000
0010
,
0100
0001
1000
0001
0100
0010
1000
0100
,
0010
0001
0100
0010
1000
0001
1000
0100
,
1000
0010
0100
0001
0010
0100
1000
0010
,
0100
0001
1000
0001
0010
0001
1000
0010
,
0100
0001
0010
0100
1000
0010
1000
0001
,
0010
0100
1000
0010
0100
0001
1000
0001
,
0010
0001
0100
0010
1000
0100
1000
0001
,
0100
0010
1000
0100
0010
0001
0100
0020
,
0000
0000
1030
0001
0100
0001
0010
0100
,
1000
0010
0100
0001
1000
0100
0010
0001
,
1000
0010
1001
0001
0010
0001
1000
0100
,
1000
0010
0100
0001
1000
0001
0010
0001
,
0100
0010
1000
0100
1000
0001
0100
0010
,
1000
0100
0010
0001
0100
0001
1000
0100
,
0010
0001
0010
0100
1000
0010
0100
0001
,
1000
0001
0010
0001
0100
0010
1000
0100
,
1000
0001
0100
0010
1000
0100
0010
0001
,
0100
0001
2000
3200
0320
0030
0002
0000
,
0103
0010
1001
0100
0010
1000
0100
0010
,
0001
0100
0001
0010
0100
1000
0100
0010
,
0001
0100
1000
0010
0001
0010
1000
0100
,
0001
0100
1000
0010
0100
0001
1000
0010
,
0001
0100
0001
1000
0001
0010
0100
1000
,
0010
0100
0001
0010
1000
0010
0100
0001
,
0010
0100
1000
0100
0010
0001
0100
0001
,
0010
0100
1000
0001
0100
0010
0001
0010
,
0100
1000
1001
0001
0100
0001
0010
0100
,
1000
0001
0100
0010
1000
0001
0010
0001
,
0100
0001
1000
0100
0010
0001
0010
0100
,
1000
0010
0100
0001
1000
0002
0203
0310
,
1000
0001
0010
0100
1000
0010
0100
0001
,
1000
0001
0010
0001
0100
0010
1000
0001
,
0010
0100
2000
3000
0002
0203
0300
0020
,
0030
0000
2000
0000
3002
0000
0000
0003
0002
0000
0000
0003
0002
0000
2003
0000
,
3020
0000
0000
0000
0030
0000
0000
0000
1MM1
0MM0
0MM0
0MM0
1MM0
0000
0000
0000
0001
0000
0000
0000
0100
0000
0000
0000
0010
0000
0000
0000
0100
0000
0000
0000
,
0001
0010
0100
1000
0010
0100
0001
1000
,
0001
0010
0001
1000
0010
0100
0001
0010
,
0100
1000
0010
0100
0001
1000
0001
0010
,
0001
0100
0010
1000
0100
1000
0010
0100
,
0001
0010
0100
1000
0010
0100
0001
1000
,
0001
0010
0001
0100
0010
1000
0001
0010
,
0100
0000
1000
0000
0000
0000
0010
0000
0000
0000
0100
0000
0000
0001
0000
0010
,
0100
1000
0001
0000
1001
0000
0001
0000
1000
0000
0010
0000
0100
0000
0001
0000
,
0010
0100
1000
0010
1000
0001
0100
0001
,
1000
0010
0100
0001
0010
0100
1000
0010
,
0100
0001
0010
0001
0100
0010
1000
0001
,
1000
0100
1000
0010
0100
0001
1000
0001
,
0010
0001
1000
0010
0100
0001
0010
0100
,
1000
0010
0100
0001
1000
0001
0010
0001
,
0100
0010
2000
0000
0000
0000
0000
0000
,
3002
0003
1001
1000
0010
0100
0001
1000
,
0100
0010
0001
1000
0100
1000
0001
0010
,
0001
1000
0010
0100
0001
0010
0100
1000
,
0010
1000
0100
0010
0001
0010
0100
1000
,
0010
0100
0001
1000
0001
0100
0010
1000
,
0100
1000
0001
0100
0010
1000
0100
0010
,
0001
0100
0001
0010
0100
1000
0010
0100
,
0001
0010
0100
1000
0010
1000
0001
0100
,
0010
1000
0101
0001
0010
0001
1000
0010
,
0100
0001
1000
0001
0100
0001
0010
0100
,
1000
0010
1000
0001
0100
0010
1000
0100
,
0010
0001
1000
0001
0010
0100
1000
0010
,
0100
0001
0010
0001
0100
0010
1000
0001
,
1000
0100
1000
0010
0100
0001
0010
0100
,
1000
0010
0100
0001
0010
0001
1000
0010
,
0100
0001
2000
3100
0020
0031
2000
0000
,
3010
0001
1001
0100
0010
0001
0100
0010
,
1000
0001
0100
0001
0010
0100
1000
0010
,
1000
0100
0010
0001
0010
0100
1000
0001
,
0100
0010
1000
0100
0010
0001
0100
0010
,
1000
0100
1000
0010
0100
0001
0010
0001
,
1000
0010
0100
0001
0010
0100
1000
0010
,
1000
0001
0010
0001
0100
0010
0100
0001
,
1000
0010
0100
0010
1000
0001
0100
0010
,
1000
0100
0010
0001
0100
0010
1000
0100
,
1000
0001
0010
0100
1000
0010
0100
0001
,
0010
0001
1000
0100
1000
0010
0100
0010
,
1000
0001
1000
0010
0100
0001
1000
0001
,
0010
0100
1000
0010
0100
0001
1000
0001
,
0010
0100
0010
0001
1000
0001
0010
0001
,
0100
0010
1000
0000
0001
1000
0000
0010
,
0000
0000
0000
0000
;

//---------------dance-single - ----------------
#NOTES:
     dance-single:
     :
     Challenge:
     15:
     1.000,1.000,0.149,0.254,1.000,1661.000,33.000,56.000,21.000,0.000:

1001
0001
0100
0010
1000
0100
0010
0001
,
0010
0100
1000
0001
0100
0010
1000
0001
,
0010
0100
4000
0004
0000
0000
0000
0000
,
3003
0000
10M1
0000
00M1
0100
00M0
0000
,
00M0
0001
10M0
0000
0M10
1000
0M00
0000
,
000M
0010
1M00
0000
001M
0000
010M
0000
,
0M20
2000
000M
0000
3M30
0000
0M00
0010
,
100M
0010
1M00
0000
M010
010M
0000
0000
,
0001
1000
0020
0000
0130
0001
0000
MM00
,
0000
0100
0020
0000
2030
0000
3020
0000
,
0230
0020
0000
0000
0330
0000
0000
1000
,
0001
1000
1001
0001
0100
0010
1000
0001
,
0100
0010
1000
0001
0010
0001
0010
0001
,
0010
0001
0100
0001
1000
0010
0100
0010
,
1000
0010
0100
0001
0010
0001
1000
0100
,
0010
0100
1000
0001
0100
0010
1000
0010
,
0100
0001
0010
0100
1000
0001
0100
0010
,
1000
0100
0010
0100
1000
0001
0100
0010
,
1000
0001
1000
1000
1000
0000
0001
0000
,
0001
0000
1000
0000
0001
0100
0010
1000
0001
0010
0100
1000
0001
0100
0010
1000
,
0100
0010
0001
0010
0100
1000
0001
0100
0010
1000
0001
0100
0010
1000
0100
0010
,
0001
0010
0100
1000
0001
0100
0010
1000
0001
0010
0100
1000
0001
0100
0010
1000
,
0001
0010
0100
1000
0001
0100
0010
1000
0001
0010
0100
1000
0001
0010
0100
1000
,
0001
0100
0010
1000
0001
0010
0100
1000
0001
0100
0010
1000
0100
1000
0001
0010
,
0001
1000
0010
0100
0001
1000
0100
0010
0001
0010
0100
1000
0001
0100
0010
1000
,
0001
0100
0010
1000
0001
0010
0001
1000
0100
1000
0001
0100
0010
0100
0001
1000
,
0100
1000
0001
0100
0010
1000
0001
0010
0100
1000
0001
0100
0010
1000
0001
0010
,
0001
1000
0100
0010
0001
0010
0100
1000
0001
0100
0010
1000
0100
0010
0100
1000
,
0001
0010
0100
1000
0001
0100
0010
1000
0100
0010
0001
0010
0100
1000
0001
0100
,
0010
0100
0001
0010
0001
1000
0100
1000
0001
0010
0100
1000
0001
0100
0010
1000
,
0100
0010
0001
0010
0100
1000
0001
0100
0010
0100
0001
0010
0100
1000
0001
0100
,
0010
1000
0100
0010
0100
1000
0001
0010
0100
1000
0001
0100
0010
1000
0001
0100
,
0010
1000
0001
0010
0001
1000
0100
0010
0100
1000
0001
0010
0100
1000
0001
0100
,
0010
1000
0001
1000
0100
0000
0010
0100
0000
0010
0000
0100
0000
0000
0000
0000
,
0000
0000
0000
0000
0010
0000
0010
0000
0010
0010
0010
0000
0002
0000
0000
0000
,
0203
0000
0000
0000
0000
0000
0320
0000
0000
0000
0000
0000
2030
0000
0000
3020
0000
0000
0000
0000
0000
1030
0100
0010
,
0001
0010
0100
1000
0000
0000
0020
0000
0000
0000
0000
0000
0230
0000
0000
0000
0000
0000
0302
0000
0000
0000
0000
0000
,
0203
0000
0000
0000
0000
0000
0301
0010
0100
1000
0001
0010
0100
0000
0000
2000
0000
0000
0000
0000
0000
3020
0000
0000
,
0000
0000
0000
0130
0000
0000
0010
1000
0001
0100
0010
1000
0010
0000
0000
0100
0000
0000
0020
0000
0000
0000
0000
0000
,
2030
0000
0000
0000
0000
0000
3002
0000
0000
0000
0000
0000
0023
0000
0000
0230
0000
0000
0000
0000
0000
0310
1000
0001
,
0010
0100
1000
0002
0000
0000
0203
0000
0000
0000
0000
0000
0320
0000
0000
0000
0000
0000
1030
0000
0000
0010
0000
0000
,
1000
0001
0100
0010
1000
0001
2002
0000
,
0000
0000
0000
0000
0000
0000
0000
0000
3003
0000
0000
0000
1000
0100
0010
0001
,
0010
0000
0000
0100
0000
0000
1000
0000
0000
0001
0000
0000
0100
0000
0000
0010
0000
0000
1000
0000
0000
0001
0000
0000
0010
0000
0000
0100
0000
0000
1000
0000
0000
0001
0000
0000
0100
0000
0000
0010
0000
0000
1000
0000
0100
0000
0010
0000
,
0100
0000
1000
0000
0001
0000
0010
0000
0000
0100
0000
0000
1000
0000
0000
0001
0000
0000
0100
0000
0000
0010
0000
0000
1000
0000
0000
0100
0000
0000
0010
0000
0000
0001
0000
0000
0010
0000
0000
0100
0000
0000
1000
0000
0000
0001
0000
0000
,
0100
0000
0000
0010
0000
0000
1000
0000
0000
0001
0000
0000
1000
0000
0100
0000
0010
0000
0001
0000
1000
0000
0100
0000
0010
0000
0000
0001
0000
0000
0010
0000
0000
0100
0000
0000
1000
0000
0000
0010
0000
0000
0100
0000
0000
0001
0000
0000
,
0100
0000
0000
0010
0000
0000
1000
0000
0000
0001
0000
0000
1000
0000
0100
0000
0010
0000
0100
0000
1000
0000
0001
0000
0100
0000
0000
0010
0000
0000
1000
0000
0000
0001
0000
0000
0010
0000
0000
0100
0000
0000
1000
0000
0000
0001
0000
0000
,
0100
0000
0000
0010
0000
0000
1000
0000
0000
0100
0000
0000
0010
0000
0000
0100
0000
0000
1000
0000
0000
0001
0000
0000
0100
0000
0000
0010
0000
0000
1000
0000
0000
0001
0000
0000
0010
0000
0000
0100
0000
0000
0010
0000
0001
0000
0100
0000
,
0010
0000
1000
0000
0001
0000
0100
0000
0000
0010
0000
0000
1000
0000
0000
0001
0000
0000
0010
0000
0000
0100
0000
0000
1000
0000
0000
0001
0000
0000
0100
0000
0000
0010
0000
0000
1000
0000
0000
0100
0000
0000
0010
0000
0000
0001
0000
0000
,
0010
0000
0000
0100
0000
0000
1000
0000
0000
0001
0000
0000
0100
0000
0010
0000
1000
0000
0001
0000
0100
0000
0001
0000
0010
0000
0000
0100
0000
0000
1000
0000
0000
0010
0000
0000
0100
0000
0000
0001
0000
0000
0100
0000
0000
0010
0000
0000
,
1000
0001
0010
0100
4000
0000
0000
0000
3001
0000
0000
0000
1000
0100
0010
0100
,
1000
0001
0100
0010
1000
0001
0010
0001
1000
0100
0010
0001
0010
0100
1000
0001
,
0100
0010
1000
0100
1000
0001
0010
0100
1000
0001
0010
0100
1000
0001
0010
0001
,
0010
0100
0010
0001
1000
0100
1000
0001
1000
0100
1000
0001
1000
0100
1000
0001
,
0100
0010
0100
0001
1000
0100
0010
0001
0010
0100
1000
0001
0100
0010
1000
0001
,
0010
0100
1000
0001
0100
0010
1000
0100
0010
0001
0010
0100
1000
0001
0100
0010
,
0100
0001
0010
0100
1000
0001
0100
0010
1000
0001
0010
0100
1000
0001
0100
0010
,
1000
0100
0010
0001
0010
0100
1000
0001
0100
0010
1000
0001
2000
0000
0000
0000
,
3020
0000
0000
0000
0430
0000
0000
0000
0000
0000
0000
0000
0301
0010
0100
1000
,
0001
0010
0001
1000
0100
0010
0001
1000
0010
1000
0001
0100
0010
1000
0010
1000
,
0001
0100
0010
1000
0100
0010
0001
0010
0100
1000
0001
0100
0010
1000
0010
1000
,
0001
0010
0100
1000
0001
0010
0001
1000
0100
0010
0001
1000
0010
1000
0001
0100
,
0010
1000
0001
0010
0100
1000
0001
0100
0010
1000
0100
0010
0001
0010
0100
1000
,
0001
0100
0010
0100
0001
1000
0100
1000
0001
0010
0100
1000
0001
0100
0010
1000
,
0100
0010
0001
0010
0100
1000
0001
0100
0010
0100
0001
0010
0100
1000
0001
0100
,
0010
1000
0100
0010
0001
0010
0100
1000
0001
0100
0010
0100
0001
0010
0100
1000
,
0001
0100
0010
0100
0001
0010
0100
1000
0001
0100
0010
0100
0002
0000
0000
0000
,
0000
2003
0000
0000
3040
0000
0230
0000
,
0000
0302
0000
0000
2003
0000
3010
0100
,
0001
0000
1000
0000
0100
0000
0010
0000
0001
0000
0100
0000
0010
1000
0001
0010
,
0100
1000
0001
0100
0010
1000
0010
0100
0001
0000
0010
0000
0002
0000
0013
0000
,
0200
0000
0000
1300
0000
0000
0020
0000
0000
0130
0000
0000
0001
0000
0000
0010
0000
0000
0100
0000
0000
1000
0100
0010
,
0001
0000
0010
0000
0100
0000
1000
0000
0000
0000
0000
0000
0100
0000
0000
0000
0000
0000
0010
0000
0000
0000
0000
0000
0001
0000
0000
0000
0000
0000
1000
0000
0000
0000
0000
0000
1001
0000
0000
0000
0000
0000
0010
0000
0000
0100
0000
0000
,
0000
0010
0000
0100
0000
0000
0001
0000
0001
0000
0000
0000
0001
0100
0001
0100
,
0010
1000
0010
1000
0010
0100
0001
0010
0001
1000
0001
0100
0010
1000
0010
0100
,
0001
0010
0001
1000
0001
0100
0001
1000
0001
0010
0001
1000
0001
0000
0000
0000
,
1001
0001
0000
0001
1001
0000
0010
0000
,
0110
0010
0000
0000
0010
1000
0010
0000
,
0100
0000
0001
0000
0010
0001
0100
0000
,
0011
1000
0000
0010
0100
0010
0110
0000
,
1010
1000
0000
0010
1010
0000
2000
3000
,
1010
0010
0000
0000
0000
0000
0200
0000
,
0302
0000
0103
0000
0010
1000
0010
1000
,
0010
0100
0001
0010
0001
1000
0001
0100
,
0010
1000
0010
0100
0001
0010
0100
1000
,
0100
0010
0100
1000
0100
0010
0001
1000
,
0001
0100
0010
1000
0010
0100
0001
0010
,
0100
1000
0100
0010
0001
0100
0001
1000
,
1010
0010
1000
0010
1010
1000
0001
1000
,
1001
0010
0100
0010
0110
0010
1000
0010
,
1010
0000
1001
0000
0001
0100
0010
0010
,
0010
0000
1000
0000
0001
1000
1001
0000
,
0001
0000
0100
0000
0010
1000
0010
0000
,
0100
0000
0001
0000
0000
0010
0001
0100
,
0001
1000
0000
1000
0000
1000
0010
0100
,
0010
1000
2001
0000
3020
0000
0130
0000
,
0001
0000
1000
0000
0001
0010
0002
0000
,
0203
0000
0320
0000
1030
0001
1000
0001
,
0100
0010
0000
0010
0000
1000
0010
1000
,
0010
0000
1000
0000
0000
0000
0000
0000
0010
0000
0000
0000
0110
0000
0000
0010
,
0000
0000
1000
0000
0010
0000
0000
0010
0000
0000
0100
0000
0001
0000
0000
0001
,
0000
0000
0100
0000
0010
0000
0000
0000
0000
0000
1000
1000
0001
0000
0000
0000
,
1001
0000
0110
0000
0001
0010
0000
0001
,
0000
0001
0100
0000
0000
0010
1010
0000
,
0010
1000
0000
0010
0000
0100
0020
0030
,
0020
0030
0020
2030
3020
0030
1010
0000
,
0010
0000
0000
1000
0010
0000
0010
0000
,
1000
0010
0000
0000
0100
0000
0001
0000
,
0100
0000
0000
0100
0001
0000
0010
0000
,
0100
1000
0000
0000
0010
0000
1000
0000
,
0010
0000
1000
0000
0010
0100
0000
0004
,
0000
0013
0200
0000
2300
0000
3200
0000
,
0310
0000
0004
0000
0103
0010
0000
0010
,
0000
0000
0000
0000
0000
0000
1000
0000
0000
0000
0000
0000
0001
0000
0000
0000
1000
0000
0000
0000
0001
0000
0000
0000
1000
0000
0000
0000
0000
0000
0000
0000
0000
0000
0000
0000
1000
0000
0000
0100
0000
0000
0010
0000
0000
0001
0000
0000
,
0010
0000
0000
0100
0000
0000
1000
0000
0000
0001
0000
0000
0100
0000
0000
0010
0000
0000
0100
0000
0000
0001
0000
0000
0010
0000
0000
0100
0000
0000
1000
0000
0000
0001
0000
0000
0100
0000
0000
0010
0000
0000
1000
0000
0100
0000
0010
0000
,
0001
0000
0010
0000
0100
0000
1000
0000
0000
0010
0000
0000
0100
0000
0000
0001
0000
0000
1000
0000
0000
0100
0000
0000
0010
0000
0000
0001
0000
0000
0010
0000
0000
0100
0000
0000
1000
0000
0000
0001
0000
0000
0100
0000
0000
0010
0000
0000
,
1000
0000
0000
0001
0000
0000
0010
0000
0000
0100
0000
0000
1000
0000
0001
0000
0100
0000
0010
0000
1000
0000
0100
0000
0010
0000
0000
0001
0000
0000
0010
0000
0000
0100
0000
0000
1000
0000
0000
0001
0000
0000
0100
0000
0000
0010
0000
0000
,
1000
0000
0000
0001
0000
0000
0010
0000
0000
0100
0000
0000
1000
0000
0001
0000
0100
0000
0010
0000
1000
0000
0100
0000
0010
0000
0000
0001
0000
0000
0100
0000
0000
0010
0000
0000
1000
0000
0000
0001
0000
0000
0010
0000
0000
0100
0000
0000
,
1000
0000
0000
0001
0000
0000
0010
0000
0000
0100
0000
0000
1000
0000
0000
0001
0000
0000
0100
0000
0000
0010
0000
0000
1000
0000
0000
0100
0000
0000
0010
0000
0000
0001
0000
0000
0100
0000
0000
0010
0000
0000
1000
0000
0001
0000
0010
0000
,
0100
0000
1000
0000
0100
0000
0010
0000
0000
0001
0000
0000
0010
0000
0000
0100
0000
0000
1000
0000
0000
0001
0000
0000
0100
0000
0000
0010
0000
0000
1000
0000
0000
0010
0000
0000
0100
0000
0000
0001
0000
0000
0100
0000
0000
0010
0000
0000
,
1000
0001
0100
0010
1000
0001
0100
0010
1000
0001
0010
0100
0020
0000
0000
0000
,
0000
0000
0000
0000
0030
0000
0000
0000
1001
0000
0000
0000
1000
0001
0100
0010
,
1000
0001
0010
0100
1000
0001
0100
0010
1000
0100
1000
0001
0010
0100
1000
0001
,
0100
0010
1000
0100
0010
0001
0010
0100
1000
0001
0100
0010
1000
0100
1000
0001
,
0010
0100
1000
0001
0100
0010
1000
0100
0010
0001
0010
0100
1000
0001
0100
0010
,
0100
0001
0010
0100
1000
0001
0100
0010
1000
0100
0010
0001
0010
0100
1000
0001
,
0100
0010
0100
0001
0010
0100
1000
0001
0100
0010
1000
0100
0010
0001
0010
0100
,
1000
0001
0100
0010
1000
0001
0010
0100
1000
0001
0100
0010
1000
0100
0010
0001
,
0010
0100
1000
0001
0100
0010
1000
0001
0010
0100
1000
0001
0100
0010
1000
0100
,
0010
0001
0010
0100
1000
0001
0100
0010
1000
0001
0010
0100
1000
0010
1000
0100
,
0010
0001
0010
0100
1000
0001
0100
0010
1000
0001
0010
0100
1000
0001
0100
0010
,
1000
0100
0010
0001
0010
0100
1000
0001
0100
0010
1000
0001
0010
0100
1000
0001
,
0100
0010
1000
0100
0010
0001
0010
0100
1000
0001
0100
0010
0100
0001
0010
0100
,
1000
0001
0100
0010
1000
0100
0010
0001
0010
0100
1000
0001
0100
0010
0100
0001
,
0010
0100
1000
0001
0100
0010
1000
0100
0010
0001
0010
0100
1000
0001
0100
0010
,
0100
0001
0010
0100
1000
0001
0100
0010
1000
0100
0010
0001
0010
0100
1000
0001
,
0100
0010
1000
0100
0010
0001
0010
0100
1000
0001
0100
0010
1000
0000
0000
0000
,
0010
0000
0100
0000
0001
1000
0001
0000
,
0010
0001
1000
0001
0100
0001
1000
0100
0010
0001
0010
0100
1000
0001
0100
0010
,
1000
0100
0010
0001
0010
0100
1000
0001
0100
0010
1000
0001
0010
0100
1000
0001
,
0100
0010
0100
0001
0010
0100
1000
0001
0100
0010
1000
0001
0010
0100
1000
0001
,
0100
0010
1000
0100
0010
0001
0010
0001
0100
0010
0100
0010
1000
0001
0010
0100
,
1000
0001
0100
0010
1000
0100
0010
0001
0010
0100
1000
0001
0100
0010
1000
0001
,
0010
0100
1000
0001
0100
0010
1000
0100
0010
0001
0010
0100
1000
0001
0100
0010
,
1000
0001
0010
0100
1000
0001
0100
0010
1000
0100
0010
0001
0010
0100
1000
0001
,
0100
0010
0100
0001
1000
0100
1000
0001
0100
0010
1000
0001
1000
0100
0010
0001
,
0010
0100
1000
0001
0100
0010
0100
0001
0010
0100
1000
0001
0100
0010
1000
0100
,
0010
0001
0100
0010
1000
0001
0100
0010
1000
0001
0010
0100
1000
0001
0100
0010
,
0100
0001
1000
0100
1000
0001
0100
0010
1000
0001
0010
0100
1000
0001
0100
0010
,
1000
0001
0010
0100
1000
0001
0100
0010
1000
0100
0010
0001
0010
0100
1000
0001
,
0100
0010
0100
0001
0010
0100
1000
0001
0100
0010
1000
0100
0010
0001
0010
0100
,
1000
0001
0100
0010
1000
0001
0010
0100
1000
0001
1000
0001
1000
0000
0000
0000
;
