#TITLE:Fun-Loving Spirit;
#SUBTITLE:;
#ARTIST:古代祐三;
#TITLETRANSLIT:;
#SUBTITLETRANSLIT:;
#ARTISTTRANSLIT:Yuzo Koshiro;
#CREDIT:;
#BANNER:banner.png;
#BACKGROUND:background.png;
#LYRICSPATH:;
#CDTITLE:!title.png;
#MUSIC:music.mp3;
#OFFSET:-0.168;
#SAMPLESTART:30.900;
#SAMPLELENGTH:18.581;
#SELECTABLE:YES;
#BPMS:0.000=140.000;
#STOPS:;
#BGCHANGES:;
// cache tags:
#FIRSTBEAT:16.000;
#LASTBEAT:332.250;
#SONGFILENAME:Songs/Bemani.se Megapack/(Kasu) Fun-Loving Spirit/steps.sm;
#HASMUSIC:1;
#HASBANNER:1;
#MUSICLENGTH:157.910;
// end cache tags

//---------------dance-single - KASU----------------
#NOTES:
     dance-single:
     KASU:
     Challenge:
     14:
     1.000,1.000,1.000,0.127,1.000,990.000,237.000,20.000,0.000,0.000:






0000
0000
0000
0000
,
0000
0000
0000
0000
,
0000
0000
0000
0000
,
0000
0000
0000
0000
,
1001
0000
0000
0001
0000
0000
1000
0000
0110
0000
1000
0100
0010
0000
0001
0000
,
1000
0000
0000
0100
0000
0000
0010
0000
0011
0000
1000
0010
1000
0000
0001
0000
,
0010
0000
0000
0100
0000
0000
1000
0000
0110
0000
0100
0001
0100
0000
0001
0000
,
0010
0000
0000
0100
0000
0000
1000
0000
0110
0000
1000
0100
0010
0000
1100
0000
,
0101
0000
0000
0110
0000
0000
1001
0000
0110
0000
0000
1100
0000
0000
0011
0000
,
1100
0000
0000
0011
0000
0000
0110
0000
0101
0000
1000
0100
1100
0100
0010
0001
,
0110
0000
0010
0100
1001
0000
0010
0000
1100
0000
0001
0000
0110
0000
0100
0000
,
1001
0000
0010
0100
0011
0000
1000
0000
0110
0000
0010
0000
0101
0000
0100
0000
,
1010
0000
1000
0100
1001
0000
0010
0000
1100
0000
0001
0000
0110
0000
0100
0000
,
0011
0000
0001
1000
0001
1000
0010
0100
0011
0000
1000
0000
0110
0000
0010
0000
,
0001
1000
0000
0001
0000
1000
0010
0000
0110
0000
0001
0010
1100
0000
0010
0000
,
0101
0000
1000
0010
0000
1000
0100
0000
1010
0000
0001
0100
1010
0000
0100
0000
,
0011
1000
0010
1000
0101
0000
0010
0000
0001
0000
0100
0010
1001
0000
0010
0000
,
1000
0100
1000
0000
0011
0000
1000
0100
0000
0010
0001
0000
1100
0000
0010
0000
,
1001
0100
1000
0010
1100
0000
0100
0000
1010
0000
0010
1000
0101
0000
0100
0000
,
0011
1000
0100
1000
0110
0000
0010
0000
1001
0000
1000
0001
0110
0000
0001
0000
,
1010
0100
0010
0100
1001
0000
0010
1000
0101
0000
0010
0000
1001
0000
0100
0000
,
0110
0000
1000
0100
0011
0000
0010
0000
1100
0000
0001
0010
1001
0100
0001
1000
,
0011
0000
1000
0100
0011
0000
0001
0000
1100
0000
0010
0000
0101
0000
0010
0000
,
1010
0100
1000
0100
1001
0000
0010
0000
1100
0000
0001
0010
1100
0000
0010
0000
,
0101
1000
0100
1000
0110
0000
0100
0000
0101
0000
0010
0001
1010
0000
0001
0000
,
0100
0010
0000
1000
0100
0000
1000
0010
0101
0100
0010
1000
1100
0000
0001
0000
,
1001
0001
1000
0100
1000
0100
0010
0001
0010
0001
0100
0001
0101
0001
1000
0010
,
1000
0100
1000
0100
0010
0001
0010
0001
0100
0001
1000
0010
0110
0100
0001
0100
,
1000
0100
0001
0010
0100
1000
0100
1000
0100
0001
0100
1000
1100
0100
1000
0100
,
0010
0001
0100
1000
0100
0001
0010
0100
1000
0100
0010
0001
0011
0010
0001
0010
,
0100
1000
0100
0010
0001
1000
0010
0100
1000
0100
0001
0010
0011
0001
0010
0100
,
0010
1000
0010
0001
0010
0001
0100
0001
1000
0100
0001
0100
1010
0010
1000
0001
,
0010
0001
0010
0001
0100
0001
1000
0001
1000
0010
1000
0100
0011
0001
0100
0001
,
1000
0010
1000
0100
0010
0001
1000
0001
1000
0000
1001
0000
1001
0000
1000
0000
,
0011
1000
0001
0100
0101
0001
0100
0010
1001
1000
0001
1000
0110
0010
1000
0100
,
0011
0100
1000
0001
0101
1000
0001
0100
0110
0001
0010
0100
1001
1000
0100
1000
,
0110
0001
0100
0010
1010
1000
0100
0010
0011
0001
0100
0010
1010
1000
0010
0100
,
0101
0010
0100
0010
0101
0001
1000
0010
0110
0010
0100
0001
0101
0010
0100
0001
,
0011
1000
0001
1000
1010
0010
0100
0010
1010
1000
0100
1000
1100
0100
0010
0100
,
0011
0010
0001
0010
0110
0100
1000
0100
1100
1000
0001
1000
1010
0010
0100
0010
,
0110
0100
0001
1000
1100
0100
0010
0001
0011
0010
0001
1000
1010
0010
0100
0001
,
1001
1000
0001
0100
1010
0010
0100
0001
0101
0001
1000
0100
1100
1000
0100
0010
,
0011
0010
0001
1000
1001
0000
0100
0000
1010
0000
0000
0011
0000
0000
1100
0000
,
0110
0000
0000
0011
0000
0000
0011
0100
2001
0000
0001
0001
0001
0001
0001
3001
,
1001
0000
0000
0000
2000
3000
0000
0000
0002
0003
0000
0000
2000
3000
0000
0000
0002
0003
0000
0000
0200
0300
0000
0000
0002
0003
0000
0000
2000
3000
0000
0000
0002
0003
0000
0000
0000
0000
0000
0000
0100
0000
0000
0000
0000
0000
0000
0000
0011
0000
0000
0000
0000
0000
0000
0000
0100
0000
0000
0000
0000
0000
0000
0000
,
0010
0000
0001
0000
0000
0000
0010
0000
0000
0000
0010
0000
1000
0000
0000
0000
0100
1000
0100
1000
0100
1000
0100
1000
0100
1000
0100
1000
0100
1000
0100
1000
,
1100
0100
0010
0001
0110
0000
0001
0000
0110
0000
0001
0100
0011
0000
0100
0000
,
1010
0000
1000
0001
0110
0000
1000
0000
0110
0000
0010
0001
1100
0000
0001
0000
,
1000
0100
0000
0010
0000
0100
1000
0000
0011
0000
1000
0100
0011
0000
0010
0000
,
0110
0001
0100
0001
1010
0000
0001
0000
1010
0000
0010
1000
0101
0000
1000
0000
,
0010
1000
0000
0100
0000
0010
0001
0000
1100
0000
0010
1000
0101
0000
1000
0000
,
0011
1000
0100
1000
0110
0000
1000
0000
0101
0000
0010
0001
0110
0000
0001
0000
,
1000
0010
0000
1000
0000
0100
1000
0000
0110
0000
0100
0001
1010
0000
0001
0000
,
1001
0010
1000
0100
1010
0000
0010
0000
1100
0000
0001
0000
1001
0000
1000
0000
,
0110
1000
0100
0010
1001
0001
0010
0001
0110
1000
0010
0100
0101
0001
0010
0100
,
1100
1000
0010
0100
0101
0001
0100
0010
1010
0100
0010
0100
1010
1000
0001
0100
,
0110
0100
0010
1000
1010
0100
0010
1000
1100
0001
1000
0001
0101
0100
0010
0100
,
0101
0001
0010
0001
0011
0010
0100
0010
1100
0100
1000
0100
0110
0010
0001
0010
,
0011
0001
1000
0001
0101
0100
0010
0100
0110
0010
1000
0001
0011
0010
0100
1000
,
1100
0100
1000
0001
0101
0100
0010
1000
1001
0001
1000
0010
0101
0100
0010
1000
,
1010
1000
0001
0010
0011
0001
0010
0100
1100
0100
1000
0001
1001
1000
0001
1000
,
1100
0100
1000
0001
0011
0001
0010
0100
1001
0000
0110
0000
1001
0000
1010
0000
,
0001
1000
0000
0100
0000
0010
0001
1000
0001
0010
0000
0001
0000
0000
1100
0000
,
0010
1000
0000
1000
0000
0100
0010
0001
0010
0001
0100
0010
0000
1000
0100
1000
,
0010
1000
0000
0001
0000
0100
0010
1000
0010
1000
0000
0100
0000
0010
0001
0000
,
0001
1000
0000
0010
0000
0010
0100
0001
1000
0010
1000
0100
0000
0100
0010
0001
,
1000
0010
1000
0100
0000
0010
0001
0010
0001
0100
0000
0010
0000
1000
0100
0000
,
1000
0010
0000
1000
0000
0001
0010
0001
0010
0100
0000
1000
0000
0010
1000
0001
,
1000
0001
0010
0001
0000
1000
0010
1000
0100
0010
0000
0001
0000
0010
0001
0000
,
1100
0000
1000
0100
1001
0000
0011
0000
1100
0000
0101
0000
1010
0000
1000
0000
,
0011
1000
0001
0100
0101
0001
0100
0010
1001
1000
0001
1000
0110
0010
1000
0100
,
0011
0100
1000
0001
0101
1000
0001
0100
0110
0001
0010
0100
1001
1000
0100
1000
,
0110
0001
0100
0010
1010
1000
0100
0010
0011
0001
0100
0010
1010
1000
0010
0100
,
0101
0010
0100
0010
0101
0001
1000
0010
0110
0010
0100
0001
0101
0010
0100
0001
,
0011
1000
0001
1000
1010
0010
0100
0010
1010
1000
0100
1000
1100
0100
0010
0100
,
0011
0010
0001
0010
0110
0100
1000
0100
1100
1000
0001
1000
1010
0010
0100
0010
,
0110
0100
0001
1000
1100
0100
0010
0001
0011
0010
0001
1000
1010
0010
0100
0001
,
1001
1000
0001
0100
1010
0010
0100
0001
0101
0001
1000
0100
1100
1000
0100
0010
,
0011
0000
0000
0110
0000
0000
0101
0000
1010
0000
0000
0011
0000
0000
1100
0000
,
0110
0000
0000
0011
0000
0000
0011
0100
2001
0000
0001
0001
0001
0001
0001
3001
,
1001
0000
0000
0000
2000
3000
0000
0000
0002
0003
0000
0000
2000
3000
0000
0000
0002
0003
0000
0000
0200
0300
0000
0000
0002
0003
0000
0000
2000
3000
0000
0000
0002
0003
0000
0000
0000
0000
0000
0000
0100
0000
0000
0000
0000
0000
0000
0000
0011
0000
0000
0000
0000
0000
0000
0000
0100
0000
0000
0000
0000
0000
0000
0000
,
0010
0001
0000
0010
0000
0010
1000
0000
1000
0100
0010
0001
0010
0100
0010
0001
,
2002
3003
0000
0000
;

//---------------dance-single - KASU----------------
#NOTES:
     dance-single:
     KASU:
     Hard:
     11:
     0.907,0.891,0.101,0.025,1.000,983.000,16.000,4.000,0.000,0.000:



0000
0000
0000
0000
,
0000
0000
0000
0000
,
0000
0000
0000
0000
,
0000
0000
0000
0000
,
1001
0000
0000
1000
0000
0000
0001
0000
0100
0000
0001
0010
0100
0000
1000
0000
,
0001
0000
0000
0010
0000
0000
0100
0000
1000
0000
0001
0100
0001
0000
1000
0000
,
0100
0000
0000
0010
0000
0000
0001
0000
0100
0000
0010
1000
0010
0000
1000
0000
,
0100
0000
0000
0010
0000
0000
0001
0000
0100
0000
0001
0010
0100
0000
1000
0000
,
0010
0000
0000
0100
0000
0000
0001
0000
0010
0000
0000
0001
0000
0000
0100
0000
,
0010
0000
0000
1000
0000
0000
0100
0000
0010
0000
0001
0100
0001
0010
0100
1000
,
0100
0000
0100
0010
0001
0000
0100
0000
0010
0000
1000
0000
0100
0000
0010
0000
,
0001
0000
0100
0010
0100
0000
0001
0000
0010
0000
0100
0000
1000
0000
0010
0000
,
0100
0000
0001
0010
0001
0000
0100
0000
0010
0000
1000
0000
0100
0000
0010
0000
,
0100
0000
1000
0001
1000
0001
0100
0010
0100
0000
0001
0000
0010
0000
0100
0000
,
1000
0001
0000
1000
0000
0001
0100
0000
0010
0000
1000
0100
1000
0000
0100
0000
,
0010
0000
0001
0100
0000
0001
0010
0000
0100
0000
1000
0010
1000
0000
0010
0000
,
0100
0001
0100
0001
0010
0000
0100
0000
1000
0000
0010
0100
0010
0000
0100
0000
,
0001
0010
0001
0000
0100
0000
0001
0010
0000
0100
1000
0000
0010
0000
0100
0000
,
0001
0010
0001
0100
0001
0000
0010
0000
0100
0000
1000
0010
1000
0000
0010
0000
,
0100
0001
0010
0001
0010
0000
0100
0000
1000
0000
0010
0100
0010
0000
1000
0000
,
0100
0010
0100
0010
0001
0000
0100
0001
0010
0000
0100
0000
1000
0000
0010
0000
,
0100
0000
0001
0010
0001
0000
0100
0000
0010
0000
1000
0100
1000
0010
1000
0001
,
0100
0000
0001
0010
0100
0000
1000
0000
0010
0000
0100
0000
0010
0000
0100
0000
,
0001
0010
0001
0010
0001
0000
0100
0000
0010
0000
1000
0100
1000
0000
0100
0000
,
0010
0001
0010
0001
0100
0000
0010
0000
1000
0000
0100
1000
0100
0000
1000
0000
,
0010
0100
0000
0001
0010
0000
0001
0100
0001
0010
0100
1000
0010
0000
1000
0000
,
0001
0010
0100
1000
0001
0010
0100
1000
0001
0010
0100
1000
0001
0010
0100
1000
,
0010
0100
0001
1000
0010
0100
0001
1000
0010
0100
0001
1000
0010
0100
0001
1000
,
0100
0010
0001
1000
0100
0010
0001
1000
0100
0010
0001
1000
0100
0010
0001
0010
,
0100
1000
0010
0001
0010
1000
0100
0010
0001
0010
0100
1000
0100
0010
0001
0100
,
0010
0001
0010
0100
1000
0100
0001
0010
0001
0010
0100
1000
0100
1000
0100
0010
,
0100
0001
0100
1000
0010
1000
0100
1000
0001
0010
1000
0010
0001
0100
0001
1000
,
0100
1000
0100
1000
0010
1000
0001
1000
0001
0100
0001
0010
0100
1000
0010
1000
,
0001
0100
0001
0010
0100
1000
0001
1000
0001
0000
1001
0000
1001
0000
0001
0000
,
1001
0001
1000
0010
1000
0001
0010
0100
1000
0001
1000
0001
0010
0100
1000
0001
,
0100
0010
0100
0010
1000
0001
1000
0001
0010
0001
0010
0100
1000
0001
0010
0001
,
1000
0100
0010
0001
1000
0100
0010
0001
1000
0100
0010
0001
1000
0001
0010
0001
,
0010
0100
0010
0001
1000
0100
0010
0001
1000
0100
0010
0001
1000
0100
0010
0001
,
0100
0001
1000
0001
0100
0001
1000
0001
0100
0001
1000
0001
0100
0001
1000
0001
,
0100
0010
1000
0001
0100
0010
1000
0001
0100
0010
1000
0001
0100
0010
1000
0001
,
0010
0001
1000
0001
0010
0001
1000
0001
0010
0001
1000
0001
0010
0001
0010
0100
,
1000
0001
0010
0100
1000
0001
0010
0100
1000
0001
0010
0100
1000
0001
0010
0001
,
1000
0000
0100
1000
0001
0000
0010
0000
0001
0000
0000
1000
0000
0000
0010
0000
,
0100
0000
0000
0100
0000
0000
1000
0100
0002
0003
1000
0001
1000
0001
1000
0001
,
1001
1000
0010
1000
0001
1000
0100
1000
0010
0000
0010
0000
1000
0000
0010
0000
,
0100
1000
0000
0100
0000
0100
0010
0000
0010
1000
0001
0100
0001
1000
0010
0100
,
0101
0100
0010
1000
0010
0000
1000
0000
0010
0000
1000
0010
0100
0000
0010
0000
,
0100
0000
0001
1000
0001
0000
0001
0000
0010
0000
0100
1000
0100
0000
1000
0000
,
0001
0010
0000
0100
0000
0010
0001
0000
0100
0000
0001
0010
0001
0000
0100
0000
,
0010
1000
0010
1000
0100
0000
1000
0000
0001
0000
0100
0001
0010
0000
0001
0000
,
0100
0001
0000
0010
0000
0100
1000
0000
0010
0000
0100
0001
0010
0000
0001
0000
,
0100
0001
0010
0001
0100
0000
0001
0000
1000
0000
0100
1000
0010
0000
1000
0000
,
0001
0100
0000
0001
0000
0010
0001
0000
0100
0000
0010
1000
0100
0000
1000
0000
,
0001
0100
0001
0010
0001
0000
0100
0000
0010
0000
1000
0000
1001
0000
0001
0000
,
1000
0001
0010
0001
0100
0001
1000
0100
0010
0100
1000
0001
1000
0001
0010
0100
,
1000
0010
0100
0010
1000
0001
0010
0001
0100
0001
0010
0001
1000
0100
1000
0010
,
1000
0001
0100
0001
0010
0100
1000
0100
1000
0010
0100
0010
1000
0001
0010
0001
,
1000
0100
0010
0100
1000
0001
0010
0100
1000
0100
1000
0001
0100
0001
1000
0100
,
1000
0001
1000
0001
0010
0100
1000
0100
1000
0010
0100
0001
0010
0001
1000
0100
,
1000
0100
0010
0100
1000
0100
0001
0100
1000
0100
1000
0010
1000
0010
1000
0001
,
1000
0001
0100
0001
0010
0100
1000
0010
0100
0010
1000
0001
0010
1000
0010
0001
,
0010
0100
1000
0001
0010
0001
0010
0100
1000
0000
0100
0000
1001
0000
0001
0000
,
1000
0001
0000
0010
0000
0100
1000
0001
1000
0100
0000
1000
0000
0000
0001
0000
,
0100
0001
0000
0001
0000
0010
0100
1000
0100
1000
0010
0100
0000
0001
0010
0001
,
0100
0001
0000
1000
0000
0010
0100
0001
0100
0001
0000
0010
0000
0100
1000
0000
,
1000
0001
0000
0100
0000
0100
0010
1000
0001
0100
0001
0010
0000
0010
0100
1000
,
0001
0100
0001
0010
0000
0100
1000
0100
1000
0010
0000
0100
0000
0001
0010
0000
,
0001
0100
0000
0001
0000
1000
0100
1000
0100
0010
0000
0001
0000
0100
0001
1000
,
0001
1000
0100
1000
0000
0001
0100
0001
0010
0100
0000
1000
0000
0100
1000
0000
,
0001
0000
0001
0010
1001
0000
1100
0000
0011
0000
1010
0000
0101
0000
0001
0000
,
1001
1000
0001
0100
0001
1000
0100
0010
0001
1000
0001
1000
0100
0010
0001
1000
,
0010
0100
0010
0100
0001
1000
0001
1000
0100
1000
0100
0010
0001
1000
0100
1000
,
0001
0010
0100
1000
0001
0010
0100
1000
0001
0010
0100
1000
0001
1000
0100
1000
,
0100
0010
0100
1000
0001
0010
0100
1000
0001
0010
0100
1000
0001
0010
0100
1000
,
0010
1000
0001
1000
0010
1000
0001
1000
0010
1000
0001
1000
0010
1000
0001
1000
,
0010
0100
0001
1000
0010
0100
0001
1000
0010
0100
0001
1000
0010
0100
0001
1000
,
0100
1000
0001
1000
0100
1000
0001
1000
0100
1000
0001
1000
0100
1000
0100
0010
,
0001
1000
0100
0010
0001
1000
0100
0010
0001
1000
0100
0010
0001
1000
0100
1000
,
0001
0000
0010
0001
1000
0000
0100
0000
1000
0000
0000
0001
0000
0000
0100
0000
,
0010
0000
0000
0010
0000
0000
0001
0010
2000
3000
0001
1000
0001
1000
0001
1000
,
1001
0001
0100
0001
1000
0001
0010
0001
0100
0000
0100
0000
0001
0000
0100
0000
,
0010
0001
0000
0010
0000
0010
0100
0000
0100
0001
1000
0010
1000
0001
0100
0010
,
2002
0000
0000
3003
;

//---------------dance-single - KASU----------------
#NOTES:
     dance-single:
     KASU:
     Medium:
     10:
     0.781,0.868,0.089,0.006,1.000,848.000,14.000,1.000,0.000,0.000:

0000
0000
0000
0000
,
0000
0000
0000
0000
,
0000
0000
0000
0000
,
0000
0000
0000
0000
,
0011
0000
0000
0010
0000
0000
0100
0000
1000
0000
0001
1000
0001
0000
1000
0000
,
1010
0000
0000
0100
0000
0000
0001
0000
0010
0000
0100
0010
0100
0000
1000
0000
,
1001
0000
0000
1000
0000
0000
0010
0000
0100
0000
0010
0100
0010
0000
1000
0000
,
1100
0000
0000
1000
0000
0000
0001
0000
0100
0000
0001
0100
0001
0000
0010
0000
,
0100
0000
0000
1000
0000
0000
0001
0000
0100
0000
0000
0010
0000
0000
1000
0000
,
0100
0000
0000
0010
0000
0000
0001
0000
0010
0000
0100
1000
0100
1000
0001
1000
,
0001
0000
0100
0001
1000
0000
0010
0000
0100
0000
0010
0000
1000
0000
0100
0000
,
0010
0000
0001
0010
0001
0000
0010
0000
0100
0000
0010
0000
0001
0000
1000
0000
,
0010
0000
0100
0010
0100
0000
1000
0000
0100
0000
0010
0000
1000
0000
0100
0000
,
0010
0000
0100
0010
0100
0000
0001
0000
0100
0000
0010
0000
0001
0000
1000
0000
,
0001
1000
0000
0001
0000
1000
0010
0000
1000
0000
0010
0100
0010
0000
0100
0000
,
0001
0100
0000
0001
0000
0010
0001
0000
0010
0000
0100
1000
0001
0000
1000
0000
,
0010
1000
0000
0010
0000
0100
0001
0000
1000
0000
0001
0010
0100
0000
0010
0000
,
0001
1000
0000
0001
0100
0000
0001
1000
0000
0010
1000
0000
0100
0000
0000
0000
,
1001
0000
0000
1000
0000
0000
0100
0000
1000
0000
0001
1000
0001
0000
1000
0000
,
1010
0000
0000
1000
0000
0000
0010
0000
0100
0000
0010
0100
0010
0000
1000
0000
,
1100
0000
0000
0010
0000
0000
0001
0000
0010
0000
0100
0010
0100
0000
0010
0000
,
0011
0000
0000
0100
0000
0000
0001
0000
1000
0000
0010
1000
0010
0000
1000
0000
,
1010
0000
0000
1000
0000
0000
0010
0000
0100
0000
0001
0100
0001
0000
0100
0000
,
0011
0000
0000
0010
0000
0000
0100
0000
1000
0000
0001
1000
0001
0000
1000
0000
,
1010
0000
0000
0100
0000
0000
0010
0000
0100
0000
0010
0100
0010
0000
1000
0000
,
1010
0000
0000
1000
0000
0000
0100
0000
0010
0000
0001
0000
0010
0000
0000
0000
,
0100
1000
0000
0001
0000
1000
0010
0100
0010
0100
0000
0001
0000
0001
1000
0000
,
0100
0010
0000
0001
0000
1000
0001
1000
0010
1000
0000
0010
0000
0000
0100
0000
,
0001
0010
0000
0001
0000
0010
0100
0010
0100
0010
0000
0001
0000
1000
0001
0000
,
1000
0010
0000
0100
0000
0010
1000
0010
1000
0100
0000
0010
0000
0000
0001
0000
,
1000
0001
0000
1000
0000
0010
0100
0010
0100
0010
0000
1000
0000
0001
1000
0000
,
0001
0010
0000
0100
0000
0010
0100
0010
0100
0010
0000
0001
0000
0000
1000
0000
,
0001
1000
0000
0010
0000
0100
0010
1000
0010
1000
0000
0100
0000
1000
0100
0000
,
1000
0010
0000
0100
0000
0001
0010
0000
0100
0000
0010
0001
0010
0000
0011
0000
,
0010
0001
0000
1000
0100
1000
0000
0001
1000
0001
0100
0001
0000
0100
0010
0100
,
0010
0100
0000
0010
1000
0010
0000
1000
0100
1000
0100
1000
0000
0001
0100
0001
,
0100
0001
0000
0010
0001
0010
0000
0100
1000
0100
1000
0010
0000
1000
0010
0100
,
0010
0100
0000
0001
0100
0001
0000
1000
0001
1000
0100
1000
0000
0010
0100
0010
,
0100
0001
0000
0010
0001
0010
0000
0100
1000
0100
1000
0001
0000
0100
0010
0100
,
0010
1000
0000
0010
1000
0100
0000
0010
0001
0010
0001
1000
0000
0010
0100
0010
,
0100
0001
0000
0010
0001
0010
0000
0100
1000
0100
1000
0010
0000
1000
0001
1000
,
0001
0100
0000
0001
0100
0001
0000
0010
0100
0010
0001
1000
0001
0000
1000
0010
,
1000
0000
0001
0100
0001
0000
0010
0000
0100
0000
0000
1000
0000
0000
0010
0000
,
0100
0000
0000
0001
0000
0000
1000
0100
1000
0000
0010
0100
0001
0010
0100
0010
,
0001
1000
0001
1000
0010
0000
0100
0000
0001
0000
0000
1000
0000
0000
0010
0000
,
0100
0000
0001
0010
0000
0100
1000
0000
0001
0000
1000
0100
1000
0010
0100
0001
,
0010
0000
0100
1000
0001
0000
1000
0000
0010
0000
0100
0000
1000
0000
0100
0000
,
0010
0000
1000
0100
0010
0000
0100
0000
0001
0000
0100
0000
0010
0000
0001
0000
,
1000
0000
0010
1000
0010
0000
0100
0000
0001
0000
0010
0000
0100
0000
1000
0000
,
0001
1000
0000
0010
0000
0100
0001
1000
0001
0000
0010
0100
0010
0000
0001
0000
,
1000
0001
0000
1000
0000
0010
0100
0000
0010
0000
1000
0001
1000
0000
0100
0000
,
0010
0001
0000
0010
0000
0100
0010
0000
0001
0000
1000
0001
1000
0000
0010
0000
,
0100
0010
0000
1000
0000
0001
1000
0000
0100
0000
0010
0001
0010
0000
0001
0000
,
1000
0001
0000
1000
0001
0000
1000
0010
0000
1000
0100
0000
1000
0000
0001
0000
,
0100
0001
0010
0100
1000
0001
0010
0100
1000
0001
0010
0100
1000
0001
1000
0100
,
1000
0001
1000
0100
1000
0001
1000
0010
1000
0001
1000
0010
1000
0001
0100
0001
,
0010
0100
1000
0001
0100
0010
1000
0100
0010
0001
0100
0010
1000
0100
0010
0001
,
1000
0001
0100
0010
1000
0001
0010
0100
1000
0001
0100
0010
1000
0001
0010
0100
,
0010
0001
1000
0001
1000
0010
0100
0010
1000
0001
1000
0100
0010
0001
0010
0100
,
1000
0001
0100
0001
0100
0010
1000
0001
1000
0100
0010
0001
0010
0001
1000
0010
,
0100
0001
1000
0100
0010
0001
1000
0001
0100
0001
1000
0100
0010
0001
0010
0001
,
1000
0001
0100
0010
1000
0001
0010
0100
0010
0001
1000
0001
1000
0000
0000
0000
,
1000
0100
0000
1000
0000
0010
0100
0010
0100
0010
0000
1000
0000
0100
0010
0000
,
0001
0010
0000
0001
0000
1000
0010
0100
0010
0100
0000
0010
0000
0000
1000
0000
,
0100
0010
0000
0001
0000
0010
0001
1000
0001
0100
0000
0010
0000
1000
0001
0000
,
1000
0100
0000
0010
0000
0001
0010
0001
1000
0001
0000
0100
0000
0000
0010
0000
,
1000
0100
0000
1000
0000
0001
0010
0001
0010
0100
0000
1000
0000
0001
0100
0000
,
0001
1000
0000
0010
0000
0100
0010
0100
0010
1000
0000
0100
0000
0000
0010
0000
,
0001
1000
0000
0001
0000
0100
0001
1000
0001
1000
0000
0010
0000
0100
0001
0000
,
0100
0001
0000
1000
0000
0100
0010
0001
0010
0001
1000
0100
1000
0000
0001
0000
,
0010
0001
0000
1000
0100
1000
0000
0001
0100
0001
0100
0010
0000
1000
0010
1000
,
0010
1000
0000
0100
0010
0100
0000
0010
0001
1000
0001
1000
0000
0010
0100
0010
,
0100
0010
0000
1000
0001
1000
0000
0001
0100
0001
0100
0001
0000
0010
0001
0010
,
0001
0010
0000
0100
1000
0100
0000
1000
0001
1000
0001
0100
0000
0010
0100
0010
,
1000
0010
0000
1000
0100
1000
0000
0100
0010
0100
0010
0001
0000
0010
0001
1000
,
0001
1000
0000
0001
0100
0001
0000
0100
0010
0100
0010
1000
0000
0010
1000
0100
,
1000
0100
0000
1000
0010
1000
0000
0010
0100
0010
0100
0001
0000
0100
0001
0100
,
0001
0010
0000
0001
0010
0100
0000
1000
0100
1000
0100
1000
0000
0010
0100
0010
,
1000
0001
1000
0100
0010
0000
0001
0000
1000
0000
0000
0001
0000
0000
0100
0000
,
0010
0000
0000
1000
0000
0000
0100
0010
0001
0000
0010
0001
1000
0100
1000
0010
,
0100
0010
1000
0100
1000
0000
0001
0000
0100
0000
0000
0001
0000
0000
0010
0000
,
0100
1000
0000
0001
0000
1000
0001
0000
0100
0000
0010
1000
0010
1000
0100
1000
,
1002
0000
0000
0000
,
0000
0003
0000
0000
0000
0000
0000
0000
0000
0000
0000
0000
0000
0000
0000
0000
;

//---------------dance-single - KASU----------------
#NOTES:
     dance-single:
     KASU:
     Easy:
     9:
     0.666,0.631,0.095,0.006,0.909,720.000,15.000,1.000,0.000,0.000:

0000
0000
0000
0000
,
0000
0000
0000
0000
,
0000
0000
0000
0000
,
0000
0000
0000
0000
,
0011
0000
0000
0010
0000
0000
0001
1000
0100
0000
1000
0000
0001
0000
0000
0000
,
0011
0000
0000
1000
0000
0000
0100
1000
0100
0000
1000
0000
0010
0000
0000
0000
,
0101
0000
0000
1000
0000
0000
0001
0010
0001
0000
0010
0000
0011
0000
0000
0000
,
1001
0000
0000
1000
0000
0000
0010
0100
0010
0000
1000
0000
1010
0000
0000
0000
,
1000
0000
0000
0001
0000
0000
0010
0000
1100
0000
0000
0010
0000
0000
0001
0000
,
1001
0000
0000
0100
0000
0000
0010
0000
1010
0000
1000
0100
0010
0000
0001
0010
,
0001
0000
1000
0100
1000
0000
0010
0000
0100
0000
0001
0000
1000
0000
0000
0000
,
1001
0000
0010
0001
0010
0000
0100
1000
0100
0000
1000
0000
1001
0000
0000
0000
,
0100
0000
0010
1000
0010
0000
1000
0100
1000
0000
0001
0000
0011
0000
0000
0000
,
1000
0000
0001
0100
0001
0000
1000
0010
1000
0000
0100
0000
0011
0000
0000
0000
,
1000
0000
0001
0100
0001
0000
1000
0010
1000
0000
0100
0000
0010
0000
0001
0000
,
1000
0000
0010
1000
0010
0000
0100
0010
1000
0000
0001
0000
0010
0000
0100
0000
,
1000
0000
0001
0010
0001
0000
0010
0100
0010
0000
0100
0000
1000
0000
0001
0000
,
1000
0001
0000
1000
0001
0000
1000
0001
0000
0100
0010
0000
1000
0000
0000
0000
,
0001
0010
0001
0010
0100
0000
1000
0000
0001
0000
0100
0001
0100
0000
0000
0000
,
0010
1000
0010
1000
0100
0000
0010
0000
0001
0000
0010
0001
0010
0000
0000
0000
,
0100
1000
0000
0001
0000
1000
0001
0000
1000
0000
0010
1000
0010
0000
0000
0000
,
1000
0001
0000
0100
0000
0001
0010
0000
0001
0000
0010
0100
1000
0000
0000
0000
,
0001
1000
0001
1000
0001
0000
1000
0000
0010
0000
0100
0010
0100
0000
0000
0000
,
0001
1000
0001
1000
0100
0000
1000
0000
0010
0000
0100
0010
1000
0000
0000
0000
,
0100
0010
0100
0010
0100
0000
1000
0000
0001
0000
1000
0001
0000
1000
0010
0000
,
0100
0000
0010
1000
0000
0100
1000
0000
0001
0000
0010
0100
0010
0000
0000
0000
,
0001
1000
0000
0001
0000
1000
0010
1000
0010
1000
0000
0100
0000
0000
0000
0000
,
0010
0001
0000
0010
0000
0100
1000
0100
1000
0100
0000
1000
0000
0000
0000
0000
,
0001
0100
0000
0001
0000
1000
0010
1000
0010
1000
0000
0100
0000
0000
0000
0000
,
0010
0001
0000
0010
0000
0100
0010
0100
0010
0001
0000
1000
0000
0001
1000
0000
,
0001
0100
0000
0010
0000
1000
0100
1000
0100
1000
0000
0010
0000
0000
0000
0000
,
0100
0001
0000
0100
0000
0001
0010
0001
0010
0100
0000
1000
0000
0000
0000
0000
,
0001
1000
0000
0001
0000
1000
0010
1000
0010
1000
0000
0001
0000
0000
0000
0000
,
0010
0001
0000
0010
0000
0100
0010
0100
0010
0100
0000
1000
0000
0010
1000
0000
,
0010
0100
0000
0000
0001
0010
0000
0000
0100
1000
0000
1000
0000
0001
1000
0000
,
0001
0100
0000
0000
0010
1000
0000
0000
0100
1000
0000
0001
0000
0100
0001
0000
,
0010
0001
0000
0000
1000
0010
0000
0000
1000
0010
0000
0100
0000
0001
0010
0000
,
0100
1000
0000
0000
0001
1000
0000
0000
0010
0100
0000
0001
0000
0010
0100
0000
,
0010
0001
0000
0000
1000
0010
0000
0000
0100
0001
0000
1000
0000
0100
0010
0000
,
0001
0010
0000
0000
0100
1000
0000
0000
0010
0100
0000
0001
0000
0010
0001
0000
,
1000
0001
0000
0000
0100
0010
0000
0000
1000
0100
0000
1000
0000
0001
0010
0000
,
0100
1000
0000
0000
0001
0100
0000
0000
0010
1000
0000
0010
0000
0010
1000
0000
,
1001
0000
0001
0000
0100
0000
0010
0000
1000
0000
0000
0100
0000
0000
0010
0000
,
0001
0000
0000
1000
0000
0000
0100
1000
0010
0000
0100
0001
0100
0001
0100
0000
,
0001
0000
1000
0010
1000
0000
0100
0000
0010
0000
0000
0001
0000
0000
1000
0000
,
0001
0000
0000
0100
0000
0000
0001
1000
0001
0000
1000
0010
1000
0000
0100
0000
,
0010
0001
0010
0100
1000
0010
0100
1000
,
0100
0010
1000
0100
0001
0100
0010
1000
,
0010
0001
0100
1000
0100
0010
1000
0010
,
0100
0001
0010
1000
0010
0001
0100
0010
,
1000
0100
0001
1000
0001
0100
0010
0001
,
1000
0001
0100
1000
0100
0010
0001
0010
,
1000
0100
0010
0001
0010
1000
0010
0001
,
0100
0000
0010
0000
1000
0000
0001
0000
1001
0000
0001
1000
0001
0000
1000
0000
,
0100
0001
0100
0010
1000
0010
0001
0100
,
1000
0010
1000
0100
0001
0010
1000
0010
,
0001
0100
0010
1000
0100
0001
0010
0001
,
0100
0010
0001
0100
1000
0100
0010
1000
,
0100
0010
1000
0100
1000
0010
0001
0100
,
1000
0100
0010
0001
0100
0001
0010
1000
,
0100
0010
0100
0010
0001
1000
0010
0100
,
0001
0000
1000
0000
0100
0000
0010
0001
0000
1000
0000
0001
1000
0000
0010
0000
,
0100
0001
0000
1000
0000
0100
1000
0001
1000
0001
0000
0100
0000
0010
1000
0000
,
0010
1000
0000
0100
0000
0010
0001
0010
0001
0010
0000
0100
0000
1000
0010
0000
,
1000
0010
0000
0100
0000
0001
0010
0001
0010
0001
0000
0100
0000
0001
1000
0000
,
0001
1000
0000
0010
0000
0100
0010
0100
0010
1000
0000
0010
0000
1000
0100
0010
,
0001
0010
0000
0001
0000
1000
0010
0000
1000
0010
0000
0100
0000
0010
0100
0010
,
1000
0001
0000
1000
0000
0001
0100
0000
0001
0010
0000
0001
0000
0010
0100
1000
,
0100
1000
0000
0010
0000
0100
0001
0000
1000
0001
0000
1000
0000
0010
0100
0000
,
0010
1000
0000
0100
0000
0010
0001
0010
0001
1000
0000
0100
0000
1000
0000
0010
,
0100
0010
0000
1000
0001
1000
0000
0001
0100
0001
0000
0010
0000
0001
0010
0000
,
0100
1000
0000
0100
1000
0100
0000
1000
0010
1000
0000
0010
0000
0100
0001
0000
,
0100
0001
0000
0100
0001
0010
0000
0001
0010
0100
0000
1000
0000
0001
1000
0000
,
0001
0100
0000
0010
1000
0010
0000
1000
0100
1000
0000
0001
0000
0100
0001
0000
,
0010
0001
0010
0000
0100
1000
0000
0100
1000
0010
0000
0100
0000
0010
1000
0000
,
0010
1000
0000
0100
1000
0100
0000
1000
0001
1000
0000
0001
0000
0100
0001
0000
,
0100
0010
0000
0100
0010
1000
0000
0010
1000
0100
0000
1000
0000
0001
0010
0000
,
0001
0010
0000
0100
0010
0100
0000
1000
0001
1000
0000
0001
0000
0100
0010
0000
,
1000
0000
0100
1000
0001
0000
0100
0000
0001
0000
0000
0010
0000
0000
0100
0000
,
1000
0000
0000
0001
0000
0000
0100
0010
1000
0000
0010
1000
0010
0100
0001
0010
,
0001
0000
0000
1000
0000
0000
0001
0000
0100
0000
0000
0010
0000
0000
1000
0000
,
0001
0000
0000
1000
0000
0000
0010
0100
0010
0000
1000
0001
0010
0100
0010
0001
,
2000
0000
0000
0000
,
3000
0000
0000
0000
;
