#TITLE:Ergonomic;
#SUBTITLE:Reroute to Remain;
#ARTIST:In Flames;
#TITLETRANSLIT:;
#SUBTITLETRANSLIT:;
#ARTISTTRANSLIT:;
#CREDIT:;
#BANNER:Ergonomic-bn.png;
#BACKGROUND:Ergonomic-bg.png;
#LYRICSPATH:;
#CDTITLE:!kommi-cdtitle.png;
#MUSIC:Ergonomic.mp3;
#OFFSET:-0.640;
#SAMPLESTART:40.380;
#SAMPLELENGTH:12.500;
#SELECTABLE:YES;
#BPMS:0.000=229.680;
#STOPS:;
#BGCHANGES:;
// cache tags:
#FIRSTBEAT:0.000;
#LASTBEAT:582.000;
#SONGFILENAME:Songs/KBU/Ergonomic (Kommisar)/ergo.sm;
#HASMUSIC:1;
#HASBANNER:1;
#MUSICLENGTH:156.660;
// end cache tags

//---------------dance-single - ----------------
#NOTES:
     dance-single:
     :
     Hard:
     12:
     1.000,1.000,1.000,1.000,0.252,1155.000,453.000,199.000,0.000,0.000:
1001
0110
0011
1100
0110
0101
1000
0011
,
1100
0001
0110
1010
0001
1100
0011
1010
,
0101
1010
0110
1100
0011
1100
0010
1001
,
0110
1000
0011
1100
0010
1001
0110
2200
,
3300
1000
1000
1000
1000
0000
0000
2200
,
3300
1000
1000
1000
1000
0000
0000
0011
,
1100
0011
0110
1010
0011
1100
0010
1001
,
0110
1000
0101
1010
0100
0011
1100
1010
,
0101
1100
0110
1001
0101
0011
1000
0110
,
1001
0000
0100
0000
0011
0000
1100
0000
0001
0000
0110
0000
1001
0100
0010
0100
,
1001
0110
0001
1100
0010
1001
0100
0011
,
1000
0110
0001
1010
0100
0011
0100
2002
,
3003
0001
0001
0001
0001
0001
0001
2002
,
3003
0001
0001
0001
0001
0001
0001
0110
,
1000
0110
0001
1010
0100
1001
0010
1100
,
0010
1001
0100
0011
1000
0101
0010
2002
,
3003
1000
1000
1000
1000
1000
1000
2002
,
3003
0001
0001
0001
0001
0001
0001
0110
,
1000
0101
1000
0110
0001
1100
0010
1001
,
0100
0011
1000
0110
0001
1010
0100
0022
,
0033
0010
0010
0010
0010
0010
0010
0022
,
0033
0010
0010
0010
0010
0010
0010
1100
,
0010
1001
0100
0011
1000
0110
0001
1100
,
0010
1001
0100
0011
1000
0101
0010
2200
,
3300
1000
1000
1000
1000
1000
1000
0110
,
1001
0100
0010
0001
0010
0100
0010
0001
0010
0100
0010
0100
1001
0010
0100
0010
,
1100
0011
1100
0110
0101
1010
0100
0011
,
1100
0010
1001
0110
1000
0011
1010
0110
,
0011
1001
1100
0110
1001
0101
0010
1100
,
0011
0000
1000
0000
0101
0000
1010
0000
0100
0000
0011
0000
1100
0001
1000
0001
,
0110
1100
0010
1001
0100
0011
1000
0110
,
0001
1010
0100
1001
0100
0011
1000
0202
,
0303
0100
0100
0100
0100
0100
0100
0202
,
0303
0100
0100
0100
0100
0100
0100
0011
,
0100
1010
0100
0011
1000
0110
0001
1010
,
0100
0011
1000
0110
0001
1010
0001
2200
,
3300
0000
0100
0000
0100
0000
0100
0000
0100
0000
0100
0000
0100
0000
2002
3003
,
0011
0100
1000
0100
0010
0001
0010
0100
1001
0110
0001
0010
0100
1000
0100
0010
,
1001
0100
0010
0100
0010
0100
1001
0100
,
0011
1000
0100
0011
1000
0110
1000
0011
,
0100
1010
0100
0001
0010
0100
1000
0100
,
0011
1000
0100
1010
0100
0011
1000
0110
,
1000
0001
0010
0100
0010
0001
0010
0100
,
1001
0110
0001
1100
0010
1001
0100
0011
,
1100
0010
0001
0010
1100
0000
0011
0000
0100
0000
0010
0000
0100
0000
0010
0000
,
1100
0000
0011
0000
1000
0000
0110
0000
1001
0100
0010
0100
0011
1000
0001
1000
,
0110
0101
1000
0010
1000
0001
1000
0010
,
1100
0010
1000
0011
1000
0110
0001
1010
,
0001
1000
0001
1000
0001
1000
0110
1000
,
0011
1000
0001
0110
1000
0110
0001
1010
,
0100
0011
0100
0010
0100
0010
0100
0010
,
1100
0000
0011
0000
1000
0000
0110
0000
0011
0100
1000
0100
0010
0001
0010
0100
,
1001
0110
0001
1010
0100
0001
0010
0100
,
1001
0000
0010
0100
0010
0000
1001
0000
1100
0010
0001
0010
0100
1000
0100
0010
,
1001
0011
0100
1010
0001
1100
0010
1001
,
0100
0011
1000
0110
0001
1010
0100
0022
,
0033
0001
0001
0001
0001
0001
0001
0022
,
0033
0001
0001
0001
0001
0001
0001
1010
,
0100
0011
1000
0110
0001
1100
0010
1001
,
0100
0011
1000
0101
0010
1100
0001
2020
,
3030
1000
1000
1000
1000
1000
1000
0110
,
1001
0010
0100
1000
0100
0010
0100
0010
1001
0110
0001
0010
0100
1000
0100
0010
,
1001
0010
0001
0010
0001
0010
1001
0010
,
1100
0001
0100
0011
1000
0110
0001
1010
,
0100
0011
1000
0010
1000
0010
1000
0010
,
1100
0001
0010
1100
0010
1001
0100
0011
,
1000
0010
0100
0010
0100
0010
0100
0010
,
1001
0000
0110
0000
1000
0000
0011
0000
0100
0000
1010
0000
0011
1000
0001
1000
,
0011
1010
0001
1100
0010
0001
0010
0001
,
1100
0000
0011
0000
1000
0000
0110
0000
1001
0100
0010
0100
0010
0001
0010
0100
,
1001
0100
0010
0001
0010
1000
0010
1000
,
0011
0100
0010
1100
0010
1001
0100
0011
,
1000
0010
0100
0010
1000
0001
1010
0100
,
0011
1000
0010
1100
0001
1010
0100
0011
,
1000
0110
0001
1000
0001
1000
0001
1000
,
0011
0000
1100
0000
0010
0000
0101
0000
0010
0000
1100
0000
0011
1000
0001
1000
,
0011
1100
0010
1001
0100
0010
1000
0010
,
1001
0000
0110
0000
1000
0000
0011
0000
1100
0001
0010
0100
1000
0100
0010
0001
,
1100
0001
0010
0100
1010
0001
0010
0100
,
0010
0001
0010
0100
1010
0001
0100
0220
,
0330
1000
0100
0010
0101
1000
0100
0010
,
0100
0001
1000
0001
1100
0010
1000
2020
,
3030
0100
0010
0100
1001
0100
0010
0100
,
0001
0100
0010
0100
0011
1000
0010
0220
,
0330
0001
0010
0100
1010
0100
0010
0001
,
0100
0010
1100
0001
1100
0011
1100
2200
,
3300
0000
0002
0003
0020
0030
0200
0300
2010
3000
0200
0300
0020
0030
0002
0003
,
0020
0030
0200
0300
0020
0030
2000
3000
0012
0003
0200
0300
0020
0030
0022
0000
,
0033
0000
2000
3000
0200
0300
0020
0030
2002
3003
0200
0300
0020
0030
0002
0000
,
2003
3000
0020
0030
0200
0300
0002
0003
1200
0300
0020
0030
2000
3000
2200
0000
,
3300
0000
0020
0030
0200
0300
0002
0003
2010
3000
0200
0300
0020
0030
0200
0300
,
0002
0003
0200
0300
0020
0030
2000
3000
0120
0030
0002
0003
0020
0030
0220
0000
,
0330
0000
0002
0003
0020
0030
0200
0300
2001
3000
0200
0300
0020
0030
0200
0300
,
1001
0000
0110
0000
1010
0000
0101
0000
1001
0010
0100
0010
0100
0000
2200
0000
,
3300
0000
0001
0100
1010
0000
0010
0022
,
0033
0000
1000
0000
0011
0000
0100
0220
,
0330
0000
0001
0010
1100
0000
0001
2002
,
3003
0000
0001
0000
0110
0000
0001
0202
,
0303
0000
1000
0001
0110
0000
1000
2020
,
3030
0000
0100
0000
0011
0000
0100
2200
,
3300
0000
0000
0000
0100
0000
0010
0000
1001
0000
0000
0000
0010
0000
0220
0330
,
1001
0100
0010
0001
0010
0000
0100
0000
0001
0010
0100
0010
1001
0000
0220
0000
,
0330
0000
0001
0010
0101
0000
1000
2002
,
3003
0000
0100
0000
0011
0000
0100
0202
,
0303
0000
0010
0001
1100
0000
0010
2020
,
3030
0000
0100
0000
1001
0000
0010
0022
,
0033
0000
0100
1000
0011
0000
0100
0220
,
0330
0000
0001
0000
0110
0000
1000
2200
,
3300
0000
0000
0000
0010
0000
0001
0000
1100
0000
0000
0000
0010
0000
0220
0330
,
1001
1001
1001
1001
1001
1001
1001
1001
,
0110
0000
0000
0000
0002
0003
0020
0030
0202
0303
2000
3000
0200
0300
0020
0030
,
0200
0300
0020
0030
0200
0300
0002
0003
2020
3030
0200
0300
0001
0000
0022
0000
,
0033
0000
0200
0300
0020
0030
0002
0003
2100
3000
0020
0030
0200
0300
0002
0003
,
2000
3000
0020
0030
0200
0300
0002
0003
1200
0300
0020
0030
2000
3000
2200
0000
,
3300
0000
0002
0003
0200
0300
0020
0030
2100
3000
0002
0003
0200
0300
0020
0030
,
2000
3000
0002
0003
0200
0300
0020
0030
0202
0303
2000
3000
0020
0030
0022
0000
,
0033
0000
0200
0300
0020
0030
0002
0003
2010
3000
0200
0300
0020
0030
0002
0003
,
0200
0300
0002
0003
2000
3000
0020
0030
1002
0003
0200
0300
0020
0030
0202
0000
,
0303
0101
0101
0101
0101
0000
0000
0202
,
0303
0101
0101
0101
0101
0000
0000
0000
,
1001
0100
0010
0100
0010
0100
0011
1000
,
0110
0001
0010
1100
0010
1001
0100
0011
,
1000
0101
0010
1000
0100
0010
1000
0100
,
0011
1000
0010
0101
1000
0110
0001
1100
,
0010
0100
0001
0100
0010
0100
0010
1000
,
0110
0000
0001
1000
0001
0000
1000
0001
1000
0000
0011
1000
0100
0010
0001
0010
,
1001
0011
0100
1010
0100
0001
0100
0001
,
1100
0000
0011
0000
1000
0000
0110
0000
1001
0010
0100
1000
0100
0010
0100
0010
,
1001
0010
0100
0010
0100
0001
0100
0010
,
0101
1000
0010
1100
0001
1010
0100
0011
,
1000
0010
0100
0010
0001
0100
1010
0100
,
0011
1000
0010
1100
0001
1010
0100
0011
,
1000
0110
0001
1000
0001
1000
0001
1000
,
0011
0000
1100
0000
0010
0000
0101
0000
1100
0001
0010
0100
1000
0100
0010
0100
,
0011
1100
0010
1001
0100
0010
0100
0010
,
1001
0000
0100
0010
0100
0000
1001
0000
0110
0001
0010
0100
0010
0001
0010
0100
,
1001
0011
0110
1100
1001
0110
0001
1100
,
0011
1000
0101
1010
0001
0110
1001
0110
,
0101
1010
0110
0101
1010
0110
0010
1001
,
0110
1000
0110
1010
0001
1100
0011
0101
,
1010
0110
0011
1100
1001
0110
0001
1100
,
0011
0100
1010
0101
1000
0110
0011
0101
,
1100
0011
1100
0110
0101
1010
0100
0011
,
1100
0010
1001
1100
0010
0101
1100
0022
,
0033
0011
0011
0011
0011
0000
0000
0022
,
0033
0011
0011
0011
0011
0000
0000
0000
;
