#TITLE:Look to the Sky;
#SUBTITLE:Full Version;
#ARTIST:system sf feat anna;
#TITLETRANSLIT:;
#SUBTITLETRANSLIT:;
#ARTISTTRANSLIT:;
#CREDIT:;
#BANNER:../fallback-bn.png;
#BACKGROUND:../fallback-bg.png;
#LYRICSPATH:;
#CDTITLE:monst3rjoe - cdtitle.png;
#MUSIC:lttsky.ogg;
#OFFSET:-0.339;
#SAMPLESTART:59.600;
#SAMPLELENGTH:12.000;
#SELECTABLE:YES;
#BPMS:0.000=140.005,160.000=70.005,192.000=140.010;
#STOPS:161.000=0.006
,192.125=-0.008
,624.000=0.003
,735.000=0.002
;
#BGCHANGES:;
// cache tags:
#FIRSTBEAT:28.000;
#LASTBEAT:859.000;
#SONGFILENAME:Songs/SSSC PACK/[Monst3rjoe] - Look to the sky (Full version)/lttsky.sm;
#HASMUSIC:1;
#HASBANNER:1;
#MUSICLENGTH:385.175;
// end cache tags

//---------------dance-single - ----------------
#NOTES:
     dance-single:
     :
     Challenge:
     13:
     0.999,1.000,0.055,0.104,1.000,2628.000,21.000,40.000,20.000,0.000:

0000
0000
0000
0000
,
0000
0000
0000
0000
,
0000
0000
0000
0000
,
0000
0000
0000
0000
,
0000
0000
0000
0000
,
0000
0000
0000
0000
,
0000
0000
0000
0000
,
0014
0000
0200
0000
0000
0000
0000
0300
,
0103
0000
0010
0000
1010
0000
0010
1000
0100
0000
1000
0000
1100
0000
0100
1000
,
0001
0000
1000
0000
1001
0000
0001
0100
0001
0000
0100
0000
0110
0000
0010
1000
,
0010
0000
1000
0000
1100
0000
0100
1000
0100
0000
1000
0000
1001
0000
0001
0010
,
0001
0000
0010
0000
0011
0000
0001
0100
0001
0000
0100
0000
0110
0000
0010
1000
,
0100
0000
1000
0000
1001
0000
0001
0100
0001
0000
0100
0000
0110
0000
0010
1000
,
0100
0000
1000
0000
1001
0000
0001
0010
0001
0000
0010
0000
0110
0000
0100
1000
,
0010
0000
0100
0000
0101
0000
0001
0010
0100
0000
1000
0000
1100
0000
0100
0010
,
0001
0000
1000
0000
1001
0000
0001
1000
0010
0000
0100
0000
1001
0000
0000
0000
,
0001
0000
0100
0000
0100
0000
0000
0010
2000
0000
3200
0000
0320
0000
0032
0000
,
0103
0000
0010
0000
0010
0000
0000
1000
0002
0000
0023
0000
0230
0000
2300
0000
,
3010
0000
0100
0000
0100
0000
0000
0001
2000
0000
3020
0000
0230
0000
0302
0000
,
0013
0000
0100
0000
0100
0000
0000
1000
0002
0000
0203
0000
0320
0000
2030
0000
,
3100
0000
1000
0000
1000
0000
0000
0001
0200
0000
0320
0000
2030
0000
3002
0000
,
0013
0000
0001
0000
0001
0000
0000
1000
0200
0000
0320
0000
0230
0000
2300
0000
,
3010
0000
0100
0000
0100
0000
0000
0001
0020
0000
0032
0000
0203
0000
0320
0000
,
1030
0000
0001
0000
0001
0000
0000
0100
0020
0000
2030
0000
3200
0000
2300
0000
,
3001
0000
0002
0000
1003
0010
1000
0001
1000
0100
1000
0001
0010
0000
0001
0000
,
0100
0010
1000
0100
1000
0010
0100
0001
,
1000
0000
2000
0000
3001
1000
0010
1000
0001
1000
0100
1000
0001
0000
0010
0000
,
0100
1000
0010
0100
0001
1000
0100
1000
,
0001
0000
0002
0000
1003
0010
1000
0001
1000
0100
1000
0001
0010
0000
0001
0000
,
0100
0010
1000
0100
1000
0010
0100
0001
,
1000
0000
2000
0000
3001
1000
0010
1000
0001
1000
0100
1000
0001
0000
0010
0000
,
0100
1000
0010
0100
0001
1000
0100
1000
,
0001
0010
0001
0100
0010
1000
0100
0010
0001
0100
0001
0010
0001
0100
0010
1000
,
0100
1000
0010
0100
0001
0010
0001
0100
0010
1000
0100
1000
0010
0100
0001
0010
,
0001
0100
0010
0100
0010
0100
0010
1000
0010
1000
0001
1000
0001
0010
0001
0010
,
0100
0010
0100
0010
0100
1000
0001
0100
0001
0010
0001
0100
0010
1000
0100
1000
,
0010
0100
0001
0010
0001
0100
0001
0100
0001
0100
0010
0100
0001
0100
0010
0100
,
0001
0010
0100
1000
0010
0100
0001
0010
0001
0100
0010
1000
0100
0010
0100
1000
,
0100
0010
0100
1000
0001
0100
0001
0010
0001
0100
0010
1000
0100
0010
0001
1000
,
0001
1000
0001
1000
0001
1000
0001
1000
0001
1000
0001
1000
0001
1000
0001
1000
0001
1000
0001
1000
0001
1000
0001
1000
,
0001
0000
0000
0000
,
0000
0000
0000
0000
,
0001
0000
0100
0000
0100
0000
0000
0001
0010
0000
0100
0000
1000
0000
0100
0000
0010
0000
0001
0000
0100
0000
0000
0010
1000
0000
0100
0000
1000
0000
0001
0000
,
0100
0000
0010
0000
1000
0000
0000
0001
0100
0000
0010
0000
1000
0000
0100
0000
0010
0000
0001
0000
0010
0000
0000
0100
1000
0000
0001
0000
0100
0000
0100
0000
,
0001
1000
0001
1000
0001
1000
0001
1000
0001
1000
0001
1000
0001
1000
0001
1000
0010
0100
0010
0100
0010
0100
0010
0100
0010
0100
0010
0100
0010
0100
0010
0100
,
0001
0010
0001
0010
0001
0010
0001
0010
0001
0010
0001
0010
0001
0010
0001
0010
0100
1000
0100
1000
0100
1000
0100
1000
0100
1000
0100
1000
0100
1000
0100
1000
,
0010
1000
0010
1000
0010
1000
0010
1000
0010
1000
0010
1000
0010
1000
0010
1000
0001
0100
0001
0100
0001
0100
0001
0100
0001
0100
0001
0100
0001
0100
0001
1000
,
0001
1000
0001
1000
0001
1000
0001
1000
0001
1000
0001
1000
0001
1000
0001
1000
0100
1000
0100
1000
0100
1000
0100
1000
0100
1000
0100
1000
0100
1000
0100
1000
,
0001
0000
0100
0010
0100
0000
0010
1000
0010
0000
1000
0100
1000
0000
0001
1000
,
0001
0000
0100
0001
0100
0000
0001
0010
0001
0000
0010
0100
0010
0000
0100
1000
,
0100
0000
1000
0010
1000
0000
0001
0100
0001
0000
1000
0010
1000
0000
0100
1000
,
0100
0000
0010
0100
0010
0000
0001
0010
0001
0000
0100
0001
0100
0000
0001
1000
,
0001
0000
1000
0010
1000
0000
0100
1000
0001
0000
1000
0001
0100
0000
0001
0010
,
0001
0000
0100
0010
1000
0000
0100
1000
0010
0000
0100
0001
0010
0000
0001
0100
,
0010
0000
1000
0100
1000
0000
0010
0100
0001
0000
0010
0001
0100
0000
0001
0010
,
0001
0000
0100
0010
0100
0000
0010
1000
0010
0000
1000
0100
1000
0000
0100
1000
,
0010
0000
0100
0001
0010
0000
0001
0100
0010
0000
1000
0100
1000
0000
0010
0100
,
0001
0000
0010
0001
0100
0000
0010
1000
0100
0000
0010
0001
0100
0000
0001
0100
,
0001
0000
0010
0001
0010
0000
0001
0100
0001
0000
0100
0010
0100
0000
0010
1000
,
0010
0000
1000
0100
1000
0000
0001
1000
0001
0000
1000
0001
1000
0000
0100
0010
,
0100
0000
1000
0100
1000
0000
0010
0100
0010
0000
1000
0100
0010
0000
0010
0100
,
1000
0000
1000
0010
0100
0000
0001
0010
0001
0000
0100
0010
1000
0000
0100
1000
,
0010
0000
0100
0001
0010
0000
0001
0100
0001
0000
0010
0001
0010
0000
0001
0100
,
0010
0000
0100
0010
1000
0000
0100
1000
0100
0000
0010
0100
0010
0100
0010
0100
,
1000
0000
0000
0000
0010
0000
0000
0100
0001
0000
0001
0000
0010
0000
0010
0000
,
0100
0000
0000
0000
1000
0000
0000
0001
0100
0000
0100
0000
0010
0000
0010
0000
,
1000
0000
0000
0000
0001
0000
0000
1000
0100
0000
0100
0000
0010
0000
0010
0000
,
0004
0000
0000
0000
4000
0000
0000
3003
,
0001
0100
0010
1000
0100
1000
0010
0100
0001
0010
0001
0100
0010
1000
0100
0010
,
0001
0100
0001
0010
0001
0100
0010
1000
0100
1000
0010
0100
0001
0010
0001
0100
,
0010
1000
0010
1000
0010
1000
0010
1000
0100
1000
0100
1000
0100
1000
0100
1000
,
0001
0010
0100
1000
0001
0010
0100
1000
0001
0010
0001
0100
0010
1000
0100
1000
,
0010
0100
0001
0100
0001
0100
0001
0100
0001
0010
0001
0010
0001
0010
0001
0010
,
0100
0010
0100
0010
0100
0010
0100
1000
0100
1000
0100
1000
0100
1000
0010
0100
,
0001
0010
0001
0100
0010
1000
0100
1000
0010
0100
0001
0010
0001
0100
0010
1000
,
0100
1000
0010
1000
0001
1000
0010
1000
0001
1000
0100
1000
0100
1000
0100
1000
,
0100
0010
0001
0010
0001
0100
0010
1000
0100
0010
0001
0100
0001
0010
0001
0100
,
0010
1000
0100
1000
0010
0100
0001
0010
0001
0100
0010
1000
0100
1000
0010
0100
,
0001
0010
0001
0010
0001
0010
0001
0000
M0M1
0100
0001
0100
0001
0100
0010
0000
,
0M1M
1000
0010
1000
0010
1000
0010
M00M
0010
0100
0001
0100
0001
0100
0001
1000
,
0001
1000
0100
1000
0010
1000
0100
1000
0010
0100
0001
0010
0001
0100
0010
1000
,
0100
1000
0010
0100
0001
0010
0100
0010
0001
1000
0100
1000
0010
1000
0010
0100
,
0001
0010
0001
0100
0010
1000
0100
1000
0010
0100
0001
0010
0001
0100
0010
1000
,
0010
1000
0010
1000
0010
1000
0010
1000
0010
0100
0010
0100
0001
0100
0001
0100
,
0001
0000
0010
0000
0100
0000
0000
1000
0100
0000
1000
0000
0010
0000
0100
0001
,
0010
0000
0001
0000
0100
0000
0000
0010
1000
0010
1000
0100
1000
0000
0001
0100
,
0001
0000
0010
0000
0001
0000
0000
0100
0001
0000
0100
0000
0010
0000
1000
0100
,
1000
0000
0010
0000
0100
0000
0001
0010
0000
0001
0010
0000
0001
0000
0100
0010
,
0100
0010
1000
0100
1000
0000
0010
0100
0010
0100
0010
0100
0001
0000
0010
0001
,
0010
0001
0010
0001
1000
0000
0100
1000
0100
1000
0100
1000
0010
0000
0000
1000
,
0010
0100
0001
0010
0001
0100
0001
1000
0001
1000
0010
0100
0001
0010
0001
0100
,
0010
0000
1000
0000
1000
0000
0100
1000
0000
0100
1000
0000
0001
0000
0100
0000
,
0001
0010
0001
0000
0001
0000
0001
0000
0010
0100
0010
0100
0010
0000
0010
0000
,
0001
0100
0001
0100
0001
0000
0001
0000
0100
0010
0100
0010
0100
0000
0100
0000
,
0001
0010
0001
0010
0001
0000
0001
0000
1000
0010
1000
0010
1000
0000
1000
0000
,
0001
0010
0100
0000
0010
0100
1000
0000
0100
1000
0010
0000
0100
0001
0010
0000
,
0001
0100
0010
1000
0100
1000
0010
0100
0001
0010
0001
0100
0010
1000
0100
0010
,
0001
0100
0010
1000
0100
1000
0010
0100
0001
0010
0001
0100
0010
1000
0100
1000
,
0010
0100
0001
0010
0001
0100
0010
1000
0100
0010
0001
0100
0010
1000
0100
1000
,
0010
0100
0001
0010
0001
0100
0010
1000
0001
1000
0001
1000
0001
1000
0001
1000
,
0001
0100
0000
0010
1000
0000
0100
1000
0000
0010
0000
0100
0001
0000
0010
0001
,
0000
0100
0000
0010
1000
0000
0100
1000
0000
0010
0000
0100
0001
0000
0010
0001
,
0100
0010
0000
1000
0100
0000
1000
0010
0000
0100
0000
0001
0010
0000
0100
0010
,
0000
0100
0000
1000
0010
0000
0100
0001
0000
0010
0000
0001
0100
0010
1000
0100
,
1000
0010
0000
0100
0001
0000
0010
0100
0000
0010
0000
0100
1000
0000
0001
0100
,
0000
0010
0000
1000
0100
0000
1000
0010
0000
0100
0000
0001
0010
0000
0001
0100
,
0000
0010
0000
0010
1000
0000
0100
1000
0000
0010
0000
0100
0001
0000
0010
0001
,
0000
0010
0000
0100
0010
0000
0100
1000
0000
0010
0000
0100
0010
0000
1001
0000
,
1000
0100
1000
0010
0100
0001
0010
0001
0100
0010
1000
0100
1000
0010
0100
0000
,
0001
0010
0001
0100
0010
1000
0100
1000
0010
0100
0001
0010
0001
0100
0010
0000
,
0010
1000
0010
0000
0100
0000
0001
0100
0001
0000
0000
0000
1000
0000
0001
0010
,
0001
0010
0100
1000
0010
0100
0001
0010
0001
0100
0010
1000
0100
0000
1000
0001
,
0100
0001
1000
0010
0100
0001
0010
0001
0100
0010
1000
0100
1000
0010
0100
0001
,
0100
0001
0010
0001
0100
0010
1000
0100
1000
0010
0100
0001
0010
0100
1000
0100
,
1000
0010
1000
0010
0100
0001
0010
0001
0010
0001
0100
0010
1000
0100
1000
0010
,
0100
0001
0100
0001
0010
0001
1000
0001
1000
0100
1000
0100
0010
0100
0010
0100
,
0010
0000
0001
0000
,
0001
0000
1000
0000
0100
0000
0000
1000
0010
0000
0100
0000
0001
0000
0000
0000
,
0010
0000
0001
0000
0001
0000
0000
0100
0010
0000
1000
0000
0100
0000
0000
0000
,
0010
0000
0100
0000
0100
0000
0000
1000
0001
0000
0010
0000
0010
0000
0100
0000
,
1000
0000
0010
0000
0100
0000
0001
0010
0001
0000
0100
0000
0010
0000
0000
0000
,
1000
0000
0100
0000
0100
0000
0010
0100
0010
0000
0100
0000
2000
0000
0000
0000
,
3010
0000
0100
0000
0001
0000
0100
0001
0100
0000
0100
0000
0002
0000
0000
0003
,
0100
0000
0010
0000
1000
0000
0100
1000
0010
0100
0001
0000
0002
0000
0000
0003
,
1000
0010
0100
0001
0010
0001
0100
0010
1000
0100
1000
0010
0100
0001
0010
0001
,
0100
0010
1000
0100
1000
0010
0100
0001
0010
0001
0100
0010
1000
0100
0010
0001
,
0100
0001
0010
0001
0100
0010
1000
0100
1000
0010
0100
0001
0010
0001
0100
0010
,
1000
0100
0010
0100
1000
0100
0010
0100
1000
0001
0100
0010
0100
0001
0100
0010
,
0100
0001
0010
0100
1000
0010
0100
0001
0010
0001
0100
0010
1000
0100
0010
0001
,
0100
0010
1000
0100
1000
0010
0100
0001
0010
0001
0100
0010
1000
0100
1000
0010
,
0100
0001
0010
0001
0100
0010
1000
0001
0100
0010
1000
0001
0010
0100
1000
0001
,
0010
0100
1000
0100
0010
0001
0010
0100
0010
0100
0010
0100
1000
0100
1000
0010
,
0100
0001
0010
0001
0100
0010
1000
0100
0010
0001
0100
0010
1000
0100
1000
0010
,
0100
0001
0010
0001
0100
0010
1000
0100
1000
0010
0100
0001
0010
0001
0100
0010
,
1000
0100
0010
0001
0100
0010
1000
0100
1000
0010
0100
0001
0010
0001
0100
0010
,
1000
0100
0010
0100
0010
0100
0010
0100
0010
0001
0010
0001
0010
0001
0010
0001
,
0100
0001
0100
0001
0100
0001
0100
0001
0100
0010
1000
0010
1000
0010
1000
0010
,
1000
0100
1000
0100
1000
0100
1000
0100
1000
0001
1000
0001
1000
0001
1000
0001
,
0100
0001
0100
0001
0100
0001
0100
0010
0100
0010
0100
0010
0100
0001
0100
0001
,
1000
0001
1000
0001
1000
0001
1000
0001
1000
0001
1000
0001
1000
0001
1000
0001
1000
0001
1000
0001
1000
0001
1000
0001
,
1000
0000
0010
0100
0010
0000
0100
0001
0100
0000
0001
0010
0001
0000
1000
0001
,
1000
0000
0010
1000
0010
0000
1000
0100
1000
0000
0100
0010
0100
0000
0010
0001
,
0010
0000
0001
0100
0001
0000
1000
0010
1000
0000
0001
0100
0001
0000
0010
0001
,
0010
0000
0100
0010
0100
0000
1000
0100
1000
0000
0010
1000
0010
0000
1000
0001
,
1000
0000
0001
0100
0001
0000
0010
0001
1000
0000
0001
1000
0010
0000
1000
0100
,
1000
0000
0010
0100
0001
0000
0010
0001
0100
0000
0010
1000
0100
0000
1000
0010
,
0100
0000
0001
0010
0001
0000
0100
0010
1000
0000
0100
1000
0010
0000
1000
0100
,
1000
0000
0010
0100
0010
0000
0100
0001
0100
0000
0001
0010
0001
0000
0010
0001
,
0100
0000
0010
1000
0100
0000
1000
0010
0100
0000
0001
0010
0001
0000
0100
0010
,
1000
0000
0100
1000
0010
0000
0100
0001
0010
0000
0100
1000
0010
0000
1000
0010
,
1000
0000
0100
1000
0100
0000
1000
0010
1000
0000
0010
0100
0010
0000
0100
0001
,
0100
0000
0001
0010
0001
0000
1000
0001
1000
0000
0001
1000
0001
0000
0010
0100
,
0010
0000
0001
0010
0001
0000
0100
0010
0100
0000
0001
0010
0100
0000
1000
0010
,
0100
0000
0001
0100
0010
0000
1000
0100
1000
0000
0010
0100
0001
0000
0010
0001
,
0100
0000
0010
1000
0100
0000
1000
0010
1000
0000
0100
1000
0100
0000
1000
0010
,
0100
0000
0010
0100
0001
0000
0010
0001
0010
0000
0100
0010
0100
0010
0100
0010
,
0001
0000
0000
0000
0100
0000
0000
0010
1000
0000
1000
0000
0100
0000
0100
0000
,
0010
0000
0000
0000
0001
0000
0000
1000
0010
0000
0010
0000
0100
0000
0100
0000
,
0001
0000
0000
0000
1000
0000
0000
0001
0010
0000
0010
0000
0100
0000
0100
0000
,
4000
0000
0000
0000
0004
0000
0000
3003
,
1000
0010
0100
0001
0010
0001
0100
0010
1000
0100
1000
0010
0100
0001
0010
0100
,
1000
0010
1000
0100
1000
0010
0100
0001
0010
0001
0100
0010
1000
0100
1000
0010
,
0100
0001
0100
0001
0100
0001
0100
0001
0010
0001
0010
0001
0010
0001
0010
0001
,
1000
0100
0010
0001
1000
0100
0010
0001
1000
0100
1000
0010
0100
0001
0010
0001
,
0100
0010
1000
0010
1000
0010
1000
0010
1000
0100
1000
0100
1000
0100
1000
0100
,
0010
0100
0010
0100
0010
0100
0010
0001
0010
0001
0010
0001
0010
0001
0100
0010
,
1000
0100
1000
0010
0100
0001
0010
0001
0100
0010
1000
0100
1000
0010
0100
0001
,
0010
0001
0100
0001
1000
0001
0100
0001
1000
0001
0010
0001
0010
0001
0010
0001
,
0010
0100
1000
0100
1000
0010
0100
0001
0010
0100
1000
0010
1000
0100
1000
0010
,
0100
0001
0010
0001
0100
0010
1000
0100
1000
0010
0100
0001
0010
0001
0100
0010
,
1000
0100
1000
0100
1000
0100
1000
0000
1M0M
0010
1000
0010
1000
0010
0100
0000
,
M1M0
0001
0100
0001
0100
0001
0100
M00M
0100
0010
1000
0010
1000
0010
1000
0001
,
1000
0001
0010
0001
0100
0001
0010
0001
0100
0010
1000
0100
1000
0010
0100
0001
,
0010
0001
0100
0010
1000
0100
0010
0100
1000
0001
0010
0001
0100
0001
0100
0010
,
1000
0100
1000
0010
0100
0001
0010
0001
0100
0010
1000
0100
1000
0010
0100
0001
,
0100
0001
0100
0001
0100
0001
0100
0001
0100
0010
0100
0010
1000
0010
1000
0010
,
1000
0000
0100
0000
0010
0000
0000
0001
0010
0000
0001
0000
0100
0000
0010
1000
,
0100
0000
1000
0000
0010
0000
0000
0100
0001
0100
0001
0010
0001
0000
1000
0010
,
1000
0000
0100
0000
1000
0000
0000
0010
1000
0000
0010
0000
0100
0000
0001
0010
,
0001
0000
0100
0000
0010
0000
1000
0100
0000
1000
0100
0000
1000
0000
0010
0100
,
0010
0100
0001
0010
0001
0000
0100
0010
0100
0010
0100
0010
1000
0000
0100
1000
,
0100
1000
0100
1000
0001
0000
0010
0001
0010
0001
0010
0001
0100
0000
0000
0001
,
0100
0010
1000
0100
1000
0010
1000
0001
1000
0001
0100
0010
1000
0100
1000
0010
,
0400
0000
0304
0000
,
1003
0100
1000
0000
1000
0000
1000
0000
0100
0010
0100
0010
0100
0000
0100
0000
,
1000
0010
1000
0010
1000
0000
1000
0000
0010
0100
0010
0100
0010
0000
0010
0000
,
1000
0100
1000
0100
1000
0000
1000
0000
0001
0100
0001
0100
0001
0000
0001
0000
,
1000
0100
0010
0000
0100
0010
0001
0000
0010
0001
0100
0000
0010
1000
0100
0000
,
1000
0010
0100
0001
0010
0001
0100
0010
1000
0100
1000
0010
0100
0001
0010
0100
,
1000
0010
0100
0001
0010
0001
0100
0010
1000
0100
1000
0010
0100
0001
0010
0001
,
0100
0010
1000
0100
1000
0010
0100
0001
0010
0100
1000
0010
0100
0001
0010
0001
,
0100
0010
1000
0100
1000
0010
0100
0001
1000
0001
1000
0001
1000
0001
1000
0001
,
1000
0010
0100
0001
0010
0001
0100
0010
1000
0100
1000
0010
0100
0001
0010
0100
,
1000
0010
1000
0100
1000
0010
0100
0001
0010
0001
0100
0010
1000
0100
1000
0010
,
0100
0001
0100
0001
0100
0001
0100
0001
0010
0001
0010
0001
0010
0001
0010
0001
,
1000
0100
0010
0001
1000
0100
0010
0001
1000
0100
1000
0010
0100
0001
0010
0001
,
0100
0010
1000
0010
1000
0010
1000
0010
1000
0100
1000
0100
1000
0100
1000
0100
,
0010
0100
0010
0100
0010
0100
0010
0001
0010
0001
0010
0001
0010
0001
0100
0010
,
1000
0100
1000
0010
0100
0001
0010
0001
0100
0010
1000
0100
1000
0010
0100
0001
,
0010
0001
0100
0001
1000
0001
0100
0001
1000
0001
0010
0001
0010
0001
0010
0001
,
0010
0100
1000
0100
1000
0010
0100
0001
0010
0100
1000
0010
1000
0100
1000
0010
,
0100
0001
0010
0001
0100
0010
1000
0100
1000
0010
0100
0001
0010
0001
0100
0010
,
1000
0100
1000
0100
1000
0100
1000
0010
1000
0100
0010
0001
0100
0010
1000
0100
,
1000
0100
0010
0001
0100
0010
1000
0100
1000
0010
0100
0001
0010
0000
0001
1000
,
0010
1000
0001
0100
0010
1000
0100
1000
0010
0100
0001
0010
0001
0100
0010
1000
,
0010
1000
0100
1000
0010
0100
0001
0010
0001
0100
0010
1000
0100
0010
0001
0010
,
0001
0100
0001
0100
0010
1000
0100
1000
0100
1000
0010
0100
0001
0010
0001
0100
,
0010
1000
0010
1000
0100
1000
0001
1000
0001
0010
0100
1000
0010
0100
0001
1000
,
0004
0000
0000
0000
,
0000
0000
0000
0000
,
4003
0000
0000
0000
,
0000
0000
0000
0000
,
30M0
0000
M000
000M
0000
0000
0000
0000
,
0000
000M
0000
00M0
,
M000
0000
000M
0M00
;
