#TITLE:Black Diamond;
#SUBTITLE:;
#ARTIST:Stratovarius;
#TITLETRANSLIT:;
#SUBTITLETRANSLIT:;
#ARTISTTRANSLIT:;
#CREDIT:;
#BANNER:../bn.png;
#BACKGROUND:../bg.png;
#LYRICSPATH:;
#CDTITLE:;
#MUSIC:Stratovarius - Black Diamond.ogg;
#OFFSET:1.374;
#SAMPLESTART:0.220;
#SAMPLELENGTH:25.800;
#SELECTABLE:YES;
#DISPLAYBPM:150.000;
#BPMS:0.000=149.899;
#STOPS:;
#BGCHANGES:;
// cache tags:
#FIRSTBEAT:4.000;
#LASTBEAT:488.000;
#SONGFILENAME:Songs/Cirque du Zonda/Zaia - Black Diamond/Stratovarius - Black Diamond.sm;
#HASMUSIC:1;
#HASBANNER:1;
#MUSICLENGTH:198.780;
// end cache tags

//---------------dance-single - Zaia - 15.7----------------
#NOTES:
     dance-single:
     Zaia - 15.7:
     Challenge:
     15:
     1.000,1.000,0.096,0.277,1.000,1499.000,19.000,55.000,0.000,1.000:
0000
0000
0000
0000
,
1000
0010
1000
0001
1000
0100
0010
0100
,
1000
0001
0100
0001
0010
0001
1000
0010
,
0100
0001
0010
0001
1000
0001
0100
0010
,
1000
0001
0010
0001
0100
0001
1000
0100
,
0010
0100
1000
0010
1000
0001
0010
0100
,
1000
0001
0100
0001
1000
0100
0010
0001
,
1000
0001
0100
0001
0010
0100
0010
0001
,
1000
0001
0010
0001
0100
0001
1000
0010
,
0200
0000
0000
0000
,
0000
0000
0000
0000
0000
0000
0000
0000
0000
0000
0000
0000
0000
0000
0000
0000
0000
0000
0000
0000
0000
0301
1000
0001
,
1000
0000
0000
0010
0000
0100
0101
0000
,
0000
0000
0000
0001
0000
1000
0100
0100
,
0120
0000
0000
0000
,
0000
0000
0000
0000
0000
0000
0031
1000
,
1001
0000
0000
0000
0000
0000
0000
0000
0000
0000
0000
0000
0000
0000
0000
0000
0000
0000
0000
0000
0000
0001
1000
0010
,
0100
0000
0001
0000
1000
0100
0000
1000
0001
0000
0100
0000
0010
0100
0001
1000
,
0010
0100
0001
1000
0001
0100
0001
0010
0001
0100
0010
0100
0001
0010
0100
1000
,
0001
0100
0010
1000
0100
1000
0010
1000
0001
1000
0100
0010
0100
1000
0010
0100
,
0001
0010
0001
1000
0001
0100
0001
1000
0001
0010
0100
1000
0001
0100
0010
1000
,
0001
1000
0100
1000
0010
1000
0001
1000
0100
1000
0010
0100
0001
0100
0010
1000
,
0001
0100
0001
0010
0001
1000
0001
0010
0001
0100
0010
0100
0001
0010
0100
1000
,
0001
0100
0010
1000
0100
1000
0010
1000
0001
1000
0100
0010
0100
1000
0010
0100
,
0001
0010
0001
1000
0001
0100
0001
1000
0001
0010
0100
1000
0001
0100
0010
1000
,
0001
1000
0100
0010
0100
0010
0001
1000
0010
0100
0010
0100
0001
1000
0010
0100
,
0001
0000
0000
0000
1000
0000
0010
0000
0000
0000
0100
0001
0100
0000
0000
0000
0010
0000
0000
0000
1000
0000
0001
0000
0000
0000
0001
0000
0100
0000
0000
0000
,
0010
0000
0000
0000
1000
0000
0000
0000
0001
0000
1000
0010
0100
0000
0000
0000
0010
0000
0000
0000
0100
0000
0001
0000
0000
0000
1000
0000
0001
0000
0000
0000
,
0010
0000
0000
0000
0100
0000
1000
0000
0100
0000
1000
0001
1000
0000
0000
0000
0010
0000
0100
0000
0010
0000
0100
0000
0001
0000
0010
0000
0100
0000
0000
0000
,
1000
0000
0000
0000
0001
0000
0100
0000
0001
0000
0100
0010
0100
0000
0000
0000
0010
0000
1000
0000
0001
0000
1000
0000
0100
0000
0010
0000
0100
0000
1000
0000
,
0001
0000
0000
0000
0100
0000
0001
0000
0000
0000
1000
0010
1000
0000
0000
0000
0001
0000
0000
0000
0010
0000
0100
0000
0000
0000
0100
0000
1000
0000
0000
0000
,
0100
0000
0000
0000
0010
0000
0000
0000
0001
0000
1000
0100
0010
0000
0000
0000
0001
0000
0000
0000
1000
0000
0010
0000
0000
0000
0100
0000
0001
0000
0000
0000
,
1000
0000
0000
0000
0001
0000
0010
0000
0001
0000
1000
0010
1000
0000
0000
0000
0001
0000
0100
0000
0001
0000
0100
0000
0010
0000
1000
0000
0001
0000
1000
0000
,
0100
0010
0100
0010
0001
0010
0001
0010
0001
1000
0001
1000
0010
0000
0100
0001
,
1000
0000
0100
0000
1000
0000
0010
0000
1000
0000
0100
0000
1000
0010
0100
0000
,
0001
0000
0010
0000
0001
0000
0100
0000
0001
1000
0100
0000
1000
0001
0100
0000
,
0001
0000
1000
0000
0010
0000
1000
0000
0001
0000
1000
0000
0010
0100
0001
0000
,
2000
0000
0000
0000
3200
0000
0000
0000
0310
0001
0010
0000
0001
1000
0001
0000
,
0100
0000
0010
0000
1000
0000
0010
0000
0100
0000
0010
0000
0100
0001
1000
0000
,
0100
0000
0010
0000
0100
0000
1000
0000
0100
0010
0001
0000
1000
0010
0100
0000
,
0010
0100
0001
1000
0010
0100
0001
1000
0001
0010
0100
1000
0001
0010
0001
1000
,
0010
0100
0001
1000
0100
0010
0100
1000
0010
0100
0010
0100
0001
0000
0010
0001
,
1000
0100
0010
0001
1000
0010
0100
0010
1000
0001
0010
0001
1000
0100
0010
0100
,
1000
0010
0100
0001
1000
0100
0010
0001
1000
0010
0100
0001
0010
0001
1000
0100
,
1000
0001
1000
0010
0100
0001
1000
0100
1000
0001
0100
0010
1000
0001
1000
0010
,
0100
0001
1000
0001
0010
0100
0010
0001
1000
0010
0100
0010
1000
0100
1000
0001
,
0010
0100
1000
0001
1000
0100
1000
0010
1000
0001
0100
0001
1000
0001
0010
0100
,
1000
0010
0100
0001
1000
0100
1000
0001
0010
0001
1000
0010
0100
0001
1000
0001
,
0010
0100
0010
0001
1000
0010
0100
0001
1000
0001
0010
0100
1000
0100
0010
0001
,
1000
0010
1000
0010
0100
0001
1000
0010
1000
0010
0100
0001
0010
0100
1000
0001
,
0100
0010
0100
0001
1000
0100
0010
0100
1000
0001
0100
0001
1000
0010
0100
0010
,
1000
0100
0010
0001
1000
0010
0100
0001
1000
0100
0010
0001
0100
0001
1000
0010
,
1000
0001
1000
0100
0010
0001
1000
0010
1000
0001
0010
0100
1000
0001
1000
0100
,
0010
0001
1000
0001
0100
0010
0100
0001
1000
0100
0010
0100
1000
0010
1000
0001
,
0100
0010
1000
0001
1000
0010
1000
0100
1000
0001
0010
0001
1000
0001
0100
0010
,
1000
0100
0010
0001
1000
0010
1000
0001
0100
0001
1000
0100
0010
0001
1000
0001
,
0100
0010
1000
0001
1000
0001
0010
0100
1000
0100
1000
0001
0100
0001
0100
0010
,
1000
0001
1000
0010
0100
0001
1000
0001
0100
0001
0010
0100
1000
0001
1000
0001
,
0010
0000
0000
0200
0000
0000
2300
0000
0000
3002
0000
0000
0203
0000
0000
0310
1000
0001
0010
0000
0000
0100
0000
0000
,
2100
0000
0000
3001
0200
0000
0310
0000
,
0110
0000
0000
0200
0000
0000
0302
0000
0000
2003
0000
0000
3200
0000
0000
0310
0001
1000
0010
0000
0000
1000
0000
0000
,
1020
0000
0000
0230
0302
0000
2003
0000
,
3011
0000
0000
0020
0000
0000
0031
1000
0001
0200
0000
0000
0320
0000
0000
2030
0000
0000
3200
0000
0000
0310
0000
0000
,
0110
0000
0000
0200
0000
0000
1300
0001
0100
0020
0000
0000
2030
0000
0000
3200
0000
0000
0320
0000
0000
0031
0000
0000
,
1002
0000
0000
2003
3020
0000
0230
0000
,
0301
1000
0100
0010
0001
1000
0010
0100
0010
1000
0001
0010
0100
1000
0010
0100
,
0001
0010
0001
1000
1001
0001
0010
0001
,
0100
0001
0010
0001
0011
0010
0100
0010
,
0001
1000
0001
0100
0110
0010
1000
0100
,
1000
0010
0100
0001
0101
0100
0010
1000
,
0001
0010
0100
1000
1100
0100
0010
0001
,
0100
0010
1000
0001
0011
0010
0100
1000
,
0010
0100
0001
0010
0001
1000
0001
0100
,
0010
1000
0100
1000
0001
0000
1000
0000
,
0001
0100
0010
1000
0001
0010
0100
1000
0001
0100
0010
1000
0001
0010
0100
1000
,
0001
0100
0010
0100
0001
1000
0100
0010
0100
1000
0010
0100
0001
1000
0100
1000
,
0001
0010
0001
1000
0010
0100
0001
1000
0001
0010
0100
1000
0010
0100
0001
1000
,
0001
0010
0100
1000
0001
1000
0010
0100
0001
1000
0010
1000
0001
0100
0001
0010
,
0100
0200
0000
1300
2000
0000
0000
3001
,
0002
0000
0000
0000
0000
0000
0013
0000
0020
0000
0000
0000
0000
0000
0130
1000
,
0002
0000
0000
0000
0000
0000
0003
0000
0000
1000
0001
1000
0010
0100
0001
0100
0010
1000
0001
1000
0100
0010
0001
1000
,
0001
0100
0010
1000
0001
1000
0100
1000
0001
0100
0001
1000
0100
0010
0001
0100
0010
1000
0001
0100
0010
0100
0001
1000
,
0100
0010
0001
1000
0100
0010
0100
1000
0001
0100
0010
1000
0010
0100
0001
1000
,
0100
1000
0010
0100
0001
0010
0100
1000
0100
0010
0001
0100
0010
1000
0001
1000
,
0020
0000
0000
0000
0000
0000
0130
0001
0100
0010
1000
0001
1000
0100
0010
0100
1000
0010
0100
0001
0010
0001
1000
0100
,
0010
0001
1000
0100
1000
0010
0100
0001
1000
0001
1000
0100
0010
0001
1000
0100
1000
0010
0100
0001
1000
0100
1000
0001
,
0020
0000
0000
0230
1300
0001
0000
0000
,
0010
0001
1000
0001
0100
0010
1000
0001
0010
0001
1000
0100
0010
0001
0100
0010
1000
0001
0100
0001
1000
0100
1000
0010
,
0100
0001
1000
0001
0010
0100
1000
0001
1000
0010
0100
0001
0010
0100
1000
0001
0100
0010
0100
0001
1000
0100
0010
0001
,
0100
0001
1000
0010
1000
0100
0010
0001
1000
0001
1000
0010
0100
0001
1000
0010
1000
0100
0010
0001
1000
0010
1000
0001
,
0100
0000
0010
0000
1000
0000
0001
0000
1000
0000
0001
0000
0010
0000
0001
0000
1000
0000
0020
0000
0000
0000
0000
0000
0000
0000
0000
0000
0000
0000
0000
0000
0000
0000
0000
0000
0000
0000
0000
0000
0000
0000
1030
0000
0000
0001
0000
0000
,
0100
0010
1000
0001
0100
0010
0100
0001
0010
0100
1000
0001
0010
0001
1000
0010
1000
0001
0100
0010
1000
0001
1000
0100
,
0010
0100
1000
0001
1000
0010
0100
0001
1000
0001
0010
0100
0010
0001
1000
0010
1000
0001
0100
0001
1000
0001
0010
0100
,
1000
0001
1000
0010
0100
0010
1000
0001
0010
0001
0100
0010
1000
0100
0010
0001
0010
0100
1000
0001
1000
0010
0100
0001
,
2000
0000
0000
0000
0000
3002
0000
0003
,
1000
0001
0010
0100
1000
0001
1000
0010
0100
0001
1000
0001
1000
0100
1000
0001
0100
0010
1000
0100
1000
0001
0010
0100
,
1000
0001
1000
0001
0100
0010
1000
0010
0100
0001
1000
0001
1000
0100
0010
0001
0010
0100
1000
0001
1000
0001
0100
0010
,
1000
0010
0100
0001
1000
0001
1000
0100
0010
0001
0100
0010
1000
0001
1000
0100
0010
0100
1000
0001
1000
0010
0100
0001
,
2000
0000
0000
0000
0000
0000
0000
0000
0000
0000
0000
0000
3000
0000
0000
0001
1000
0001
0100
0010
0100
0001
1000
0001
,
0010
0100
1000
0001
1000
0100
0010
0100
1000
0001
0100
0010
0100
0001
1000
0010
1000
0001
0010
0001
1000
0100
0010
0001
,
0100
0010
1000
0001
0010
0001
0100
0010
0100
0001
1000
0100
0010
0001
1000
0001
0100
0010
1000
0001
0100
0001
1000
0100
,
0010
0001
1000
0001
0100
0010
1000
0010
0100
0001
1000
0100
0010
0100
1000
0001
0100
0001
1000
0100
0010
0100
1000
0001
,
0100
0010
1000
0100
0010
0001
2000
0000
0000
0000
0000
0000
0000
3000
0000
0001
1000
0001
0010
0100
1000
0010
0100
0001
,
0010
0001
1000
0100
1000
0001
0100
0010
1000
0001
1000
0100
0010
0001
1000
0100
1000
0001
0100
0001
1000
0010
0100
0001
,
2000
0000
0000
0000
0000
0000
0000
3000
0000
0001
0010
0100
1000
0100
0010
0001
1000
0010
0100
0001
0010
0100
0010
0001
,
1000
0010
0100
0001
1000
0001
0010
0100
1000
0001
0100
0010
1000
0001
0100
0001
1000
0100
1000
0001
0010
0100
1000
0010
,
0100
0001
0100
0010
1000
0001
1000
0100
,
0010
0100
1000
0010
0100
0001
0010
0100
,
2000
0000
0000
0000
0000
0000
0000
3010
,
0200
0000
0000
0000
0000
0000
0000
0301
,
0200
0000
0000
0000
0000
0000
0000
0310
,
2000
0000
0000
0000
3002
0000
0013
0001
,
2000
0000
0000
3010
0020
0000
0000
0030
,
1000
0010
0100
0001
1000
0010
0100
0001
1000
0001
0010
0100
1000
0001
0010
0100
,
2000
0000
0000
0000
0000
0000
0000
3000
,
1001
0000
0001
0000
0000
0000
1000
0000
0000
0000
0001
0000
0100
0001
0100
0000
,
0101
0000
0000
0000
0000
0000
1000
0000
0000
1000
0000
0000
0000
0000
0000
0010
0000
0000
0000
0000
0000
0100
0001
0100
,
0001
0000
0000
1000
0000
0001
0010
0100
,
1000
0000
0000
0000
1001
0000
0100
0000
0000
0000
0001
0000
1001
0000
0000
1000
,
0100
0000
0010
0000
0000
0001
0000
0000
1000
0000
0000
0010
0100
0000
0001
0000
,
1000
0000
0000
0000
0000
0000
0001
0000
0000
0100
0000
0000
0001
0000
0000
0000
0000
0000
1000
0000
0000
0100
0000
0000
1000
0000
0000
0000
0000
0000
0001
0000
0000
0000
0000
0000
0100
0000
0010
0000
1000
0000
0001
0000
1000
0000
0100
0000
,
0010
0100
1000
0001
0010
0100
1000
0001
0100
0001
1000
0100
1000
0001
0010
0100
1000
0001
1000
0010
0100
0001
1000
0100
,
0020
0000
0000
0000
,
0030
0000
0000
0000
;
