#TITLE:Y31;
#SUBTITLE:;
#ARTIST:tiger YAMATO;
#TITLETRANSLIT:;
#SUBTITLETRANSLIT:;
#ARTISTTRANSLIT:;
#CREDIT:;
#BANNER:Y31.png;
#BACKGROUND:Y31-bg.png;
#LYRICSPATH:;
#CDTITLE:!toph-cdtitle.png;
#MUSIC:Y31.mp3;
#OFFSET:-0.410;
#SAMPLESTART:62.350;
#SAMPLELENGTH:12.000;
#SELECTABLE:YES;
#BPMS:0.000=168.000,282.500=84.000;
#STOPS:282.500=0.520
;
#BGCHANGES:;
// cache tags:
#FIRSTBEAT:16.000;
#LASTBEAT:290.750;
#SONGFILENAME:Songs/Keyboard Collaboration II/Toph - Y31/Y31.sm;
#HASMUSIC:1;
#HASBANNER:1;
#MUSICLENGTH:114.057;
// end cache tags

//---------------dance-single - ----------------
#NOTES:
     dance-single:
     :
     Hard:
     10:
     1.000,1.000,1.000,0.000,0.399,617.000,229.000,0.000,0.000,0.000:  // measure 1
0000
0000
0000
0000
,  // measure 2
0000
0000
0000
0000
,  // measure 3
0000
0000
0000
0000
,  // measure 4
0000
0000
0000
0000
,  // measure 5
1000
0000
0001
0000
1100
0000
0010
0001
1000
0010
0100
0000
0001
0000
0110
0000
,  // measure 6
1000
0000
0001
0000
0110
0000
1000
0001
0100
0010
1000
0000
0010
0000
0101
0000
,  // measure 7
1000
0000
0001
0000
1100
0000
0010
0001
1000
0001
0100
0000
0010
0000
1001
0000
,  // measure 8
0100
0000
0010
0000
0101
0000
0010
1000
0100
1000
0001
0000
1000
0000
0110
0000
,  // measure 9
1000
0001
1100
0001
0100
0001
0010
1001
,  // measure 10
0100
0010
1001
0110
1001
0110
1010
0001
,  // measure 11
1100
0000
0010
0001
1000
0001
0110
0000
0001
0000
1100
0000
0010
0000
1000
0000
,  // measure 12
0101
0000
0010
1000
0001
1000
0110
0000
1000
0000
0101
0000
0010
0000
1000
0000
,  // measure 13
0101
0000
0010
1000
0100
0010
1001
0000
0100
0000
1001
0000
0010
0000
0100
0000
,  // measure 14
0011
0000
0100
1000
0001
0100
1010
0000
0001
0000
1100
0000
0010
0000
0001
0000
,  // measure 15
1100
0000
0010
0001
0100
0001
1010
0000
0001
0000
1100
0000
0010
0000
0001
0000
,  // measure 16
0110
0000
1000
0100
0010
0001
1010
0000
0100
0000
0011
0000
1000
0000
0100
0000
,  // measure 17
1001
0000
0010
0100
0001
1000
0110
0000
0001
0000
0110
0000
1000
0000
0001
0000
,  // measure 18
1100
0000
0010
0001
0100
0010
1001
0000
0100
0000
0011
0000
1000
0000
0101
0000
,  // measure 19
1010
0001
1100
0011
0100
1001
0010
0101
,  // measure 20
1001
0101
1001
1100
1001
0100
0011
1100
,  // measure 21
0001
1100
0101
1010
0011
1100
0101
1010
,  // measure 22
0011
0101
1100
0011
1001
0100
1010
0101
,  // measure 23
0010
1100
0011
0101
1010
1001
0110
0011
,  // measure 24
1100
0101
1010
1001
0011
0100
1010
0101
,  // measure 25
1000
0011
1100
0101
1010
1001
0011
1100
,  // measure 26
0101
1010
1100
0011
1001
0100
1010
0101
,  // measure 27
1000
0011
1100
0101
1010
1001
0011
0110
,  // measure 28
1001
0000
0101
0000
1010
0000
1100
0000
1001
0000
0000
1000
0000
0000
1000
0000
,  // measure 29
1000
0000
0000
1000
0000
0000
1000
0000
1000
0000
0000
1000
0010
0000
1000
0000
,  // measure 30
1000
0000
0001
1000
0000
0000
1000
0000
0101
0000
0010
0000
1001
0000
0010
0100
,  // measure 31
0001
0000
1000
0000
0000
0000
1000
0000
0010
0000
1000
0000
0011
0000
0100
0010
,  // measure 32
1000
0101
1000
0000
0101
0000
0010
0000
0001
0000
0000
0001
0000
0000
0001
0000
,  // measure 33
0001
0000
0000
0001
0000
0000
0001
0000
0001
0000
0000
0001
0010
0000
0001
0000
,  // measure 34
0001
0000
1000
0001
0000
0000
0001
0000
0110
0000
1000
0000
0101
0000
0010
1000
,  // measure 35
0001
0000
0010
0000
0000
0000
0010
0000
0100
0000
0010
0000
0101
0000
0010
1000
,  // measure 36
0001
1010
0100
0000
1010
0000
0100
0000
1001
0000
0010
0000
0100
0000
0001
0000
,  // measure 37
0000
0010
0100
1000
0001
0100
0010
1000
,  // measure 38
0000
0001
1100
0010
0001
1000
0010
0100
,  // measure 39
0000
0001
0010
0100
1000
0001
0100
0010
,  // measure 40
0000
1000
0001
0010
0100
1000
0101
0010
,  // measure 41
1000
0011
0100
1000
0101
0010
1000
0011
,  // measure 42
0000
0100
1001
0010
0100
0001
1100
0010
,  // measure 43
0001
1010
0100
0001
1100
0010
0001
1010
,  // measure 44
0000
0000
0100
0000
0011
0000
1000
0000
0101
0000
0010
0000
1001
0000
0010
0100
,  // measure 45
0001
1000
0011
0000
0100
0000
1010
0000
0001
0000
1000
0000
0101
0000
0010
1000
,  // measure 46
0001
0010
1100
0000
0001
0000
0110
0000
1000
0000
0001
0000
1100
0000
0010
0001
,  // measure 47
1000
0010
0101
0000
1000
0000
0110
0000
0001
0000
1000
0000
0110
0000
1000
0100
,  // measure 48
0010
0001
1010
0000
0100
0000
0011
0000
1000
0000
0100
0000
1001
0000
0010
0001
,  // measure 49
1000
0001
0110
0000
1000
0000
0101
0000
0010
0000
1000
0000
0011
0000
0100
0010
,  // measure 50
1000
0001
0110
0000
1000
0000
0101
0000
0010
0000
1000
0000
0011
0000
0100
1000
,  // measure 51
0010
0100
1001
0000
0010
0000
1100
0000
0001
0000
0100
0000
1001
0000
0010
0001
,  // measure 52
1000
0010
0101
0000
1000
0000
0110
0000
0001
0000
1000
0000
0101
0000
0010
0000
,  // measure 53
0001
1000
0100
0011
1000
0010
1001
0110
,  // measure 54
1001
0000
0110
0000
1001
0000
0100
0000
0011
0000
0100
0010
1001
0000
0100
0000
,  // measure 55
0011
0000
1000
0000
0100
0000
0010
0000
0101
0000
1000
0000
0010
0100
0001
0000
,  // measure 56
1000
0000
0110
0000
0001
0000
1000
0000
0101
0000
0010
1000
0010
0100
0001
0000
,  // measure 57
1000
0000
0110
0000
0001
0000
1000
0000
0011
0000
1000
0010
1000
0001
0100
0000
,  // measure 58
0010
0000
1001
0000
0010
0000
0100
0000
0011
0000
1000
0010
0100
0001
0010
0000
,  // measure 59
0100
0000
1001
0000
0010
0000
0100
0000
0011
0000
1000
0100
0010
0001
0100
0000
,  // measure 60
0010
0000
1001
0000
0100
0000
0010
0000
1001
0000
0010
0100
0001
0010
0100
0000
,  // measure 61
0010
0000
1100
0000
0010
0000
0001
0000
1010
0000
0100
0001
0010
0100
1000
0000
,  // measure 62
0010
0000
0101
0000
1000
0000
0001
0000
1100
0000
0010
0100
1001
0000
1010
0000
,  // measure 63
0101
1000
0001
0100
1010
0011
0100
1010
,  // measure 64
0100
0000
0011
0000
0100
0000
1000
0000
0110
0000
0001
1000
0010
1000
0100
0000
,  // measure 65
0001
0000
1100
0000
0010
0000
0001
0000
1010
0000
0100
0010
0001
1000
0010
0000
,  // measure 66
0100
0000
1001
0000
0011
0000
0100
0000
1010
0000
0100
0010
0100
0001
1000
0000
,  // measure 67
0100
0011
1000
0100
1001
0010
0100
1001
,  // measure 68
1100
0011
0100
0010
1001
1100
1001
0101
,  // measure 69
1001
1100
0010
0100
0011
1100
1010
0101
,  // measure 70
0011
1100
1001
1001
1001
0000
1001
0000
,  // measure 71
1001
0000
1001
0000
1001
0000
1001
0000
1001
0000
1001
0000
1001
0010
0101
1000
,  // measure 72
0001
1100
0001
0010
0101
1000
0001
1100
0000
0010
0101
1000
0010
0100
1001
0010
,  // measure 73
0100
0011
1000
0100
0011
1000
0001
1100
0000
0010
0101
1000
0000
0000
0000
0000
;
