#TITLE:ApolloN;
#SUBTITLE:;
#ARTIST:Sun3;
#TITLETRANSLIT:;
#SUBTITLETRANSLIT:;
#ARTISTTRANSLIT:;
#CREDIT:;
#BANNER:../banner.png;
#BACKGROUND:../bg.png;
#LYRICSPATH:;
#CDTITLE:;
#MUSIC:ApolloN.ogg;
#OFFSET:-0.247;
#SAMPLESTART:119.595;
#SAMPLELENGTH:20.960;
#SELECTABLE:YES;
#BPMS:0.000=185.000;
#STOPS:;
#BGCHANGES:;
// cache tags:
#FIRSTBEAT:8.000;
#LASTBEAT:632.000;
#SONGFILENAME:Songs/Cirque du Lykan/ApolloN - [Zeph]/ApolloN.sm;
#HASMUSIC:1;
#HASBANNER:1;
#MUSICLENGTH:211.591;
// end cache tags

//---------------dance-single - Zeph - 16(low)----------------
#NOTES:
     dance-single:
     Zeph - 16(low):
     Challenge:
     16:
     1.000,1.000,0.009,0.043,1.000,2207.000,2.000,9.000,0.000,0.000:
0000
0000
0000
0000
,
0000
0000
0000
0000
,
2000
0000
3001
0010
0001
0000
1000
0000
0010
0000
0100
0001
0100
0000
0010
0000
,
0200
0000
0310
1000
0001
0000
1000
0000
0001
0000
1000
0100
1000
0000
0010
0000
,
2000
0000
3001
0100
0001
0000
1000
0000
0100
0000
0010
0001
0010
0000
0100
0000
,
0020
0000
0130
1000
0001
0000
1000
0000
0001
0000
1000
0010
1000
0000
0100
0000
,
0020
0000
0130
1000
0100
0000
0010
0000
0001
0000
1000
0010
1000
0000
0100
0000
,
0020
0000
0031
1000
0100
0000
0010
0000
0100
0000
1000
0010
1000
0000
0001
0000
,
0200
0000
0310
1000
0010
0000
0100
0000
0001
0000
1000
0100
1000
0000
0010
0000
,
0100
0000
0001
0000
1000
0000
0100
0000
1000
0000
0010
0100
0001
0000
1000
0000
,
0001
0010
0001
1000
0100
1000
0001
1000
0010
0100
0001
0010
0001
1000
0010
1000
,
0001
0010
0100
1000
0001
1000
0010
0100
0001
1000
0100
0010
0001
0100
0010
1000
,
0001
0100
0001
1000
0010
1000
0001
1000
0100
0010
0001
0100
0001
1000
0100
1000
,
0001
0100
0010
1000
0001
1000
0100
0010
0001
1000
0100
1000
0010
0100
0001
1000
,
0100
0010
0100
1000
0001
0100
0001
1000
0001
0010
0100
1000
0010
1000
0001
0010
,
0001
1000
0010
0100
0001
1000
0001
0010
0100
1000
0001
0100
0010
1000
0100
0010
,
0001
1000
0100
1000
0001
0010
0001
1000
0001
0100
0010
1000
0100
1000
0001
0100
,
0001
1000
0100
0010
0001
1000
0001
0100
0010
1000
0001
0100
0001
0010
0100
1000
,
0001
0010
0001
1000
0100
1000
0001
1000
0010
0100
0001
0010
0001
1000
0010
1000
,
0001
0100
0001
0010
0001
1000
0010
1000
0001
1000
0100
0010
0100
1000
0001
0100
,
0010
1000
0100
1000
0001
0010
0001
1000
0001
0100
0010
1000
0100
1000
0001
0100
,
0001
1000
0010
1000
0100
1000
0001
0100
0001
1000
0001
0010
0100
0010
0001
1000
,
0010
0100
0001
1000
0100
1000
0001
0010
,
0001
1000
0001
0100
0010
1000
0001
0000
,
1000
0010
0100
0001
1000
0001
0100
0001
1000
0100
0010
0100
1000
0001
0010
0001
,
1000
0010
1000
0001
0010
0100
0010
0001
1000
0010
0100
0001
1000
0001
0010
0100
,
1000
0010
0100
0001
0010
0001
1000
0100
1000
0010
0100
0001
0010
0001
1000
0100
,
1000
0010
0100
0001
0010
0001
1000
0100
1000
0001
1000
0010
0100
0001
1000
0100
,
0010
0001
0100
0001
1000
0100
0010
0100
1000
0001
0100
0010
1000
0001
1000
0100
,
0010
0001
0100
0010
1000
0100
1000
0001
0010
0001
0100
0010
1000
0100
1000
0001
,
0010
0100
1000
0010
1000
0001
0100
0001
0010
0100
1000
0010
1000
0001
0100
0001
,
0010
0100
1000
0010
1000
0001
0100
0001
1000
0001
0010
0100
1000
0001
0100
0010
,
1000
0100
0010
0001
0100
0001
1000
0010
1000
0100
0010
0001
0100
0001
1000
0010
,
1000
0100
0010
0001
0100
0001
1000
0010
0100
0000
0000
0001
0000
0000
0010
0000
,
0001
0100
0010
1000
0100
1000
0001
0010
0001
0100
0010
1000
0100
1000
0001
0010
,
0001
0100
0010
1000
0100
1000
0001
0010
0001
1000
0001
0100
0010
1000
0001
0010
,
0100
1000
0010
1000
0001
0010
0100
0010
0001
1000
0010
0100
0001
1000
0001
0010
,
0100
1000
0010
0100
0001
0010
0001
1000
0100
1000
0010
0100
0001
0010
0001
1000
,
0100
0010
0001
0100
0001
1000
0010
1000
0100
0010
0001
0100
0001
1000
0010
1000
,
0100
0010
0001
0100
0001
1000
0010
1000
0001
1000
0100
0010
0001
1000
0010
0100
,
0001
0010
0100
1000
0010
1000
0001
0100
0001
0010
0100
1000
0010
1000
0001
0100
,
0001
0010
0100
1000
0010
1000
0001
0100
0001
0000
0000
1000
0000
0000
0001
0000
,
1000
0000
0100
0000
0010
0000
0100
0000
1000
0000
0010
1000
0010
1000
0010
1000
,
0001
0000
0100
0000
0001
0000
0010
0000
0001
0000
1000
0100
1000
0100
1000
0100
,
0010
0000
0001
0000
0100
0000
0001
0000
1000
0000
0001
0100
0001
0100
0001
0100
,
0010
0000
1000
0000
0100
0000
1000
0000
0001
0000
0010
0001
0010
0001
0010
0001
,
1000
0000
0010
0000
0100
0000
0010
0000
1000
0000
0100
1000
0100
1000
0100
1000
,
0001
0000
0010
0000
0001
0000
0100
0000
0001
0000
1000
0010
1000
0010
1000
0010
,
0100
0000
0001
0000
0010
0000
0001
0000
1000
0000
0001
0010
0001
0010
0001
0010
,
0100
0000
1000
0000
0010
0000
1000
0000
0001
0000
0000
0100
0000
0000
0010
0000
,
1000
0000
0001
0000
0100
0000
0001
0000
0010
0000
0001
0000
1000
0000
0100
1000
,
0001
0000
1000
0000
0010
0000
1000
0000
0100
0000
0010
0000
0001
0000
0100
0010
,
0100
0000
0010
0000
1000
0000
0100
0000
1000
0000
0001
0000
0010
0000
0001
1000
,
0100
0000
1000
0000
0010
0000
0100
0000
0001
0000
0010
0000
0001
0000
0100
0010
,
1000
0001
0000
1000
0100
1000
0000
0001
0100
0001
0000
1000
0010
1000
0000
0001
,
0010
0001
0000
1000
0100
1000
0000
0001
1000
0001
0000
0100
0001
0100
0000
0010
,
1000
0001
0010
0001
1000
0100
0010
0001
1000
0010
0100
0010
1000
0001
0100
0001
,
1000
0100
1000
0001
0100
0010
0100
0001
1000
0000
0000
0010
0000
0000
1000
0000
,
0002
0000
0000
0003
,
1000
0100
0010
0001
1000
0010
0100
0001
1000
0100
0010
0001
0100
0010
0100
0001
,
1000
0100
1000
0010
1000
0001
0100
0001
1000
0100
1000
0010
1000
0001
0100
0001
,
1000
0100
1000
0010
1000
0001
0010
0001
1000
0010
0100
0001
1000
0100
0010
0001
,
1000
0010
1000
0100
1000
0001
0010
0001
1000
0010
1000
0100
1000
0001
0010
0001
,
1000
0010
1000
0100
1000
0001
0100
0001
1000
0100
0010
0100
1000
0001
0100
0010
,
1000
0001
0100
0001
0010
0001
1000
0100
1000
0001
0100
0001
0010
0001
1000
0100
,
1000
0001
0100
0001
0010
0001
1000
0010
1000
0001
0010
0100
0010
0001
1000
0010
,
1000
0001
0010
0001
0100
0001
1000
0010
1000
0001
0010
0001
0100
0001
1000
0010
,
1000
0001
0010
0001
0100
0001
1000
0100
1000
0001
0100
0010
1000
0001
1000
0100
,
0010
0001
0100
0001
1000
0010
1000
0001
0010
0001
0100
0001
1000
0010
1000
0001
,
0010
0001
0100
0001
1000
0100
1000
0001
0100
0010
0100
0001
1000
0100
1000
0001
,
0100
0001
0010
0001
1000
0100
1000
0001
0100
0001
0010
0001
1000
0100
1000
0001
,
0100
0001
0010
0001
1000
0010
1000
0001
0010
0100
0010
0001
1000
0010
0100
0001
,
1000
0010
1000
0100
1000
0001
0010
0001
1000
0010
1000
0100
1000
0001
0010
0001
,
1000
0010
1000
0100
1000
0001
0100
0001
1000
0100
0010
0100
1000
0001
0100
0001
,
1000
0100
1000
0010
1000
0001
0100
0001
1000
0100
1000
0010
1000
0001
0100
0001
,
1000
0100
1000
0001
0100
0010
1000
0001
1000
0100
0010
0001
1000
0001
0100
0001
,
1000
0100
1000
0010
1000
0001
0100
0001
1000
0100
1000
0010
1000
0001
0100
0001
,
1000
0100
1000
0010
1000
0001
0010
0001
1000
0010
0100
0001
1000
0100
0010
0001
,
1000
0010
1000
0100
1000
0001
0010
0001
1000
0010
1000
0100
1000
0001
0010
0001
,
1000
0010
1000
0100
1000
0001
0100
0001
1000
0100
0010
0100
1000
0001
0100
0010
,
1000
0001
0100
0001
0010
0001
1000
0100
1000
0001
0100
0001
0010
0001
1000
0100
,
1000
0001
0100
0001
0010
0001
1000
0010
1000
0001
0010
0100
0010
0001
1000
0010
,
1000
0001
0010
0001
0100
0001
1000
0010
1000
0001
0010
0001
0100
0001
1000
0010
,
1000
0001
0010
0001
0100
0001
1000
0100
1000
0001
0100
0010
1000
0001
1000
0100
,
0010
0000
0000
0000
0000
0000
1001
0001
,
0010
0001
0100
0001
1000
0100
1000
0001
0100
0010
0100
0001
1000
0100
1000
0001
,
0100
0000
0000
0000
0000
0000
0101
0001
,
1000
0001
0010
0001
1000
0010
1000
0001
0010
0100
0010
0001
1000
0010
0100
0001
,
1000
0100
0010
0001
1000
0100
0010
0001
,
1000
0010
0100
0001
1000
0010
0100
0001
,
1000
0100
1000
0010
1000
0001
0100
0001
1000
0100
1000
0010
1000
0001
0100
0001
,
1000
0100
1000
0001
0100
0010
1000
0001
1000
0100
0010
0100
1000
0001
0100
0001
,
1000
0100
1000
0100
0010
0100
1000
0001
0100
0001
1000
0100
1000
0010
1000
0001
,
0100
0001
1000
0100
0010
0100
0010
0001
1000
0001
0100
0010
0100
0001
0010
0001
,
1000
0010
1000
0010
0100
0010
1000
0001
0010
0001
1000
0010
1000
0100
1000
0001
,
0010
0001
1000
0010
0100
0010
0100
0001
1000
0001
0010
0100
0010
0001
0100
0001
,
1000
0100
0010
0001
0010
0100
0010
0001
1000
0010
1000
0001
0010
0001
0100
0001
,
1000
0010
1000
0001
0010
0100
0010
0100
1000
0001
1000
0010
0100
0010
1000
0100
,
1000
0001
0100
0001
0100
0010
0100
0001
1000
0100
1000
0001
0100
0001
0010
0001
,
1000
0100
1000
0001
0100
0010
0100
0010
1000
0001
1000
0100
0010
0100
1000
0001
,
0100
0001
0100
0010
0100
0001
1000
0100
1000
0001
0100
0001
0010
0001
1000
0100
,
1000
0001
0100
0010
0100
0010
1000
0001
1000
0100
0010
0100
1000
0010
1000
0001
,
0010
0001
0010
0100
0010
0001
1000
0010
1000
0001
0010
0001
0100
0001
1000
0010
,
1000
0001
0010
0100
0010
0100
1000
0001
1000
0010
0100
0010
1000
0100
1000
0001
,
0100
0010
1000
0010
0100
0010
1000
0001
0010
0001
1000
0010
1000
0100
1000
0001
,
0010
0001
1000
0010
0100
0010
0100
0001
1000
0001
0010
0100
0010
0001
0100
0001
,
1000
0100
1000
0100
0010
0100
1000
0001
0100
0001
1000
0100
1000
0010
1000
0001
,
0100
0001
1000
0100
0010
0100
0010
0001
1000
0001
0100
0010
0100
0001
0010
0001
,
1000
0010
1000
0010
0100
0010
1000
0001
0010
0001
1000
0010
1000
0100
1000
0001
,
0010
0001
1000
0010
0100
0010
0100
0001
1000
0001
0010
0100
0010
0001
0100
0001
,
1000
0100
1000
0100
0010
0100
1000
0001
0100
0001
1000
0100
1000
0010
1000
0001
,
0100
0001
1000
0100
0010
0100
0010
0001
1000
0001
0100
0010
0100
0001
0010
0001
,
1000
0010
0100
0001
0100
0010
0100
0001
1000
0100
1000
0001
0100
0001
0010
0001
,
1000
0100
1000
0001
0100
0010
0100
0010
1000
0001
1000
0100
0010
0100
1000
0010
,
1000
0001
0010
0001
0010
0100
0010
0001
1000
0010
1000
0001
0010
0001
0100
0001
,
1000
0010
1000
0001
0010
0100
0010
0100
1000
0001
1000
0010
0100
0010
1000
0001
,
0010
0001
0010
0100
0010
0001
1000
0010
1000
0001
0010
0001
0100
0001
1000
0010
,
1000
0001
0010
0100
0010
0100
1000
0001
1000
0010
0100
0010
1000
0100
1000
0001
,
0100
0001
0100
0010
0100
0001
1000
0100
1000
0001
0100
0001
0010
0001
1000
0100
,
1000
0001
0100
0010
0100
0010
1000
0001
1000
0100
0010
0100
1000
0010
1000
0001
,
0010
0100
1000
0100
0010
0100
1000
0001
0100
0001
1000
0100
1000
0010
1000
0001
,
0100
0001
1000
0100
0010
0100
0010
0001
1000
0001
0100
0010
0100
0001
0010
0001
,
1000
0010
1000
0010
0100
0010
1000
0001
0010
0001
1000
0010
1000
0100
1000
0001
,
0010
0001
1000
0010
0100
0010
0100
0001
1000
0001
0010
0100
1000
0001
1000
0010
,
0100
0010
1000
0001
0010
0001
1000
0001
0100
0010
1000
0100
1000
0001
0100
0001
,
1000
0100
0010
0001
1000
0001
0100
0010
1000
0001
0010
0100
1000
0010
0100
0001
,
1000
0010
1000
0001
0100
0001
1000
0001
0010
0100
1000
0010
1000
0001
0010
0001
,
1000
0010
0100
0001
1000
0001
0010
0100
1000
0001
0010
0001
0100
0010
1000
0001
,
0010
0100
0010
0001
1000
0010
1000
0001
1000
0100
0010
0001
0100
0001
1000
0100
,
1000
0001
0100
0010
1000
0001
1000
0100
0010
0001
1000
0010
0100
0001
0010
0100
,
1000
0001
0010
0001
1000
0100
1000
0001
1000
0010
0100
0001
0010
0001
1000
0010
,
1000
0001
0010
0100
1000
0001
1000
0010
0100
0001
1000
0010
1000
0100
0010
0001
,
1000
0100
1000
0001
0010
0001
1000
0001
0100
0010
1000
0100
1000
0001
0100
0001
,
1000
0010
1000
0100
1000
0001
0100
0001
1000
0001
0010
0100
0010
0001
1000
0010
,
0100
0001
0010
0001
1000
0100
1000
0001
1000
0010
0100
0001
0010
0001
1000
0010
,
1000
0001
0100
0001
0010
0001
1000
0010
1000
0001
1000
0100
0010
0100
1000
0001
,
0100
0010
0100
0001
1000
0100
1000
0001
1000
0010
0100
0001
0010
0001
1000
0010
,
1000
0001
0010
0100
1000
0001
1000
0010
0100
0001
1000
0100
0010
0001
1000
0001
,
1000
0010
0100
0001
1000
0001
0010
0001
1000
0010
0100
0010
1000
0001
0100
0001
,
1000
0100
1000
0001
0100
0010
0100
0001
1000
0100
0010
0001
1000
0001
1000
0010
,
0100
0001
0010
0001
1000
0100
1000
0001
1000
0010
0100
0010
1000
0001
0010
0100
,
1000
0001
0100
0001
1000
0010
1000
0001
0100
0000
0001
0000
1000
0000
0001
0000
,
1000
0001
0100
0001
1000
0010
1000
0001
1000
0100
0010
0100
1000
0001
0100
0010
,
1000
0001
0010
0001
1000
0100
1000
0001
0010
0000
0001
0000
1000
0000
0001
0000
,
1000
0001
0010
0001
1000
0100
1000
0001
1000
0010
0100
0010
1000
0001
0010
0100
,
1000
0001
0100
0001
1000
0010
1000
0001
0100
0000
0001
0000
1000
0000
0001
0000
,
1000
0001
0100
0001
1000
0010
1000
0001
1000
0100
0010
0100
1000
0001
0100
0010
,
1000
0001
0010
0001
1000
0100
1000
0001
0010
0000
0001
0000
1000
0000
0001
0000
,
1000
0001
0010
0001
1000
0100
1000
0001
1000
0010
0100
0010
1000
0001
0010
0100
,
1000
0001
0100
0001
1000
0010
1000
0001
0100
0000
0001
0000
1000
0000
0001
0000
,
1000
0001
0100
0001
1000
0010
1000
0001
1000
0100
0010
0100
1000
0001
0100
0010
,
1000
0001
0010
0001
1000
0100
1000
0001
0010
0000
0001
0000
1000
0000
0001
0000
,
1000
0010
1000
0010
1000
0010
1000
0010
,
0100
0001
0100
0001
0100
0001
0100
0001
,
1000
0010
0100
0001
1000
0001
0100
0001
1000
0100
0010
0100
1000
0001
0010
0001
,
1000
0010
1000
0001
0010
0100
0010
0001
1000
0010
0100
0001
1000
0001
0010
0100
,
2000
0000
0000
0000
,
0000
0000
0000
0000
,
3000
0000
0000
0000
;
