#TITLE:Shadowman;
#SUBTITLE:MegaMan III;
#ARTIST:Capcom;
#TITLETRANSLIT:;
#SUBTITLETRANSLIT:;
#ARTISTTRANSLIT:;
#CREDIT:;
#BANNER:Shadowman.png;
#BACKGROUND:Shadowman-bg.png;
#LYRICSPATH:;
#CDTITLE:cdtitle.png;
#MUSIC:Shadowman.mp3;
#OFFSET:1.140;
#SAMPLESTART:0.020;
#SAMPLELENGTH:11.920;
#SELECTABLE:YES;
#BPMS:0.000=163.440;
#STOPS:;
#BGCHANGES:;
// cache tags:
#FIRSTBEAT:4.000;
#LASTBEAT:331.000;
#SONGFILENAME:Songs/VGMP 2/Shadowman (Zaghurim)/Shadowman.sm;
#HASMUSIC:1;
#HASBANNER:1;
#MUSICLENGTH:125.360;
// end cache tags

//---------------dance-single - ----------------
#NOTES:
     dance-single:
     :
     Hard:
     13:
     1.000,1.000,1.000,0.590,0.854,700.000,198.000,74.000,0.000,0.000:

0000
0000
0000
0000
,
0001
1000
0100
0010
0001
1000
0100
0010
0000
1000
0000
0100
0000
0010
0000
0001
,
1010
1010
1010
1010
,
2000
3200
0320
0000
,
0030
0002
0023
0230
0000
0000
0000
0000
,
2300
3200
0320
0000
,
0030
0002
0023
0230
0000
0000
0000
0000
,
2300
0000
3200
0000
0320
1000
0000
0000
,
0031
0102
0023
0230
0000
1000
0000
0000
,
2300
0000
3200
0000
0320
1000
0000
0000
,
1030
0002
0023
0230
0000
0000
0000
0000
,
2300
0000
3200
0000
0320
1000
0000
0000
,
0031
0102
0023
0230
0000
1000
0000
0000
,
2300
0000
3200
0000
0320
1000
0000
0000
,
1030
0002
0023
0230
0000
0000
0000
0000
,
0310
1010
0101
1010
0000
1010
0101
0010
,
1001
1010
0101
1010
0000
1000
0010
0000
,
1010
1010
0101
1010
0000
0101
1010
0100
,
1000
1000
0010
1000
0001
0010
0100
1000
,
0110
0110
1001
0110
0000
0110
1001
0100
,
1010
1000
0011
1000
0010
1100
0001
0000
,
0110
0110
1001
0110
0000
1010
0101
1000
,
0100
0100
0010
0100
0001
0010
0100
1000
,
1001
0100
1001
0100
0011
1000
0110
1000
0001
0100
1010
0100
0011
1000
0101
1000
,
0011
0100
1010
0100
0011
1000
0110
1000
0001
0010
0100
1000
0001
0010
0100
1000
,
0011
0100
0011
0100
1001
0100
0011
0100
0001
1000
0101
1000
0011
0100
1010
0100
,
0001
1000
0010
1000
0001
0100
0010
0100
0001
0010
0100
1000
0001
0010
0100
1000
,
0011
0100
0011
0100
1001
0100
0011
0100
0001
0100
1010
0100
0011
1000
0101
1000
,
0110
1000
0001
0100
0011
0100
0001
0010
1001
0010
0101
1000
0001
0010
0100
1000
,
0011
0100
0011
0100
1001
0100
0011
0100
0001
1000
0101
1000
0011
0100
1010
0100
,
0001
1000
0010
1000
0001
0100
0010
0100
0001
0010
0100
1000
0001
0010
0100
1000
,
0011
0100
0010
0000
0001
0000
0010
1000
0010
0000
0001
0000
0010
1000
0010
0000
,
1001
0100
0010
0002
0000
0000
0000
0000
,
0013
0100
1010
0000
1100
0001
0010
0001
0100
0000
0001
1000
0001
0000
0000
0001
,
0100
0000
0011
0000
0110
0001
1000
0010
0100
0000
0001
0010
0001
0000
0000
0100
,
0011
0000
1000
0000
0110
0001
0000
0001
0100
0000
0001
0000
0011
0000
0000
1010
,
0001
0100
0001
0000
0101
0010
1000
0000
0110
0000
0000
0000
0011
0000
0000
0000
,
1010
0100
1010
0000
1100
0001
0010
0001
0100
0000
0001
1000
0001
0000
0000
0001
,
0100
0000
0011
0000
0110
0001
1000
0010
0100
0000
0001
0010
0001
0000
0000
0100
,
0011
0000
1000
0000
0110
0001
0000
0001
0100
0000
0001
0000
0011
0000
0000
1010
,
0001
0100
0001
0000
0101
0010
1000
0000
0110
0000
0000
0000
0011
0000
0000
0000
,
1000
0001
0010
0100
1000
0001
0010
0100
0000
0001
0000
0010
0000
0100
0000
1000
,
0101
0101
0101
0101
,
0002
0023
0230
0000
,
0300
2000
3200
0320
0000
0000
0000
0000
,
0032
0023
0230
0000
,
0300
2000
3200
0320
0000
0000
0000
0000
,
0032
0000
0023
0000
0230
0001
0000
0000
,
1300
2010
3200
0320
0000
0001
0000
0000
,
0032
0000
0023
0000
0230
0001
0000
0000
,
0301
2000
3200
0320
0000
0000
0000
0000
,
0032
0000
0023
0000
0230
0001
0000
0000
,
1300
2010
3200
0320
0000
0001
0000
0000
,
0032
0000
0023
0000
0230
0001
0000
0000
,
0301
2000
3200
0320
0000
0000
0000
0000
,
0031
0101
1010
0101
0000
0101
1010
0100
,
1001
0101
1010
0101
0000
0001
0100
0000
,
0101
0101
1010
0101
0000
1010
0101
0010
,
0001
0001
0100
0001
1000
0100
0010
0001
,
0110
0110
1001
0110
0000
0110
1001
0010
,
0101
0001
1100
0001
0100
0011
1000
0000
,
0110
0110
1001
0110
0000
0101
1010
0001
,
0010
0010
0100
0010
1000
0100
0010
0001
,
1001
0010
1001
0010
1100
0001
0110
0001
1000
0010
0101
0010
1100
0001
1010
0001
,
1100
0010
0101
0010
1100
0001
0110
0001
1000
0100
0010
0001
1000
0100
0010
0001
,
1100
0010
1100
0010
1001
0010
1100
0010
1000
0001
1010
0001
1100
0010
0101
0010
,
1000
0001
0100
0001
1000
0010
0100
0010
1000
0100
0010
0001
1000
0100
0010
0001
,
1100
0010
1100
0010
1001
0010
1100
0010
1000
0010
0101
0010
1100
0001
1010
0001
,
0110
0001
1000
0010
1100
0010
1000
0100
1001
0100
1010
0001
1000
0100
0010
0001
,
1100
0010
1100
0010
1001
0010
1100
0010
1000
0001
1010
0001
1100
0010
0101
0010
,
1000
0001
0100
0001
1000
0010
0100
0010
1000
0100
0010
0001
1000
0100
0010
0001
,
1100
0010
0100
0000
1000
0000
0100
0001
0100
0000
1000
0000
0100
0001
0100
0000
,
1001
0010
0100
2000
0000
0000
0000
0000
,
3001
0010
0101
0000
0011
1000
0100
1000
0010
0000
1000
0001
1000
0000
0000
1000
,
0010
0000
1100
0000
0110
1000
0001
0100
0010
0000
1000
0100
1000
0000
0000
0010
,
1100
0000
0001
0000
0110
1000
0000
1000
0010
0000
1000
0000
1100
0000
0000
0101
,
1000
0010
1000
0000
1010
0100
0001
0000
0110
0000
0000
0000
1100
0000
0000
0000
,
0101
0010
0101
0000
0011
1000
0100
1000
0010
0000
1000
0001
1000
0000
0000
1000
,
0010
0000
1100
0000
0110
1000
0001
0100
0010
0000
1000
0100
1000
0000
0000
0010
,
1100
0000
0001
0000
0110
1000
0000
1000
0010
0000
1000
0000
1100
0000
0000
0101
,
1000
0010
1000
0000
1010
0100
0001
0000
0110
0000
0000
0000
1100
0000
0000
0000
,
0001
1000
0100
0010
0001
1000
0100
0010
0000
1000
0000
0100
0000
0010
0000
0001
,
1010
1010
1010
1010
;
