#TITLE:Sea Air;
#SUBTITLE:;
#ARTIST:KgZ;
#TITLETRANSLIT:;
#SUBTITLETRANSLIT:;
#ARTISTTRANSLIT:;
#CREDIT:;
#BANNER:ban.jpg;
#BACKGROUND:bg.jpg;
#LYRICSPATH:;
#CDTITLE:;
#MUSIC:Sea Air (full version).mp3;
#OFFSET:0.000;
#SAMPLESTART:33.333;
#SAMPLELENGTH:12.000;
#SELECTABLE:YES;
#BPMS:0.000=180.000;
#STOPS:;
#BGCHANGES:0.000=bg.jpg=1.000=0=0=1,
99999=-nosongbg-=1.000=0=0=0 // don't automatically add -songbackground-
;
// cache tags:
#FIRSTBEAT:0.000;
#LASTBEAT:567.500;
#SONGFILENAME:Songs/Keys of Flames/Sea Air (KgZ)/SA.sm;
#HASMUSIC:1;
#HASBANNER:1;
#MUSICLENGTH:190.223;
// end cache tags

//---------------dance-single - Blank----------------
#NOTES:
     dance-single:
     Blank:
     Hard:
     13:
     1.000,1.000,1.000,0.510,0.991,1297.000,471.000,97.000,0.000,37.000:
2000
0000
0000
0000
,
0000
0000
0000
0000
0000
0000
0000
0000
0000
0000
0000
0000
0000
0000
0000
0000
0000
0000
0000
0000
0000
0000
0000
0000
0000
0000
0000
0000
0000
0100
0010
0001
,
3200
0000
0000
0000
,
2300
0000
0000
0000
,
3002
0000
0000
0000
0000
0000
0000
0000
0000
0000
0000
0000
0000
0000
0000
0003
,
0002
0000
0000
0000
0000
0000
0000
0000
0000
0000
0000
0000
0000
0000
0000
0003
,
0020
0000
0000
0000
,
0230
0000
0000
0000
0000
0000
0000
0000
0000
0000
0000
0000
0000
0000
0000
0300
,
1001
0010
1100
0010
1100
0010
1100
0010
,
1100
0000
0000
0000
0010
0000
0000
0000
1100
0000
0000
0000
0010
0000
0000
0000
1100
0000
0000
0000
0010
0000
0000
0000
1100
0000
0000
0000
0010
0100
1000
0010
,
0101
1000
0101
1000
0101
1000
0101
1000
,
0110
1000
0110
0001
0110
1000
0110
0001
,
1001
0100
1001
0010
1001
0100
1001
0010
,
1001
0100
1001
0010
1001
0100
1001
0010
,
0011
1100
0011
1100
0011
1100
0011
1100
,
0110
0110
0110
0110
0110
0110
0110
0110
,
1001
0001
0110
1100
0010
0110
1100
0110
,
1100
1000
0110
1100
0010
0110
1100
0110
,
0011
0100
1001
0011
0010
1001
0011
1001
,
1100
0010
1100
0011
0100
1100
0011
1100
,
1100
0001
0110
1100
0010
0110
1100
0110
,
1100
1000
0110
1100
0010
0110
1100
0110
,
1100
0010
1100
1100
0001
1100
1100
1100
,
0110
1000
0110
0110
0001
0110
0110
0110
,
1001
0000
0100
0010
0101
0000
1000
0000
0010
0100
1010
0000
0001
0000
0100
0010
,
1001
0000
0100
1000
0110
0000
0010
0000
1000
0100
1001
0000
0100
0000
0001
0100
,
0011
0000
1000
0001
0110
0000
0001
0000
1000
0100
0011
0000
1000
0000
0010
0100
,
1010
0000
0100
0010
0101
0000
0010
0000
1000
0001
1010
0000
0100
0000
1000
0100
,
0011
0000
0100
1000
0011
0000
0100
0000
1000
0010
0101
0000
1000
0000
0100
0010
,
1100
0000
0010
0001
1100
0000
0100
0000
0010
0100
1010
0000
0001
0000
0010
0100
,
1001
0000
0010
0100
1001
0000
1001
0000
0100
0010
1001
0000
1001
0000
1001
0000
,
0110
0000
0100
1000
0110
0000
0110
0000
0010
0001
0110
0000
0110
0000
0110
0000
,
1001
0000
0010
0100
1010
0000
0100
0000
1000
0010
0101
0000
1000
0000
0001
0100
,
0011
0000
0010
0001
1100
0000
0001
0000
0010
0100
1010
0000
0100
0000
1000
0001
,
0110
0000
0010
0100
1001
0000
0010
0000
0100
0001
0110
0000
1000
0000
0010
1000
,
0101
0000
0010
0100
0011
0000
0001
0000
0010
0100
1001
0000
0100
0000
1000
0001
,
0110
0000
1000
0001
1010
0000
0100
0000
0010
1000
0101
0000
1000
0000
0100
0010
,
1001
0000
0001
1000
0101
0000
0010
0000
0100
0010
1001
0000
0001
0000
0010
0100
,
0011
0000
1000
0100
0011
0000
0011
0000
0010
0100
0011
0000
0011
0000
0011
0000
,
0101
0000
0010
1000
0101
0000
0101
0000
1000
0010
0101
0000
0101
0000
0101
0000
,
2001
0000
0000
0000
,
0000
0000
0000
0000
0000
0000
0000
0000
0000
0000
0000
0000
0000
0000
0000
0000
0000
0000
0000
0000
0000
0000
0000
0000
0000
0000
0000
0000
0000
0001
0010
0100
,
3021
0000
0000
0000
,
0230
0000
0000
0000
,
0320
0000
0000
0000
0000
0000
0000
0000
0000
0000
0000
0000
0000
0000
0000
0030
,
0020
0000
0000
0000
,
0032
0000
0000
0000
,
2003
0000
0000
0000
,
3020
0000
0000
0230
,
0302
0023
2030
3200
,
0302
0000
0000
0000
,
0000
0000
2003
3200
,
0320
0000
0000
0000
,
0000
0000
0032
0203
,
0320
0000
0230
0000
,
0302
0000
0023
0000
,
2030
0000
0000
0000
,
0000
0000
0000
0000
0000
0000
0000
0000
0000
0000
0000
0000
0000
0000
0000
3000
,
0012
0010
0010
0010
,
0010
0010
0010
0010
,
2003
0010
0001
0010
0001
0010
0001
0010
,
0001
0010
0001
0010
0001
0010
0001
0010
,
3200
0010
1000
0010
1000
0010
1000
0010
,
1000
0010
1000
0010
1000
0010
1000
0010
,
0302
0010
1000
0010
1000
0010
1000
0010
,
1000
0010
1000
0010
1000
0010
1000
0100
,
0023
0100
1000
0100
1000
0100
1000
0100
,
0032
1000
0100
1000
0100
1000
0100
1000
0100
1000
0100
1000
0100
1000
0100
1003
,
0110
1000
0100
0010
1100
0001
1000
0010
0100
0010
1001
0010
0100
0001
0010
0100
,
0011
1000
0100
0010
0101
0010
0001
0100
0010
0100
1001
0100
1000
0100
0010
1000
,
0101
0010
0001
1000
0110
0001
0100
0010
0001
1000
0101
0010
0001
0100
0001
0010
,
1100
0010
1000
0001
1100
0010
0100
0001
1000
0010
1001
0100
1000
0100
0010
0100
,
1001
0100
1000
0010
0101
0010
0001
1000
0100
1000
0011
0100
0010
0001
1000
0100
,
1010
0100
0010
0001
1010
0100
1000
0010
0001
0010
1100
0010
0100
0001
0010
0100
,
1010
0100
0010
0100
1010
0000
1010
0001
0100
0001
1010
0000
1010
0000
1010
0000
,
0101
1000
0100
0010
0101
0000
0101
0010
0100
1000
0101
0000
0101
0000
0101
0000
,
1001
0010
0100
0001
1100
0010
0100
1000
0010
0100
0011
0100
0001
0010
0100
1000
,
0110
1000
0100
0010
1100
0001
0010
0100
0001
0010
1001
0010
0100
0001
0010
1000
,
0101
0010
0100
0001
1010
0100
0010
0001
0100
1000
0110
1000
0010
0100
0001
0100
,
0011
1000
0100
1000
0011
0100
0010
0001
0100
0001
1010
0001
1000
0010
0100
0001
,
1010
0100
0010
0100
1001
0010
1000
0100
0010
0001
1100
0010
0100
0001
1000
0001
,
0110
1000
0010
1000
0101
0010
0100
0010
1000
0001
1010
0100
0010
1000
0010
0100
,
1001
0100
1000
0010
1001
0000
1001
0010
0100
0010
1001
0000
1001
0000
1001
0000
,
0110
1000
0100
0001
0110
0000
0110
0001
0010
1000
0110
0000
0110
0000
0110
0000
,
2001
0000
3210
1302
0000
0123
1032
0213
,
2301
0000
3210
2301
0000
3210
2301
3210
,
1320
0000
0132
1023
0000
0132
1023
0132
,
1203
0000
0321
1230
0000
0321
1230
0321
,
1032
0000
0213
2301
0000
3120
1032
0213
,
2301
0000
0000
0000
3210
0000
2301
0000
0000
0000
3210
0000
2301
0000
3210
0300
,
0011
0200
2300
3000
0011
0000
0011
0200
2300
3000
0011
0000
0011
0000
0011
0000
,
0101
0020
2030
3000
0101
0000
0101
0020
2030
3000
0101
0000
0101
0000
0101
0000
,
2001
0010
0100
0001
3010
0100
2010
0100
0010
0100
0001
0010
3100
0001
0010
0100
,
2000
0100
0010
0001
3100
0010
2100
0010
0100
0001
0010
0001
3100
0010
0100
1000
,
0210
1000
0010
1000
0301
0010
0200
1000
0010
1000
0001
0010
0301
0010
0100
1000
,
0120
0001
0100
1000
0130
0001
1020
0100
0001
0100
1000
0100
1030
0001
0010
0100
,
2000
0010
0100
0001
3010
0001
2100
0010
0100
0001
0100
0010
3100
1000
0100
0010
,
2001
0010
0100
0001
3010
0001
2100
0010
0100
0001
0100
0010
3100
0001
0010
0100
,
1001
0000
0200
0000
0320
0000
1031
0000
0000
1001
0200
0000
0320
0000
0030
1001
0000
0000
1001
0000
0000
1001
0000
0000
,
0110
0000
1001
0000
0110
0000
1001
0000
0110
1001
0110
1001
0110
1001
0110
1001
,
0110
0000
1100
0000
0110
0000
0011
0100
0010
0001
1100
0000
0110
0000
0011
0100
,
0001
0010
1100
0000
0110
0000
0011
1000
0001
0010
1100
0000
0110
0000
0011
0000
,
0110
0000
0110
0000
0110
0000
0110
1000
0100
1000
0011
0000
0110
0000
1100
0000
,
1001
0000
1001
0000
1001
0000
1001
0100
1000
0010
1100
0000
0110
0000
0011
0000
,
1001
1001
0011
0110
1001
1001
0011
0110
,
1001
1001
0011
0110
1001
1001
1100
1010
,
0101
0101
0101
0101
1010
0110
0011
0110
,
1010
0000
1010
0000
1010
0000
1010
0000
1010
0100
1010
0001
1010
0100
1010
0001
,
0110
1100
0110
1100
0110
1100
0110
1100
,
0110
0101
0110
1010
0110
0101
0110
1010
,
1001
1001
1001
1001
1001
0011
0110
1010
,
1100
1100
1100
1100
1100
1100
0110
0011
,
1001
1001
0101
0110
1010
1010
0101
0110
,
1010
1010
0101
0110
1010
1010
1100
0110
,
1001
1001
1001
1001
0110
1100
0110
1100
,
1001
0000
1001
0000
1001
0000
1001
0000
1001
0100
1001
0010
1001
0100
1001
0010
,
1001
0100
1000
0100
1000
0100
1000
0100
1000
0100
1000
0100
1000
0100
1000
0100
,
1010
0001
1100
0010
1100
0001
1100
0010
1100
0001
1100
0010
1100
0001
1100
0010
,
1001
0100
0001
0010
0001
1000
0010
0100
0001
1000
0010
0100
1000
0100
1000
0100
,
0010
0001
0100
0001
0010
0001
0100
1000
0010
0100
1000
0010
0100
1000
0010
0100
,
0001
0010
0100
0001
0010
0100
0001
1000
0010
0100
0001
1000
0001
0010
0001
0100
,
1000
0010
0100
1000
0001
0010
0001
0100
1000
0010
0100
0001
0100
0010
1000
0100
,
0001
0100
0010
1000
0001
0100
0010
0100
0001
1000
0010
0100
0001
0100
0010
1000
,
0100
0010
1000
0001
0010
0001
0100
1000
0010
0001
0010
0100
1000
0001
0010
0001
,
1100
0000
1100
1100
0000
1100
1100
1100
,
0110
1000
0110
0001
0110
1000
0110
0001
0110
1000
0110
0001
0110
1000
0110
0001
,
0110
1000
0100
0010
1100
0001
0010
0001
0100
0001
1010
0100
0001
0010
0100
1000
,
0011
1000
0010
0100
0011
0100
0001
0010
1000
0010
0101
0010
0100
0001
0010
0100
,
1001
0010
0100
0010
1001
0010
0100
0001
1000
0001
0110
0001
0010
0100
0001
0100
,
1010
0100
0010
1000
0101
0010
0100
1000
0001
0100
1010
0100
0001
1000
0010
1000
,
0101
0010
1000
0001
1100
0010
0001
0100
0001
1000
0110
1000
0100
1000
0001
0100
,
1001
0010
0100
0001
1100
0010
0001
0010
0100
0010
1001
0010
0100
0010
0001
0100
,
1010
0100
0001
0100
1010
0000
1010
0100
0001
0100
1010
0000
1010
0000
1010
0000
,
0101
0000
0101
0000
1010
0000
0101
0000
0101
1010
0101
1010
0101
1010
0101
0000
,
1000
0000
0100
1000
0000
0100
1000
0100
,
1000
0000
0100
1000
0000
0100
1000
0100
,
0010
0000
0100
0010
0000
0100
0010
0100
,
0001
0000
0010
0001
0000
0010
0001
0010
,
1000
0000
0100
1000
0000
0100
1000
0100
,
1000
0000
0100
1000
0000
0100
1000
0100
,
0010
0000
0010
0010
0000
0010
0010
0010
,
0001
0000
0001
0001
0000
1001
0110
1001
;

//---------------dance-single - Blank----------------
#NOTES:
     dance-single:
     Blank:
     Medium:
     1:
     0.075,0.084,0.105,0.000,0.000,80.000,20.000,0.000,0.000,0.000:






1001
0000
0000
0000
,
0000
0000
0000
0000
0000
0000
1000
0010
,
0101
0000
0000
0000
,
0110
0000
0000
0000
,
1001
0000
1001
0000
,
1100
0000
1100
0000
,
0011
0000
0011
0000
,
0110
0110
0110
0110
,
1001
0100
1000
0010
0100
0001
0010
0001
,
0100
1000
0010
0100
0001
1000
0010
0100
,
1010
0100
0001
0010
0100
1000
0001
0010
,
0101
0010
1000
0001
0100
0010
1000
0010
,
1001
0010
0100
1000
0010
0100
0001
0010
,
0001
0100
1000
0010
0100
0001
1000
0010
,
0011
0100
1000
0010
0100
0001
1000
0010
,
0110
0001
0010
0001
1000
0100
0010
0100
,
1001
0000
0000
0000
;
