#TITLE:Whazashmup;
#SUBTITLE:;
#ARTIST:TheBoxX vs J. Arthur Keenes Band;
#TITLETRANSLIT:;
#SUBTITLETRANSLIT:;
#ARTISTTRANSLIT:;
#CREDIT:Mad Matt;
#BANNER:../Tachyon Spectrum-bn.png;
#BACKGROUND:../Tachyon Spectrum-bg.png;
#LYRICSPATH:;
#CDTITLE:;
#MUSIC:whazashmup.ogg;
#OFFSET:-2.029;
#SAMPLESTART:24.674;
#SAMPLELENGTH:12.000;
#SELECTABLE:YES;
#BPMS:0.000=240.000;
#STOPS:;
#BGCHANGES:;
// cache tags:
#FIRSTBEAT:0.000;
#LASTBEAT:672.000;
#SONGFILENAME:Songs/Tachyon Spectrum/Whazashmup - [Mad Matt]/whazashmup.sm;
#HASMUSIC:1;
#HASBANNER:1;
#MUSICLENGTH:170.318;
// end cache tags

//---------------dance-single - Mad Matt----------------
#NOTES:
     dance-single:
     Mad Matt:
     Challenge:
     21:
     1.000,1.000,0.023,0.552,1.000,2044.000,4.000,94.000,0.000,0.000:

0001
0010
0100
1000
0010
0100
0001
0010
0100
1000
0001
1000
0001
0100
0010
1000
,
0100
1000
0001
0100
0010
1000
0100
0010
0001
1000
0001
1000
0010
0100
0001
1000
,
0001
0010
0100
1000
0010
0100
0001
1000
0100
0010
0001
0010
0001
1000
0010
1000
,
0001
0100
0001
0100
0010
1000
0100
0010
0001
1000
0001
1000
0100
0010
0100
1000
,
0001
0100
0010
1000
0100
0010
0001
0100
0010
1000
0001
1000
0001
0010
0100
1000
,
0010
1000
0001
0010
0100
1000
0010
0100
0001
1000
0001
1000
0100
0010
0001
1000
,
0001
0100
0010
1000
0100
0010
0001
1000
0010
0100
0001
0100
0001
1000
0100
1000
,
0001
0010
0001
0010
0100
1000
0010
0100
0001
1000
0001
1000
0010
0100
0010
1000
,
0100
0010
0001
0100
0010
1000
0100
0010
0001
1000
0001
1000
0010
0100
0001
0010
,
0001
1000
0010
0100
0001
0010
0100
1000
0001
1000
0001
0100
0010
1000
0001
1000
,
0100
0010
0001
0100
0010
1000
0001
0010
0100
1000
0100
1000
0001
0100
0001
1000
,
0010
1000
0010
0100
0001
0010
0100
1000
0001
1000
0001
0010
0100
0010
0001
1000
,
0010
0100
0001
0010
0100
1000
0010
0100
0001
1000
0001
1000
0100
0010
0001
0100
,
0001
1000
0100
0010
0001
0100
0010
1000
0001
1000
0001
0010
0100
1000
0001
1000
,
0010
0100
0001
0010
0100
1000
0001
0100
0010
1000
0010
1000
0001
0010
0001
1000
,
0100
1000
0100
0010
0001
0100
0010
1000
0001
1000
0001
0100
0010
0100
0001
1000
,
0100
0000
0000
0010
0000
0000
0001
0000
0000
1000
0000
0000
0000
0000
0000
0000
0000
0000
0001
1000
0001
1000
0001
1000
,
0001
0000
0000
0010
0000
0000
0100
0000
0000
1000
0000
0000
0000
0000
0000
0000
0000
0000
0001
1000
0001
1000
0001
1000
,
0001
0000
0000
0100
0000
0000
0010
0000
0000
1000
0000
0000
0000
0000
0000
0000
0000
0000
0001
1000
0001
1000
0001
1000
,
0001
0000
0000
0100
0000
0000
0010
0000
0000
1000
0000
0000
0000
0000
0000
0000
0000
0000
0001
1000
0001
1000
0001
1000
,
0001
0000
0000
0010
0000
0000
0100
0000
0000
1000
0000
0000
0000
0000
0000
0000
0000
0000
0001
1000
0001
1000
0001
1000
,
0001
0000
0000
0010
0000
0000
0100
0000
0000
1000
0000
0000
0000
0000
0000
0000
0000
0000
0001
1000
0001
1000
0001
1000
,
0001
0000
0100
0000
0010
0000
1000
0000
0001
0100
0001
0000
1000
0010
1000
0000
,
0001
0000
0000
0010
0000
0000
0001
0000
0000
0000
0000
0000
1000
0000
0000
0100
0000
0000
1000
0000
0000
0000
0000
0000
0001
0000
0000
1000
0000
0000
0001
0000
0000
0000
0000
0000
1000
0000
0001
0000
1000
0000
0001
0000
1000
0000
0001
0000
,
1000
0100
1000
0100
1000
0001
0100
0001
,
1000
0100
1000
0001
0100
0010
0100
0001
1000
0100
0010
0001
0100
0010
0100
0001
,
4000
0000
0000
0000
0000
0000
0000
0000
0000
0000
0000
0000
0000
0000
0000
3000
4000
0000
0000
0000
0000
0000
0000
0000
3000
0000
0000
0000
0000
0000
0000
0000
0001
0000
0000
0000
0000
0000
0000
0000
0010
0000
0000
0000
0000
0000
0000
0000
0000
0000
0000
0000
0000
0000
0000
0000
0100
0000
0000
0000
0000
0000
0000
0000
,
2000
3002
0203
0320
,
2030
0000
3010
0200
0000
0304
0000
1003
,
0200
0000
0310
0002
0000
4003
0000
3010
,
0200
0000
0000
0302
0000
2003
0000
3001
,
0010
0100
1000
0100
0040
0030
0000
0000
,
0002
0000
2003
0000
3010
0200
0000
0302
,
0000
2003
0000
3100
0020
0000
0032
0000
,
1003
0100
0010
0100
1000
0002
0000
0103
,
0000
0000
0010
0000
0000
0000
1000
0000
0001
0010
0100
1000
0002
0000
0000
0000
,
1003
0100
0000
0010
0001
0000
2000
0000
,
3002
0000
0000
0000
1003
0100
0010
0001
0100
0010
1000
0100
0020
0000
0000
0000
,
0034
0000
0003
0004
0000
0003
0004
0000
,
0000
0000
0000
0000
,
1003
0100
0010
0001
0100
0010
1000
0100
0010
0001
1000
0001
1000
0010
0100
0001
,
0010
0001
1000
0010
0100
0001
0010
0100
1000
0001
1000
0001
0100
0010
1000
0001
,
1000
0100
0010
0001
0100
0010
1000
0001
0010
0100
1000
0100
1000
0001
0100
0001
,
1000
0010
1000
0010
0100
0001
0010
0100
1000
0001
1000
0001
0010
0100
0010
0001
,
1000
0010
0100
0001
0010
0100
1000
0010
0100
0001
1000
0001
1000
0100
0010
0001
,
0100
0001
1000
0100
0010
0001
0100
0010
1000
0001
1000
0001
0010
0100
1000
0001
,
1000
0010
0100
0001
0010
0100
1000
0001
0100
0010
1000
0010
1000
0001
0010
0001
,
1000
0100
1000
0100
0010
0001
0100
0010
1000
0001
1000
0001
0100
0010
0100
0001
,
0010
0100
1000
0010
0100
0001
0010
0100
1000
0001
1000
0001
0100
0010
1000
0100
,
1000
0001
0100
0010
1000
0100
0010
0001
1000
0001
1000
0010
0100
0001
1000
0001
,
0010
0100
1000
0010
0100
0001
1000
0100
0010
0001
0010
0001
1000
0010
1000
0001
,
0100
0001
0100
0010
1000
0100
0010
0001
1000
0001
1000
0100
0010
0100
1000
0001
,
0100
0010
1000
0100
0010
0001
0100
0010
1000
0001
1000
0001
0010
0100
1000
0010
,
1000
0001
0010
0100
1000
0010
0100
0001
1000
0001
1000
0100
0010
0001
1000
0001
,
0100
0010
1000
0100
0010
0001
1000
0010
0100
0001
0100
0001
1000
0100
1000
0001
,
0010
0001
0010
0100
1000
0010
0100
0001
1000
0100
1000
0010
0100
0010
1000
0001
,
0010
0100
1000
0000
0010
0100
0001
0000
0010
0100
1000
0000
0010
0100
0001
0000
,
0010
0001
0100
0000
0010
1000
0100
0000
0010
0001
0100
0000
0010
1000
0100
0000
,
1000
0010
0100
0000
0001
0010
0100
0000
1000
0010
0100
0000
0001
0010
0100
0000
,
0010
0001
0100
0000
0010
1000
0100
0000
0010
0001
0100
0000
0010
1000
0100
0000
,
2000
0000
3200
0000
0310
0001
0010
0200
,
0000
0000
2300
0000
3001
0100
0010
2000
,
0000
0000
3002
0000
1003
0100
0010
0002
,
0000
0000
0000
0000
1003
0100
0010
0001
0100
0010
0100
0001
1000
0100
0010
0001
,
2000
0000
3020
0000
0130
0001
0100
0020
,
0000
0000
2030
0000
3001
0010
0100
2000
,
0000
0000
3002
0000
1003
0010
0100
0002
,
0000
0000
0000
0000
1003
0010
0100
0010
1000
0001
0010
0100
1000
0010
0100
0001
,
2000
0000
3200
0000
0310
0001
0010
0200
,
0000
0000
2300
0000
3001
0100
0010
2000
,
0000
0000
3002
0000
1003
0100
0010
0002
,
0000
0000
0000
0000
1003
0100
0010
0001
0100
0010
1000
0001
1000
0100
0010
0001
,
2000
0000
3020
0000
0130
0001
0100
0020
,
0000
0000
2030
0000
3001
0010
0100
2000
,
0000
0000
3020
0000
0130
0001
0100
0020
,
0030
0000
0000
0000
0000
0000
0000
0000
0200
0300
0000
0000
0000
0000
0000
0000
0200
0300
0000
0000
0000
0000
0000
0000
0200
0300
0000
0000
0000
0000
0000
0000
0001
0000
0000
0000
1000
0000
0000
0000
0010
0000
0000
0000
0100
0000
0000
0000
0001
0000
0000
0000
1000
0000
0000
0000
0100
0000
0000
0000
0010
0000
0000
0000
,
0001
1000
0100
0010
0100
1000
0010
0100
0010
1000
0001
0010
0001
0100
0001
1000
,
0001
0010
0100
0010
0001
0100
0010
0100
0001
1000
0100
1000
0010
1000
0001
0100
,
0001
1000
0100
0010
0100
1000
0010
0100
0010
1000
0001
0010
0001
0100
0001
1000
,
0001
0010
0100
0010
0001
0100
0010
0100
0001
1000
0100
1000
0010
1000
0001
0100
,
0001
1000
0100
0010
0100
1000
0010
0100
0010
1000
0001
0010
0001
0100
0001
1000
,
0001
0010
0100
0010
0001
0100
0010
0100
0001
1000
0100
1000
0010
1000
0001
0100
,
0001
1000
0100
0010
0100
1000
0010
0100
0010
1000
0001
0010
0001
0100
0001
1000
,
0001
0010
0100
1000
0010
0100
0001
0010
0100
1000
0010
0100
0001
1000
0100
0010
,
0001
1000
0001
0010
0100
0010
0001
0100
0010
0100
0001
1000
0100
1000
0010
1000
,
0001
1000
0100
0010
0100
1000
0010
0100
0010
1000
0001
0010
0001
0100
0001
1000
,
0010
1000
0001
0010
0100
0010
0001
0100
0010
0100
0001
1000
0100
1000
0010
1000
,
0001
1000
0100
0010
0100
1000
0010
0100
0010
1000
0001
0010
0001
0100
0001
1000
,
0010
1000
0001
0010
0100
0010
0001
0100
0010
0100
0001
1000
0100
1000
0010
1000
,
0001
1000
0100
0010
0100
1000
0010
0100
0010
1000
0001
0010
0001
0100
0001
1000
,
0010
1000
0001
0010
0100
0010
0001
0100
0010
0100
0001
1000
0100
1000
0010
1000
,
0001
1000
0100
0010
0001
0100
0010
1000
0100
0010
0001
0100
0010
1000
0001
0010
,
0100
1000
0001
0100
0010
0100
0001
0010
0100
0010
0001
1000
0010
1000
0100
1000
,
0001
1000
0010
0100
0010
1000
0100
0010
0100
1000
0001
0100
0001
0010
0001
1000
,
0100
1000
0001
0100
0010
0100
0001
0010
0100
0010
0001
1000
0010
1000
0100
1000
,
0001
1000
0010
0100
0010
1000
0100
0010
0100
1000
0001
0100
0001
0010
0001
1000
,
0100
1000
0001
0100
0010
0100
0001
0010
0100
0010
0001
1000
0010
1000
0100
1000
,
0001
1000
0010
0100
0010
1000
0100
0010
0100
1000
0001
0100
0001
0010
0001
1000
,
0100
1000
0001
0100
0010
0100
0001
0010
0100
0010
0001
1000
0010
1000
0100
1000
,
0001
1000
0010
0100
0001
0010
0100
1000
0010
0100
0001
0010
0100
1000
0001
0100
,
0010
1000
0001
1000
0010
0100
0010
1000
0100
0010
0100
1000
0001
0100
0001
0010
,
0001
1000
0001
0100
0010
0100
0001
0010
0100
0010
0001
1000
0010
1000
0100
1000
,
0001
0010
0001
1000
0010
0100
0010
1000
0100
0010
0100
1000
0001
0100
0001
0010
,
0001
1000
0001
0100
0010
0100
0001
0010
0100
0010
0001
1000
0010
1000
0100
1000
,
0001
0010
0001
1000
0010
0100
0010
1000
0100
0010
0100
1000
0001
0100
0001
0010
,
0001
1000
0001
0100
0010
0100
0001
0010
0100
0010
0001
1000
0010
1000
0100
1000
,
0001
0010
0001
1000
0010
0100
0010
1000
0100
0010
0100
1000
0001
0100
0001
0010
,
0001
1000
0001
0100
0010
1000
0100
0010
0001
0100
0010
1000
0100
0010
0001
1000
,
0001
0010
0100
1000
0010
0100
0001
0010
0100
1000
0001
1000
0001
0100
0010
1000
,
0100
1000
0001
0100
0010
1000
0100
0010
0001
1000
0001
1000
0010
0100
0001
1000
,
0001
0010
0100
1000
0010
0100
0001
1000
0100
0010
0001
0010
0001
1000
0010
1000
,
0001
0100
0001
0100
0010
1000
0100
0010
0001
1000
0001
1000
0100
0010
0100
1000
,
0001
0100
0010
1000
0100
0010
0001
0100
0010
1000
0001
1000
0001
0010
0100
1000
,
0010
1000
0001
0010
0100
1000
0010
0100
0001
1000
0001
1000
0100
0010
0001
1000
,
0001
0100
0010
1000
0100
0010
0001
1000
0010
0100
0001
0100
0001
1000
0100
1000
,
0001
0010
0001
0010
0100
1000
0010
0100
0001
1000
0001
1000
0010
0100
0010
1000
,
0100
0010
0001
0100
0010
1000
0100
0010
0001
1000
0001
1000
0010
0100
0001
0010
,
0001
1000
0010
0100
0001
0010
0100
1000
0001
1000
0001
0100
0010
1000
0001
1000
,
0100
0010
0001
0100
0010
1000
0001
0010
0100
1000
0100
1000
0001
0100
0001
1000
,
0010
1000
0010
0100
0001
0010
0100
1000
0001
1000
0001
0010
0100
0010
0001
1000
,
0010
0100
0001
0010
0100
1000
0010
0100
0001
1000
0001
1000
0100
0010
0001
0100
,
0001
1000
0100
0010
0001
0100
0010
1000
0001
1000
0001
0010
0100
1000
0001
1000
,
0010
0100
0001
0010
0100
1000
0001
0100
0010
1000
0010
1000
0001
0010
0001
1000
,
0100
1000
0100
0010
0001
0100
0010
1000
0001
1000
0001
0100
0010
0100
0001
1000
,
0100
0010
0001
0000
0100
0010
1000
0000
0100
0010
0001
0000
0100
0010
1000
0000
,
0100
1000
0010
0000
0100
0001
0010
0000
0100
1000
0010
0000
0100
0001
0010
0000
,
0001
0100
0010
0000
1000
0100
0010
0000
0001
0100
0010
0000
1000
0100
0010
0000
,
0100
1000
0010
0000
0100
0001
0010
0000
0100
1000
0010
0000
0100
0001
0010
0000
,
0002
0000
0023
0000
0130
1000
0100
0020
,
0000
0000
0032
0000
1003
0010
0100
0002
,
0000
0000
2003
0000
3001
0010
0100
2000
,
0000
0000
0000
0000
3001
0010
0100
1000
0010
0100
0010
1000
0001
0010
0100
1000
,
0002
0000
0203
0000
0310
1000
0010
0200
,
0000
0000
0302
0000
1003
0100
0010
0002
,
0000
0000
2003
0000
3001
0100
0010
2000
,
0000
0000
0000
0000
3001
0100
0010
0100
0001
1000
0100
0010
0001
0100
0010
1000
,
0002
0000
0023
0000
0130
1000
0100
0020
,
0000
0000
0032
0000
1003
0010
0100
0002
,
0000
0000
2003
0000
3001
0010
0100
2000
,
0000
0000
0000
0000
3001
0010
0100
1000
0010
0100
0001
1000
0001
0010
0100
1000
,
0002
0000
0203
0000
0310
1000
0010
0200
,
0000
0000
0302
0000
1003
0100
0010
0002
,
0000
0000
0203
0000
0310
1000
0010
0200
,
0300
0000
0002
0003
0002
0003
0002
0003
0002
0003
0002
0003
0002
0003
0002
0003
,
1000
0100
0010
0001
0100
0010
1000
0001
0010
0001
1000
0001
1000
0010
0100
0001
,
0010
0001
1000
0010
0100
0001
0010
0001
1000
0001
1000
0001
0100
0010
1000
0001
,
1000
0100
0010
0001
0100
0010
1000
0001
1000
0100
1000
0100
1000
0001
0100
0001
,
1000
0010
1000
0001
0100
0001
0010
0100
1000
0010
1000
0001
0010
0100
0010
0001
,
1000
0010
0100
0001
0010
0100
1000
0001
0100
0001
1000
0001
1000
0100
0010
0001
,
0100
0001
1000
0100
0010
0001
0100
0001
1000
0001
1000
0001
0010
0100
1000
0001
,
1000
0010
0100
0001
0010
0100
1000
0001
1000
0010
1000
0010
1000
0001
0010
0001
,
1000
0100
1000
0001
0010
0001
0100
0010
1000
0100
1000
0001
0100
0010
0100
0001
,
0010
0100
1000
0010
0100
0001
1000
0100
1000
0001
1000
0001
0100
0010
1000
0100
,
1000
0001
0100
0010
1000
0100
1000
0001
1000
0001
1000
0010
0100
0001
1000
0001
,
0010
0100
1000
0010
0100
0001
1000
0001
0010
0001
0010
0001
1000
0010
1000
0001
,
0100
0001
1000
0010
1000
0100
0010
0001
0100
0001
1000
0100
0010
0100
1000
0001
,
0100
0010
1000
0100
0010
0001
1000
0010
1000
0001
1000
0001
0010
0100
1000
0010
,
1000
0001
0010
0100
1000
0010
1000
0001
1000
0001
1000
0100
0010
0001
1000
0001
,
0100
0010
1000
0100
0010
0001
1000
0001
0100
0001
0100
0001
1000
0100
1000
0001
,
0010
0001
1000
0100
1000
0010
0100
0001
0010
0001
1000
0010
0100
0010
1000
0001
,
2000
0000
0000
0000
,
0000
0000
0000
0000
0000
0000
3000
0000
0000
0000
0000
0000
0000
0000
0000
0000
0000
0000
0001
1000
0001
1000
0001
4000
,
0004
0000
0000
0000
0000
0000
0000
0000
0000
0000
0000
0000
0000
0000
0000
0000
0000
0000
0000
0000
0000
3000
0000
0003
,
1002
0000
0000
0000
0000
0000
1000
0000
0000
0000
0000
0000
0010
0000
0000
1000
0000
0000
0003
0000
0000
0001
1000
0001
,
2000
0000
0000
0000
0010
0000
0000
0001
,
0001
0000
0000
0000
0000
0000
0001
0000
0000
0000
0000
0000
0010
0000
0000
0001
0000
0000
3000
0000
0000
1000
0001
2000
,
0002
0000
0000
0000
,
0000
0000
0000
0000
,
3003
0000
0000
0000
;

//---------------dance-single - Tachyon Delta----------------
#NOTES:
     dance-single:
     Tachyon Delta:
     Easy:
     20:
     1.000,1.000,0.023,0.552,1.000,2044.000,4.000,94.000,0.000,0.000:





0001
0100
0010
1000
0001
1000
0010
0100
0001
1000
0010
1000
0001
0100
0010
1000
,
0001
0010
0100
1000
0001
1000
0100
0010
0001
1000
0100
1000
0001
0010
0100
1000
,
0001
0100
0001
1000
0010
0100
0001
0100
0010
1000
0001
0100
0010
1000
0001
1000
,
0010
0100
0001
0100
0010
1000
0001
0100
0001
1000
0010
0100
0001
0100
0010
1000
,
0001
0010
0100
1000
0001
1000
0100
0010
0001
1000
0100
1000
0001
0010
0100
1000
,
0001
0100
0010
1000
0001
1000
0010
0100
0001
1000
0010
1000
0001
0100
0010
1000
,
0001
0010
0001
1000
0100
0010
0001
0010
0100
1000
0001
0010
0100
1000
0001
1000
,
0100
0010
0001
0010
0100
1000
0001
0010
0001
1000
0100
0010
0001
0010
0100
1000
,
0001
0100
0010
1000
0001
1000
0010
0100
0001
1000
0010
1000
0001
0100
0010
1000
,
0001
0010
0100
1000
0001
1000
0100
0010
0001
1000
0100
1000
0001
0010
0100
1000
,
0001
0100
0001
1000
0010
0100
0001
0100
0010
1000
0001
0100
0010
1000
0001
1000
,
0010
0100
0001
0100
0010
1000
0001
0100
0001
1000
0010
0100
0001
0100
0010
1000
,
0001
0010
0100
1000
0001
1000
0100
0010
0001
1000
0100
1000
0001
0010
0100
1000
,
0001
0100
0010
1000
0001
1000
0010
0100
0001
1000
0010
1000
0001
0100
0010
1000
,
0001
0010
0001
1000
0100
0010
0001
0010
0100
1000
0001
0010
0100
1000
0001
1000
,
0001
0100
0010
1000
0001
1000
0010
0100
0001
0100
0010
1000
0001
0100
0010
1000
,
0001
0000
0000
0010
0000
0000
0100
0000
0000
1000
0000
0000
0000
0000
0000
0000
0000
0000
0001
1000
0001
1000
0001
1000
,
0001
0000
0000
0010
0000
0000
0100
0000
0000
1000
0000
0000
0000
0000
0000
0000
0000
0000
0001
1000
0001
1000
0001
1000
,
0001
0000
0000
0100
0000
0000
0010
0000
0000
1000
0000
0000
0000
0000
0000
0000
0000
0000
0001
1000
0001
1000
0001
1000
,
0001
0000
0000
0100
0000
0000
0010
0000
0000
1000
0000
0000
0000
0000
0000
0000
0000
0000
0001
1000
0001
1000
0001
1000
,
0001
0000
0000
0010
0000
0000
0100
0000
0000
1000
0000
0000
0000
0000
0000
0000
0000
0000
0001
1000
0001
1000
0001
1000
,
0001
0000
0000
0010
0000
0000
0100
0000
0000
1000
0000
0000
0000
0000
0000
0000
0000
0000
0001
1000
0001
1000
0001
1000
,
0001
0000
0100
0000
0010
0000
1000
0000
0001
0100
0001
0000
1000
0010
1000
0000
,
0001
0000
0000
0010
0000
0000
0001
0000
0000
0000
0000
0000
1000
0000
0000
0100
0000
0000
1000
0000
0000
0000
0000
0000
0001
0000
0000
1000
0000
0000
0001
0000
0000
0000
0000
0000
1000
0000
0001
0000
1000
0000
0001
0000
1000
0000
0001
0000
,
1000
0100
1000
0100
1000
0001
0100
0001
,
1000
0100
0010
0001
1000
0001
0100
0001
1000
0100
0010
0001
1000
0001
0100
0001
,
4000
0000
0000
0000
0000
0000
0000
0000
0000
0000
0000
0000
0000
0000
0000
3000
4000
0000
0000
0000
0000
0000
0000
0000
3000
0000
0000
0000
0000
0000
0000
0000
0001
0000
0000
0000
0000
0000
0000
0000
0010
0000
0000
0000
0000
0000
0000
0000
0000
0000
0000
0000
0000
0000
0000
0000
0100
0000
0000
0000
0000
0000
0000
0000
,
2000
3002
0203
0320
,
2030
0000
3010
0200
0000
0304
0000
1003
,
0200
0000
0310
0002
0000
4003
0000
3010
,
0200
0000
0000
0302
0000
2003
0000
3001
,
0010
0100
1000
0100
0040
0030
0000
0000
,
0002
0000
2003
0000
3010
0200
0000
0302
,
0000
2003
0000
3100
0020
0000
0032
0000
,
1003
0100
0010
0100
1000
0002
0000
0103
,
0000
0000
0010
0000
0000
0000
1000
0000
0001
0010
0100
1000
0002
0000
0000
0000
,
1003
0100
0000
0010
0001
0000
2000
0000
,
3002
0000
0000
0000
1003
0100
0010
0100
1000
0100
0010
0001
2000
0000
0000
0000
,
3004
0000
0003
0004
0000
0003
0004
0000
,
0000
0000
0000
0000
,
1003
0010
0100
0001
1000
0001
0100
0010
1000
0001
0100
0001
1000
0010
0100
0001
,
1000
0100
0010
0001
1000
0001
0010
0100
1000
0001
0010
0001
1000
0100
0010
0001
,
1000
0010
1000
0001
0100
0010
1000
0010
0100
0001
1000
0010
0100
0001
1000
0001
,
0100
0010
1000
0010
0100
0001
1000
0010
1000
0001
0100
0010
1000
0010
0100
0001
,
1000
0100
0010
0001
1000
0001
0010
0100
1000
0001
0010
0001
1000
0100
0010
0001
,
1000
0010
0100
0001
1000
0001
0100
0010
1000
0001
0100
0001
1000
0010
0100
0001
,
1000
0100
1000
0001
0010
0100
1000
0100
0010
0001
1000
0100
0010
0001
1000
0001
,
0010
0100
1000
0100
0010
0001
1000
0100
1000
0001
0010
0100
1000
0100
0010
0001
,
1000
0010
0100
0001
1000
0001
0100
0010
1000
0001
0100
0001
1000
0010
0100
0001
,
1000
0100
0010
0001
1000
0001
0010
0100
1000
0001
0010
0001
1000
0100
0010
0001
,
1000
0010
1000
0001
0100
0010
1000
0010
0100
0001
1000
0010
0100
0001
1000
0001
,
0100
0010
1000
0010
0100
0001
1000
0010
1000
0001
0100
0010
1000
0010
0100
0001
,
1000
0100
0010
0001
1000
0001
0010
0100
1000
0001
0010
0001
1000
0100
0010
0001
,
1000
0010
0100
0001
1000
0001
0100
0010
1000
0001
0100
0001
1000
0010
0100
0001
,
1000
0100
1000
0001
0010
0100
1000
0100
0010
0001
1000
0001
0010
0100
1000
0001
,
1000
0001
0010
0100
1000
0100
0010
0001
1000
0010
0100
0001
1000
0010
0100
0001
,
1000
0010
1000
0000
0001
1000
0001
0000
0100
0001
0100
0000
0001
1000
0001
0000
,
1000
0100
1000
0000
0001
1000
0001
0000
0010
0001
0010
0000
0001
1000
0001
0000
,
1000
0010
1000
0000
0010
0100
0010
0000
0100
0001
0100
0000
0001
1000
0001
0000
,
1000
0100
1000
0000
0100
0010
0100
0000
0010
0001
0010
0000
0001
1000
0001
0000
,
2000
0000
3200
0000
0310
0001
0010
0200
,
0000
0000
2300
0000
3001
0100
0010
2000
,
0000
0000
3002
0000
1003
0100
0010
0002
,
0000
0000
0000
0000
1003
0100
0010
0001
0010
0100
1000
0001
0010
0100
1000
0001
,
2000
0000
3020
0000
0130
0001
0100
0020
,
0000
0000
2030
0000
3001
0010
0100
2000
,
0000
0000
3002
0000
1003
0010
0100
0002
,
0000
0000
0000
0000
1003
0010
0100
0001
0100
0010
1000
0001
0100
0010
1000
0001
,
2000
0000
3200
0000
0310
0001
0010
0200
,
0000
0000
2300
0000
3001
0100
0010
2000
,
0000
0000
3002
0000
1003
0100
0010
0002
,
0000
0000
0000
0000
1003
0100
0010
0001
0010
0100
1000
0001
0010
0100
1000
0001
,
2000
0000
3020
0000
0130
0001
0100
0020
,
0000
0000
2030
0000
3001
0010
0100
2000
,
0000
0000
3020
0000
0130
0001
0100
0020
,
0030
0000
0000
0000
0000
0000
0000
0000
0200
0300
0000
0000
0000
0000
0000
0000
0200
0300
0000
0000
0000
0000
0000
0000
0200
0300
0000
0000
0000
0000
0000
0000
0001
0000
0000
0000
0100
0000
0000
0000
0010
0000
0000
0000
1000
0000
0000
0000
0001
0000
0000
0000
1000
0000
0000
0000
0010
0000
0000
0000
0100
0000
0000
0000
,
0001
0100
0010
1000
0010
0100
0001
1000
0010
0100
0001
0100
0010
1000
0001
1000
,
0001
0010
0100
1000
0100
0010
0001
1000
0100
0010
0001
0010
0100
1000
0001
1000
,
0001
0100
0010
1000
0010
0100
0001
1000
0010
1000
0010
0100
0001
0100
0001
1000
,
0001
0010
0100
1000
0100
0010
0001
1000
0100
1000
0100
0010
0001
0010
0001
1000
,
0001
0100
0010
1000
0001
0100
0010
0100
0010
1000
0010
0100
0001
1000
0001
1000
,
0001
0010
0100
1000
0001
0010
0100
0010
0100
1000
0100
0010
0001
1000
0001
1000
,
0010
0100
0010
0100
0001
1000
0001
0100
0010
1000
0001
0100
0010
1000
0010
0100
,
0001
1000
0001
0100
0001
1000
0001
0100
0001
1000
0010
0100
0001
1000
0010
0100
,
0001
1000
0100
1000
0100
0010
0001
0010
0001
1000
0100
0010
0001
0010
0100
1000
,
0001
1000
0010
1000
0010
0100
0001
0100
0001
1000
0010
0100
0001
0100
0010
1000
,
0001
0010
0100
0010
0100
1000
0001
0010
0100
0010
0100
1000
0001
0010
0100
1000
,
0001
0100
0010
0100
0010
1000
0001
0100
0010
0100
0010
1000
0001
0100
0010
1000
,
0001
0010
0100
1000
0100
0010
0001
1000
0100
1000
0001
0010
0100
1000
0001
1000
,
0001
0100
0010
1000
0010
0100
0001
1000
0010
1000
0001
0100
0010
1000
0001
1000
,
0001
0010
0100
1000
0100
0010
0001
1000
0100
1000
0001
0010
0001
1000
0100
0010
,
0001
1000
0001
0010
0001
1000
0001
0010
0001
1000
0100
0010
0001
1000
0100
0010
,
0001
1000
0001
0100
0010
1000
0001
0100
0001
1000
0010
0100
0001
0100
0010
1000
,
0001
0010
0001
1000
0100
1000
0001
0010
0100
1000
0001
0010
0001
1000
0100
1000
,
0001
0100
0001
1000
0010
1000
0001
0100
0010
1000
0001
1000
0010
0100
0001
1000
,
0001
0010
0001
1000
0100
0010
0001
1000
0001
0010
0100
1000
0001
1000
0001
0100
,
0010
1000
0001
1000
0010
0100
0001
0100
0001
1000
0010
0100
0001
1000
0001
1000
,
0100
0010
0001
1000
0100
1000
0001
0010
0001
0010
0100
1000
0001
1000
0100
0010
,
0001
1000
0001
1000
0010
0100
0001
1000
0001
0100
0001
1000
0010
1000
0010
0100
,
0001
1000
0010
1000
0001
1000
0010
1000
0001
0100
0010
1000
0001
0100
0010
1000
,
0001
1000
0100
0010
0001
0010
0001
1000
0100
0010
0001
1000
0001
0010
0001
1000
,
0001
1000
0010
0100
0001
1000
0010
1000
0001
0100
0001
0100
0010
1000
0001
0100
,
0001
1000
0001
0010
0100
1000
0001
1000
0100
0010
0001
1000
0100
1000
0100
0010
,
0001
1000
0010
1000
0001
0100
0010
1000
0001
1000
0010
0100
0001
1000
0001
0100
,
0001
1000
0100
0010
0001
0010
0001
1000
0001
1000
0100
0010
0001
0010
0100
1000
,
0001
1000
0010
0100
0001
0100
0010
1000
0001
1000
0010
0100
0001
0100
0010
1000
,
0001
1000
0001
0010
0100
1000
0001
0010
0001
1000
0100
0010
0001
1000
0100
0010
,
0001
1000
0100
1000
0001
1000
0100
1000
0001
0010
0100
1000
0001
0010
0100
1000
,
0001
0010
0100
1000
0001
1000
0100
0010
0001
1000
0100
1000
0001
0010
0100
1000
,
0001
0100
0010
1000
0001
1000
0010
0100
0001
1000
0010
1000
0001
0100
0010
1000
,
0001
0010
0001
1000
0100
0010
0001
0010
0100
1000
0001
0010
0100
1000
0001
1000
,
0100
0010
0001
0010
0100
1000
0001
0010
0001
1000
0100
0010
0001
0010
0100
1000
,
0001
0100
0010
1000
0001
1000
0010
0100
0001
1000
0010
1000
0001
0100
0010
1000
,
0001
0010
0100
1000
0001
1000
0100
0010
0001
1000
0100
1000
0001
0010
0100
1000
,
0001
0100
0001
1000
0010
0100
0001
0100
0010
1000
0001
0100
0010
1000
0001
1000
,
0010
0100
0001
0100
0010
1000
0001
0100
0001
1000
0010
0100
0001
0100
0010
1000
,
0001
0010
0100
1000
0001
1000
0100
0010
0001
1000
0100
1000
0001
0010
0100
1000
,
0001
0100
0010
1000
0001
1000
0010
0100
0001
1000
0010
1000
0001
0100
0010
1000
,
0001
0010
0001
1000
0100
0010
0001
0010
0100
1000
0001
0010
0100
1000
0001
1000
,
0100
0010
0001
0010
0100
1000
0001
0010
0001
1000
0100
0010
0001
0010
0100
1000
,
0001
0100
0010
1000
0001
1000
0010
0100
0001
1000
0010
1000
0001
0100
0010
1000
,
0001
0010
0100
1000
0001
1000
0100
0010
0001
1000
0100
1000
0001
0010
0100
1000
,
0001
0100
0001
1000
0010
0100
0001
0100
0010
1000
0001
1000
0010
0100
0001
1000
,
0001
1000
0010
0100
0001
0100
0010
1000
0001
0010
0100
1000
0001
0010
0100
1000
,
0001
0010
0001
0000
1000
0001
1000
0000
0100
1000
0100
0000
1000
0001
1000
0000
,
0001
0100
0001
0000
1000
0001
1000
0000
0010
1000
0010
0000
1000
0001
1000
0000
,
0001
0010
0001
0000
0010
0100
0010
0000
0100
1000
0100
0000
1000
0001
1000
0000
,
0001
0100
0001
0000
0100
0010
0100
0000
0010
1000
0010
0000
1000
0001
1000
0000
,
0002
0000
0203
0000
0310
1000
0010
0200
,
0000
0000
0302
0000
1003
0100
0010
0002
,
0000
0000
2003
0000
3001
0100
0010
2000
,
0000
0000
0000
0000
3001
0100
0010
1000
0010
0100
0001
1000
0010
0100
0001
1000
,
0002
0000
0023
0000
0130
1000
0100
0020
,
0000
0000
0032
0000
1003
0010
0100
0002
,
0000
0000
2003
0000
3001
0010
0100
2000
,
0000
0000
0000
0000
3001
0010
0100
1000
0100
0010
0001
1000
0100
0010
0001
1000
,
0002
0000
0203
0000
0310
1000
0010
0200
,
0000
0000
0302
0000
1003
0100
0010
0002
,
0000
0000
2003
0000
3001
0100
0010
2000
,
0000
0000
0000
0000
3001
0100
0010
1000
0010
0100
0001
1000
0010
0100
0001
1000
,
0002
0000
0023
0000
0130
1000
0100
0020
,
0000
0000
0032
0000
1003
0010
0100
0002
,
0000
0000
0023
0000
0130
1000
0100
0020
,
0030
0000
0002
0003
0002
0003
0002
0003
0002
0003
0002
0003
0002
0003
0002
0003
,
1000
0010
0100
0001
1000
0001
0100
0010
1000
0001
0100
0001
1000
0010
0100
0001
,
1000
0100
0010
0001
1000
0001
0010
0100
1000
0001
0010
0001
1000
0100
0010
0001
,
1000
0010
1000
0001
0100
0010
1000
0010
0100
0001
1000
0010
0100
0001
1000
0001
,
0100
0010
1000
0010
0100
0001
1000
0010
1000
0001
0100
0010
1000
0010
0100
0001
,
1000
0100
0010
0001
1000
0001
0010
0100
1000
0001
0010
0001
1000
0100
0010
0001
,
1000
0010
0100
0001
1000
0001
0100
0010
1000
0001
0100
0001
1000
0010
0100
0001
,
1000
0100
1000
0001
0010
0100
1000
0100
0010
0001
1000
0100
0010
0001
1000
0001
,
0010
0100
1000
0100
0010
0001
1000
0100
1000
0001
0010
0100
1000
0100
0010
0001
,
1000
0010
0100
0001
1000
0001
0100
0010
1000
0001
0100
0001
1000
0010
0100
0001
,
1000
0100
0010
0001
1000
0001
0010
0100
1000
0001
0010
0001
1000
0100
0010
0001
,
1000
0010
1000
0001
0100
0010
1000
0010
0100
0001
1000
0010
0100
0001
1000
0001
,
0100
0010
1000
0010
0100
0001
1000
0010
1000
0001
0100
0010
1000
0010
0100
0001
,
1000
0100
0010
0001
1000
0001
0010
0100
1000
0001
0010
0001
1000
0100
0010
0001
,
1000
0010
0100
0001
1000
0001
0100
0010
1000
0001
0100
0001
1000
0010
0100
0001
,
1000
0100
1000
0001
0010
0100
1000
0100
0010
0001
1000
0100
0010
0001
1000
0001
,
1000
0010
0100
0001
1000
0001
0100
0010
1000
0010
0100
0001
1000
0010
0100
0001
,
2000
0000
0000
0000
,
0000
0000
0000
0000
0000
0000
3000
0000
0000
0000
0000
0000
0000
0000
0000
0000
0000
0000
0001
1000
0001
1000
0001
4000
,
0004
0000
0000
0000
0000
0000
0000
0000
0000
0000
0000
0000
0000
0000
0000
0000
0000
0000
0000
0000
0000
3000
0000
0003
,
1002
0000
0000
0000
0000
0000
1000
0000
0000
0000
0000
0000
0010
0000
0000
1000
0000
0000
0003
0000
0000
0001
1000
0001
,
2000
0000
0000
0000
0010
0000
0000
0001
,
0001
0000
0000
0000
0000
0000
0001
0000
0000
0000
0000
0000
0010
0000
0000
0001
0000
0000
3000
0000
0000
1000
0001
2000
,
0002
0000
0000
0000
,
0000
0000
0000
0000
,
3003
0000
0000
0000
;

//---------------dance-single - Mad Matt----------------
#NOTES:
     dance-single:
     Mad Matt:
     Medium:
     20:
     1.000,1.000,0.023,0.552,1.000,2044.000,4.000,94.000,0.000,0.000:

0001
0100
0010
1000
0001
0100
0010
1000
0001
0010
0001
1000
0001
0100
0001
1000
,
0001
0010
0100
1000
0001
0010
0100
1000
0001
1000
0100
1000
0001
0010
0100
1000
,
0001
0100
0010
1000
0001
0100
0010
1000
0001
0010
0001
1000
0001
0100
0001
1000
,
0010
0100
0001
1000
0100
1000
0001
0100
0010
1000
0001
0100
0010
0100
0001
1000
,
0001
0010
0100
1000
0001
0010
0100
1000
0001
1000
0100
1000
0001
0100
0010
0100
,
0001
1000
0100
1000
0001
1000
0010
0100
0001
1000
0010
0100
0010
1000
0001
1000
,
0100
1000
0001
0010
0100
0010
0001
1000
0100
0010
0100
1000
0001
1000
0010
1000
,
0001
0100
0010
1000
0001
0100
0010
0100
0001
1000
0100
1000
0001
0010
0100
0010
,
0001
1000
0010
0100
0001
1000
0010
0100
0001
1000
0100
1000
0001
1000
0010
1000
,
0001
1000
0100
0010
0001
1000
0100
0010
0001
1000
0001
0010
0001
1000
0100
0010
,
0001
1000
0010
0100
0001
1000
0010
0100
0001
1000
0100
1000
0001
1000
0010
1000
,
0001
0100
0010
1000
0001
0010
0001
1000
0010
0100
0001
1000
0010
0100
0010
1000
,
0001
1000
0100
0010
0001
1000
0100
0010
0001
1000
0001
0010
0001
1000
0010
0100
,
0010
1000
0001
0010
0001
1000
0001
0100
0010
1000
0001
0100
0010
0100
0001
1000
,
0001
0010
0001
1000
0100
0010
0100
1000
0001
0010
0100
0010
0001
1000
0001
0100
,
0001
1000
0010
0100
0001
1000
0010
0100
0010
1000
0001
0010
0001
1000
0100
0010
,
0001
0000
0000
0010
0000
0000
0100
0000
0000
1000
0000
0000
0000
0000
0000
0000
0000
0000
0001
1000
0001
1000
0001
1000
,
0001
0000
0000
0010
0000
0000
0100
0000
0000
1000
0000
0000
0000
0000
0000
0000
0000
0000
0001
1000
0001
1000
0001
1000
,
0001
0000
0000
0100
0000
0000
0010
0000
0000
1000
0000
0000
0000
0000
0000
0000
0000
0000
0001
1000
0001
1000
0001
1000
,
0001
0000
0000
0100
0000
0000
0010
0000
0000
1000
0000
0000
0000
0000
0000
0000
0000
0000
0001
1000
0001
1000
0001
1000
,
0001
0000
0000
0010
0000
0000
0100
0000
0000
1000
0000
0000
0000
0000
0000
0000
0000
0000
0001
1000
0001
1000
0001
1000
,
0001
0000
0000
0010
0000
0000
0100
0000
0000
1000
0000
0000
0000
0000
0000
0000
0000
0000
0001
1000
0001
1000
0001
1000
,
0001
0000
0100
0000
0010
0000
1000
0000
0001
0100
0001
0000
1000
0010
1000
0000
,
0001
0000
0000
0010
0000
0000
0001
0000
0000
0000
0000
0000
1000
0000
0000
0100
0000
0000
1000
0000
0000
0000
0000
0000
0001
0000
0000
1000
0000
0000
0001
0000
0000
0000
0000
0000
1000
0000
0001
0000
1000
0000
0001
0000
1000
0000
0001
0000
,
1000
0100
1000
0100
1000
0001
0100
0001
,
1000
0100
0010
0001
1000
0001
0100
0001
1000
0100
0010
0001
1000
0001
0100
0001
,
4000
0000
0000
0000
0000
0000
0000
0000
0000
0000
0000
0000
0000
0000
0000
3000
4000
0000
0000
0000
0000
0000
0000
0000
3000
0000
0000
0000
0000
0000
0000
0000
0001
0000
0000
0000
0000
0000
0000
0000
0010
0000
0000
0000
0000
0000
0000
0000
0000
0000
0000
0000
0000
0000
0000
0000
0100
0000
0000
0000
0000
0000
0000
0000
,
2000
3002
0203
0320
,
2030
0000
3010
0200
0000
0304
0000
1003
,
0200
0000
0310
0002
0000
4003
0000
3010
,
0200
0000
0000
0302
0000
2003
0000
3001
,
0010
0100
1000
0100
0040
0030
0000
0000
,
0002
0000
2003
0000
3010
0200
0000
0302
,
0000
2003
0000
3100
0020
0000
0032
0000
,
1003
0100
0010
0100
1000
0002
0000
0103
,
0000
0000
0010
0000
0000
0000
1000
0000
0001
0010
0100
1000
0002
0000
0000
0000
,
1003
0100
0000
0010
0001
0000
2000
0000
,
3002
0000
0000
0000
1003
0100
0010
0100
1000
0100
0010
0001
2000
0000
0000
0000
,
3004
0000
0003
0004
0000
0003
0004
0000
,
0000
0000
0000
0000
,
1003
0010
0100
0001
1000
0010
0100
0001
1000
0100
1000
0001
1000
0010
1000
0001
,
1000
0100
0010
0001
1000
0100
0010
0001
1000
0001
0010
0001
1000
0100
0010
0001
,
1000
0010
0100
0001
1000
0010
0100
0001
1000
0100
1000
0001
1000
0010
1000
0001
,
0100
0010
1000
0001
0010
0001
1000
0010
0100
0001
1000
0010
0100
0010
1000
0001
,
1000
0100
0010
0001
1000
0100
0010
0001
1000
0001
0010
0001
1000
0010
0100
0010
,
1000
0001
0010
0001
1000
0001
0100
0010
1000
0001
0100
0010
0100
0001
1000
0001
,
0010
0001
1000
0100
0010
0100
1000
0001
0010
0100
0010
0001
1000
0001
0100
0001
,
1000
0010
0100
0001
1000
0010
0100
0010
1000
0001
0010
0001
1000
0100
0010
0100
,
1000
0001
0100
0010
1000
0001
0100
0010
1000
0001
0010
0001
1000
0001
0100
0001
,
1000
0001
0010
0100
1000
0001
0010
0100
1000
0001
1000
0100
1000
0001
0010
0100
,
1000
0001
0100
0010
1000
0001
0100
0010
1000
0001
0010
0001
1000
0001
0100
0001
,
1000
0010
0100
0001
1000
0100
1000
0001
0100
0010
1000
0001
0100
0010
0100
0001
,
1000
0001
0010
0100
1000
0001
0010
0100
1000
0001
1000
0100
1000
0001
0100
0010
,
0100
0001
1000
0100
1000
0001
1000
0010
0100
0001
1000
0010
0100
0010
1000
0001
,
1000
0100
1000
0001
0010
0100
0010
0001
1000
0100
0010
0100
1000
0001
1000
0010
,
1000
0001
0100
0010
1000
0001
0100
0010
0100
0001
1000
0100
1000
0001
0010
0100
,
1000
0001
1000
0000
0001
0100
0001
0000
0100
0010
0100
0000
0010
1000
0010
0000
,
1000
0001
1000
0000
0001
0010
0001
0000
0010
0100
0010
0000
0100
1000
0100
0000
,
1000
0001
1000
0000
0001
0100
0001
0000
0100
0010
0100
0000
0010
1000
0010
0000
,
1000
0001
1000
0000
0001
0010
0001
0000
0010
0100
0010
0000
0100
1000
0100
0000
,
2000
0000
3200
0000
0310
0001
0010
0200
,
0000
0000
2300
0000
3001
0100
0010
2000
,
0000
0000
3002
0000
1003
0100
0010
0002
,
0000
0000
0000
0000
1003
0100
0010
0100
1000
0001
0100
0001
1000
0100
1000
0001
,
2000
0000
3020
0000
0130
0001
0100
0020
,
0000
0000
2030
0000
3001
0010
0100
2000
,
0000
0000
3002
0000
1003
0010
0100
0002
,
0000
0000
0000
0000
1003
0010
0100
0010
1000
0001
0010
0001
1000
0010
1000
0001
,
2000
0000
3200
0000
0310
0001
0010
0200
,
0000
0000
2300
0000
3001
0100
0010
2000
,
0000
0000
3002
0000
1003
0100
0010
0002
,
0000
0000
0000
0000
1003
0100
1000
0001
0100
0010
0100
0001
1000
0100
1000
0001
,
2000
0000
3020
0000
0130
0001
0100
0020
,
0000
0000
2030
0000
3001
0010
0100
2000
,
0000
0000
3020
0000
0130
0001
0100
0020
,
0030
0000
0000
0000
0000
0000
0000
0000
0200
0300
0000
0000
0000
0000
0000
0000
0200
0300
0000
0000
0000
0000
0000
0000
0200
0300
0000
0000
0000
0000
0000
0000
0001
0000
0000
0000
1000
0000
0000
0000
0010
0000
0000
0000
1000
0000
0000
0000
0001
0000
0000
0000
1000
0000
0000
0000
0100
0000
0000
0000
0010
0000
0000
0000
,
0001
1000
0001
0010
0001
1000
0100
1000
0001
0100
0001
1000
0010
1000
0001
1000
,
0100
0010
0100
1000
0001
0010
0100
1000
0001
1000
0010
1000
0001
0100
0010
0100
,
0001
1000
0010
1000
0001
0100
0001
1000
0100
1000
0001
0010
0100
0010
0001
1000
,
0100
0010
0001
1000
0100
1000
0001
1000
0010
1000
0001
0100
0001
1000
0010
0100
,
0010
1000
0001
1000
0100
1000
0001
0100
0010
1000
0001
0100
0001
1000
0100
1000
,
0001
0010
0001
1000
0001
0100
0001
1000
0010
0100
0010
1000
0001
1000
0100
1000
,
0001
0100
0010
1000
0001
0100
0010
1000
0001
1000
0100
0010
0100
1000
0001
0010
,
0100
1000
0001
0010
0001
1000
0100
0010
0100
1000
0001
0100
0001
1000
0010
0100
,
0001
1000
0001
0100
0001
1000
0010
1000
0001
0010
0001
1000
0100
1000
0001
1000
,
0010
0100
0010
1000
0001
0100
0010
1000
0001
1000
0100
1000
0001
0010
0100
0010
,
0001
1000
0100
1000
0001
0010
0001
1000
0010
1000
0001
0100
0010
0100
0001
1000
,
0010
0100
0001
1000
0010
1000
0001
1000
0100
1000
0001
0010
0001
1000
0100
0010
,
0100
1000
0001
1000
0010
1000
0001
0010
0100
1000
0001
0010
0001
1000
0010
1000
,
0001
0100
0001
1000
0001
0010
0001
1000
0100
0010
0100
1000
0001
1000
0010
1000
,
0001
0010
0100
1000
0001
0010
0100
1000
0001
1000
0010
0100
0010
1000
0001
0100
,
0010
1000
0001
0100
0001
1000
0010
0100
0010
1000
0001
0010
0001
1000
0100
0010
,
0001
1000
0100
1000
0001
0010
0001
1000
0010
1000
0001
0100
0001
1000
0001
0010
,
0100
0010
0001
1000
0100
0010
0001
1000
0001
0100
0001
1000
0010
0100
0010
1000
,
0001
0100
0001
1000
0010
1000
0001
0010
0001
1000
0100
0010
0100
1000
0001
0010
,
0100
1000
0001
0010
0001
1000
0001
0100
0001
1000
0010
1000
0001
0100
0010
0100
,
0001
1000
0001
0010
0001
1000
0010
0100
0001
1000
0010
1000
0001
0010
0001
1000
,
0100
1000
0001
1000
0010
1000
0001
0100
0010
0100
0001
1000
0001
0010
0001
1000
,
0010
0100
0001
1000
0010
0100
0001
1000
0001
0010
0100
0010
0001
1000
0100
0010
,
0001
1000
0100
1000
0001
0010
0100
0010
0001
1000
0010
1000
0001
0100
0010
1000
,
0001
1000
0010
1000
0001
0100
0001
1000
0100
1000
0001
0010
0001
1000
0001
0100
,
0010
0100
0001
1000
0010
0100
0001
1000
0001
0010
0001
1000
0100
0010
0100
1000
,
0001
0010
0001
1000
0100
1000
0001
0100
0001
1000
0010
0100
0010
1000
0001
0100
,
0010
1000
0001
0100
0001
1000
0001
0010
0001
1000
0100
1000
0001
0010
0100
0010
,
0001
1000
0001
0100
0001
1000
0100
0010
0001
1000
0100
1000
0001
0100
0001
1000
,
0010
1000
0001
1000
0100
1000
0001
0010
0100
0010
0001
1000
0001
0100
0001
1000
,
0100
0010
0001
1000
0100
0010
0001
1000
0001
0100
0010
0100
0001
1000
0010
0100
,
0001
1000
0010
1000
0001
0100
0010
0100
0001
1000
0100
1000
0001
0010
0100
1000
,
0001
0100
0010
1000
0001
0100
0010
1000
0001
0010
0001
1000
0001
0100
0001
1000
,
0001
0010
0100
1000
0001
0010
0100
1000
0001
1000
0100
1000
0001
0010
0100
1000
,
0001
0100
0010
1000
0001
0100
0010
1000
0001
0010
0001
1000
0001
0100
0001
1000
,
0010
0100
0001
1000
0100
1000
0001
0100
0010
1000
0001
0100
0010
0100
0001
1000
,
0001
0010
0100
1000
0001
0010
0100
1000
0001
1000
0100
1000
0001
0100
0010
0100
,
0001
1000
0100
1000
0001
1000
0010
0100
0001
1000
0010
0100
0010
1000
0001
1000
,
0100
1000
0001
0010
0100
0010
0001
1000
0100
0010
0100
1000
0001
1000
0010
1000
,
0001
0100
0010
1000
0001
0100
0010
0100
0001
1000
0100
1000
0001
0010
0100
0010
,
0001
1000
0010
0100
0001
1000
0010
0100
0001
1000
0100
1000
0001
1000
0010
1000
,
0001
1000
0100
0010
0001
1000
0100
0010
0001
1000
0001
0010
0001
1000
0100
0010
,
0001
1000
0010
0100
0001
1000
0010
0100
0001
1000
0100
1000
0001
1000
0010
1000
,
0001
0100
0010
1000
0001
0010
0001
1000
0010
0100
0001
1000
0010
0100
0010
1000
,
0001
1000
0100
0010
0001
1000
0100
0010
0001
1000
0001
0010
0001
1000
0010
0100
,
0010
1000
0001
0010
0001
1000
0001
0100
0010
1000
0001
0100
0010
0100
0001
1000
,
0001
0010
0001
1000
0100
0010
0100
1000
0001
0010
0100
0010
0001
1000
0001
0100
,
0001
1000
0010
0100
0001
1000
0010
0100
0010
1000
0001
0010
0001
1000
0100
0010
,
0001
1000
0001
0000
1000
0100
1000
0000
0100
0010
0100
0000
0010
0001
0010
0000
,
0001
1000
0001
0000
1000
0010
1000
0000
0010
0100
0010
0000
0100
0001
0100
0000
,
0001
1000
0001
0000
1000
0100
1000
0000
0100
0010
0100
0000
0010
0001
0010
0000
,
0001
1000
0001
0000
1000
0010
1000
0000
0010
0100
0010
0000
0100
0001
0100
0000
,
0002
0000
0203
0000
0310
1000
0010
0200
,
0000
0000
0302
0000
1003
0100
0010
0002
,
0000
0000
2003
0000
3001
0100
0010
2000
,
0000
0000
0000
0000
3001
0100
0010
0100
0001
1000
0100
1000
0001
0100
0001
1000
,
0002
0000
0023
0000
0130
1000
0100
0020
,
0000
0000
0032
0000
1003
0010
0100
0002
,
0000
0000
2003
0000
3001
0010
0100
2000
,
0000
0000
0000
0000
3001
0010
0100
0010
0001
1000
0010
1000
0001
0100
0001
1000
,
0002
0000
0203
0000
0310
1000
0010
0200
,
0000
0000
0302
0000
1003
0100
0010
0002
,
0000
0000
2003
0000
3001
0100
0010
2000
,
0000
0000
0000
0000
3001
0100
0001
1000
0100
0010
0100
1000
0001
0100
0001
1000
,
0002
0000
0023
0000
0130
1000
0100
0020
,
0000
0000
0032
0000
1003
0010
0100
0002
,
0000
0000
0023
0000
0130
1000
0100
0020
,
0030
0000
0002
0003
0002
0003
0002
0003
0002
0003
0002
0003
0002
0003
0002
0003
,
1000
0010
0100
0001
1000
0010
0100
0001
1000
0100
1000
0001
1000
0010
1000
0001
,
1000
0100
0010
0001
1000
0100
0010
0001
1000
0001
0010
0001
1000
0100
0010
0001
,
1000
0010
0100
0001
1000
0010
0100
0001
1000
0100
1000
0001
1000
0010
1000
0001
,
0100
0010
1000
0001
0010
0001
1000
0010
0100
0001
1000
0010
0100
0010
1000
0001
,
1000
0100
0010
0001
1000
0100
0010
0001
1000
0001
0010
0001
1000
0010
0100
0010
,
1000
0001
0010
0001
1000
0001
0100
0010
1000
0001
0100
0010
0100
0001
1000
0001
,
0010
0001
1000
0100
0010
0100
1000
0001
0010
0100
0010
0001
1000
0001
0100
0001
,
1000
0010
0100
0001
1000
0010
0100
0010
1000
0001
0010
0001
1000
0100
0010
0100
,
1000
0001
0100
0010
1000
0001
0100
0010
1000
0001
0010
0001
1000
0001
0100
0001
,
1000
0001
0010
0100
1000
0001
0010
0100
1000
0001
1000
0100
1000
0001
0010
0100
,
1000
0001
0100
0010
1000
0001
0100
0010
1000
0001
0010
0001
1000
0001
0100
0001
,
1000
0010
0100
0001
1000
0100
1000
0001
0100
0010
1000
0001
0100
0010
0100
0001
,
1000
0001
0010
0100
1000
0001
0010
0100
1000
0001
1000
0100
1000
0001
0100
0010
,
0100
0001
1000
0100
1000
0001
1000
0010
0100
0001
1000
0010
0100
0010
1000
0001
,
1000
0100
1000
0001
0010
0100
0010
0001
1000
0100
0010
0100
1000
0001
1000
0010
,
1000
0001
0100
0010
1000
0001
0100
0010
0100
0001
1000
0100
1000
0001
0010
0100
,
2000
0000
0000
0000
,
0000
0000
0000
0000
0000
0000
3000
0000
0000
0000
0000
0000
0000
0000
0000
0000
0000
0000
0001
1000
0001
1000
0001
4000
,
0004
0000
0000
0000
0000
0000
0000
0000
0000
0000
0000
0000
0000
0000
0000
0000
0000
0000
0000
0000
0000
3000
0000
0003
,
1002
0000
0000
0000
0000
0000
1000
0000
0000
0000
0000
0000
0010
0000
0000
1000
0000
0000
0003
0000
0000
0001
1000
0001
,
2000
0000
0000
0000
0010
0000
0000
0001
,
0001
0000
0000
0000
0000
0000
0001
0000
0000
0000
0000
0000
0010
0000
0000
0001
0000
0000
3000
0000
0000
1000
0001
2000
,
0002
0000
0000
0000
,
0000
0000
0000
0000
,
3003
0000
0000
0000
;

//---------------dance-single - Mad Matt----------------
#NOTES:
     dance-single:
     Mad Matt:
     Hard:
     20:
     1.000,1.000,0.023,0.552,1.000,2044.000,4.000,94.000,0.000,0.000:

0001
0100
0001
0100
0001
1000
0001
1000
0001
0010
0100
1000
0001
0010
0100
1000
,
0001
0010
0001
0010
0001
1000
0001
1000
0001
0100
0010
1000
0001
0100
0010
1000
,
0001
0100
0001
0100
0001
1000
0001
1000
0001
0010
0100
1000
0001
0010
0100
1000
,
0001
0010
0001
1000
0001
1000
0001
0100
0001
1000
0010
0100
0001
1000
0010
0100
,
0001
1000
0100
1000
0100
1000
0001
1000
0001
1000
0010
0100
0001
1000
0010
0100
,
0001
1000
0010
1000
0010
1000
0001
1000
0001
1000
0100
0010
0001
1000
0100
0010
,
0001
1000
0100
1000
0100
1000
0001
1000
0001
1000
0010
0100
0001
1000
0010
0100
,
0001
1000
0010
1000
0001
1000
0001
1000
0100
0010
0100
1000
0001
0010
0100
1000
,
0001
0010
0001
0010
0001
1000
0001
1000
0001
0100
0010
1000
0001
0100
0010
1000
,
0001
0100
0001
0100
0001
1000
0001
1000
0001
0010
0100
1000
0001
0010
0100
1000
,
0001
0010
0001
0010
0001
1000
0001
1000
0001
0100
0010
1000
0001
0100
0010
1000
,
0001
0100
0001
1000
0001
1000
0001
0010
0001
1000
0100
0010
0001
1000
0100
0010
,
0001
1000
0010
1000
0010
1000
0001
1000
0001
1000
0100
0010
0001
1000
0100
0010
,
0001
1000
0100
1000
0100
1000
0001
1000
0001
1000
0010
0100
0001
1000
0010
0100
,
0001
1000
0010
1000
0010
1000
0001
1000
0001
1000
0100
0010
0001
1000
0100
0010
,
0001
1000
0100
1000
0001
1000
0001
1000
0010
1000
0001
0100
0010
1000
0001
0100
,
0010
0000
0000
1000
0000
0000
0001
0000
0000
0010
0000
0000
0000
0000
0000
0000
0000
0000
0001
1000
0001
1000
0001
1000
,
0001
0000
0000
0010
0000
0000
0100
0000
0000
1000
0000
0000
0000
0000
0000
0000
0000
0000
0001
1000
0001
1000
0001
1000
,
0001
0000
0000
0100
0000
0000
0010
0000
0000
1000
0000
0000
0000
0000
0000
0000
0000
0000
0001
1000
0001
1000
0001
1000
,
0001
0000
0000
0100
0000
0000
0010
0000
0000
1000
0000
0000
0000
0000
0000
0000
0000
0000
0001
1000
0001
1000
0001
1000
,
0001
0000
0000
0010
0000
0000
0100
0000
0000
1000
0000
0000
0000
0000
0000
0000
0000
0000
0001
1000
0001
1000
0001
1000
,
0001
0000
0000
0010
0000
0000
0100
0000
0000
1000
0000
0000
0000
0000
0000
0000
0000
0000
0001
1000
0001
1000
0001
1000
,
0001
0000
0100
0000
0010
0000
1000
0000
0001
0100
0001
0000
1000
0010
1000
0000
,
0001
0000
0000
0010
0000
0000
0001
0000
0000
0000
0000
0000
1000
0000
0000
0100
0000
0000
1000
0000
0000
0000
0000
0000
0001
0000
0000
1000
0000
0000
0001
0000
0000
0000
0000
0000
1000
0000
0001
0000
1000
0000
0001
0000
1000
0000
0001
0000
,
1000
0100
1000
0100
1000
0001
0100
0001
,
1000
0100
1000
0100
0010
0001
0010
0100
1000
0001
0100
0001
0100
0010
1000
0001
,
4000
0000
0000
0000
0000
0000
0000
0000
0000
0000
0000
0000
0000
0000
0000
3000
4000
0000
0000
0000
0000
0000
0000
0000
3000
0000
0000
0000
0000
0000
0000
0000
0001
0000
0000
0000
0000
0000
0000
0000
0010
0000
0000
0000
0000
0000
0000
0000
0000
0000
0000
0000
0000
0000
0000
0000
0100
0000
0000
0000
0000
0000
0000
0000
,
2000
3002
0203
0320
,
2030
0000
3010
0200
0000
0304
0000
1003
,
0200
0000
0310
0002
0000
4003
0000
3010
,
0200
0000
0000
0302
0000
2003
0000
3001
,
0010
0100
1000
0100
0040
0030
0000
0000
,
0002
0000
2003
0000
3010
0200
0000
0302
,
0000
2003
0000
3100
0020
0000
0032
0000
,
1003
0100
0010
0100
1000
0002
0000
0103
,
0000
0000
0010
0000
0000
0000
1000
0000
0001
0010
0001
0010
0200
0000
0000
0000
,
1300
0100
0000
0010
0001
0000
2000
0000
,
3002
0000
0000
0000
1003
0010
1000
0010
1000
0001
1000
0001
0020
0000
0000
0000
,
0034
0000
0003
0004
0000
0003
0004
0000
,
0000
0000
0000
0000
,
1003
0010
1000
0010
1000
0001
1000
0001
1000
0100
0010
0001
1000
0100
0010
0001
,
1000
0100
1000
0100
1000
0001
1000
0001
1000
0010
0100
0001
1000
0010
0100
0001
,
1000
0010
1000
0010
1000
0001
1000
0001
1000
0100
0010
0001
1000
0100
0010
0001
,
1000
0100
1000
0001
1000
0001
1000
0010
1000
0001
0100
0010
1000
0001
0100
0010
,
1000
0001
0010
0001
0010
0001
1000
0001
1000
0001
0100
0010
1000
0001
0100
0010
,
1000
0001
0100
0001
0100
0001
1000
0001
1000
0001
0010
0100
1000
0001
0010
0100
,
1000
0001
0010
0001
0010
0001
1000
0001
1000
0001
0100
0010
1000
0001
0100
0010
,
1000
0001
0100
0001
1000
0001
1000
0001
0010
0100
0010
0001
1000
0100
0010
0001
,
1000
0100
1000
0100
1000
0001
1000
0001
1000
0010
0100
0001
1000
0010
0100
0001
,
1000
0010
1000
0010
1000
0001
1000
0001
1000
0100
0010
0001
1000
0100
0010
0001
,
1000
0100
1000
0100
1000
0001
1000
0001
1000
0010
0100
0001
1000
0010
0100
0001
,
1000
0010
1000
0001
1000
0001
1000
0100
1000
0001
0010
0100
1000
0001
0010
0100
,
1000
0001
0100
0001
0100
0001
1000
0001
1000
0001
0010
0100
1000
0001
0010
0100
,
1000
0001
0010
0001
0010
0001
1000
0001
1000
0001
0100
0010
1000
0001
0100
0010
,
1000
0001
0100
0001
0100
0001
1000
0001
1000
0001
0010
0100
1000
0001
0010
0100
,
1000
0001
0010
0001
1000
0001
1000
0001
1000
0010
0100
0001
1000
0010
0100
0001
,
1000
0100
1000
0000
0100
0010
0100
0000
0010
0001
0010
0000
0001
1000
0001
0000
,
1000
0010
1000
0000
0010
0100
0010
0000
0100
0001
0100
0000
0001
1000
0001
0000
,
1000
0100
1000
0000
0100
0010
0100
0000
0010
0001
0010
0000
0001
1000
0001
0000
,
1000
0010
1000
0000
0010
0100
0010
0000
0100
0001
0100
0000
0001
1000
0001
0000
,
2000
0000
3200
0000
0310
0001
0010
0200
,
0000
0000
2300
0000
3001
0100
0010
2000
,
0000
0000
3002
0000
1003
0100
0010
0002
,
0000
0000
0000
0000
1003
0100
0010
0100
1000
0100
1000
0001
0010
0100
0010
0001
,
2000
0000
3020
0000
0130
0001
0100
0020
,
0000
0000
2030
0000
3001
0010
0100
2000
,
0000
0000
3002
0000
1003
0010
0100
0002
,
0000
0000
0000
0000
1003
0010
0100
0010
1000
0010
1000
0001
0100
0010
0100
0001
,
2000
0000
3200
0000
0310
0001
0010
0200
,
0000
0000
2300
0000
3001
0100
0010
2000
,
0000
0000
3002
0000
1003
0100
0010
0002
,
0000
0000
0000
0000
1003
0010
0100
0001
1000
0001
1000
0010
0100
0010
1000
0001
,
2000
0000
3020
0000
0130
0001
0100
0020
,
0000
0000
2030
0000
3001
0010
0100
2000
,
0000
0000
3020
0000
0130
0001
0100
0020
,
0030
0000
0000
0000
0000
0000
0000
0000
0200
0300
0000
0000
0000
0000
0000
0000
0200
0300
0000
0000
0000
0000
0000
0000
0200
0300
0000
0000
0000
0000
0000
0000
0001
0000
0000
0000
1000
0000
0000
0000
0010
0000
0000
0000
0100
0000
0000
0000
0001
0000
0000
0000
1000
0000
0000
0000
0010
0000
0000
0000
0100
0000
0000
0000
,
0001
1000
0100
1000
0100
0010
0100
0010
0001
1000
0001
0100
0001
1000
0010
0100
,
0001
1000
0010
1000
0010
0100
0010
0100
0001
1000
0001
0010
0001
1000
0100
0010
,
0001
1000
0100
1000
0100
0010
0100
0010
0001
1000
0001
0100
0001
1000
0010
0100
,
0001
1000
0010
1000
0010
0100
0010
0100
0001
1000
0001
0010
0001
1000
0100
0010
,
0001
1000
0100
1000
0100
0010
0100
0010
0001
1000
0001
0100
0001
1000
0010
0100
,
0001
1000
0010
1000
0010
0100
0010
0100
0001
1000
0001
0010
0001
1000
0100
0010
,
0001
1000
0100
1000
0100
0010
0100
0010
0001
1000
0001
0100
0001
1000
0010
0100
,
0001
1000
0010
0100
0010
1000
0010
0100
0001
1000
0001
0010
0100
0010
0001
1000
,
0001
0100
0001
0100
0010
0100
0010
1000
0001
1000
0100
1000
0001
0010
0100
1000
,
0001
0010
0001
0010
0100
0010
0100
1000
0001
1000
0010
1000
0001
0100
0010
1000
,
0001
0100
0001
0100
0010
0100
0010
1000
0001
1000
0100
1000
0001
0010
0100
1000
,
0001
0010
0001
0010
0100
0010
0100
1000
0001
1000
0010
1000
0001
0100
0010
1000
,
0001
0100
0001
0100
0010
0100
0010
1000
0001
1000
0100
1000
0001
0010
0100
1000
,
0001
0010
0001
0010
0100
0010
0100
1000
0001
1000
0010
1000
0001
0100
0010
1000
,
0001
0100
0001
0100
0010
0100
0010
1000
0001
1000
0100
1000
0001
0010
0100
1000
,
0001
0010
0100
0010
0001
0010
0100
1000
0001
1000
0010
0100
0010
1000
0001
0100
,
0001
1000
0010
1000
0010
0100
0010
0100
0001
1000
0001
0010
0001
1000
0100
0010
,
0001
1000
0100
1000
0100
0010
0100
0010
0001
1000
0001
0100
0001
1000
0010
0100
,
0001
1000
0010
1000
0010
0100
0010
0100
0001
1000
0001
0010
0001
1000
0100
0010
,
0001
1000
0100
1000
0100
0010
0100
0010
0001
1000
0001
0100
0001
1000
0010
0100
,
0001
1000
0010
1000
0010
0100
0010
0100
0001
1000
0001
0010
0001
1000
0100
0010
,
0001
1000
0100
1000
0100
0010
0100
0010
0001
1000
0001
0100
0001
1000
0010
0100
,
0001
1000
0010
1000
0010
0100
0010
0100
0001
1000
0001
0010
0001
1000
0100
0010
,
0001
1000
0100
0010
0100
1000
0100
0010
0001
1000
0001
0100
0010
0100
0001
1000
,
0001
1000
0100
1000
0100
0010
0100
0010
0001
1000
0001
0100
0001
1000
0010
0100
,
0001
1000
0010
1000
0010
0100
0010
0100
0001
1000
0001
0010
0001
1000
0100
0010
,
0001
1000
0100
1000
0100
0010
0100
0010
0001
1000
0001
0100
0001
1000
0010
0100
,
0001
1000
0010
1000
0010
0100
0010
0100
0001
1000
0001
0010
0001
1000
0100
0010
,
0001
1000
0100
1000
0100
0010
0100
0010
0001
1000
0001
0100
0001
1000
0010
0100
,
0001
1000
0010
1000
0010
0100
0010
0100
0001
1000
0001
0010
0001
1000
0100
0010
,
0001
1000
0100
1000
0100
0010
0100
0010
0001
1000
0001
0100
0001
1000
0010
0100
,
0001
1000
0010
0100
0010
1000
0010
0100
0001
1000
0001
0010
0100
0010
0001
1000
,
0001
0100
0001
0100
0001
1000
0001
1000
0001
0010
0100
1000
0001
0010
0100
1000
,
0001
0010
0001
0010
0001
1000
0001
1000
0001
0100
0010
1000
0001
0100
0010
1000
,
0001
0100
0001
0100
0001
1000
0001
1000
0001
0010
0100
1000
0001
0010
0100
1000
,
0001
0010
0001
1000
0001
1000
0001
0100
0001
1000
0010
0100
0001
1000
0010
0100
,
0001
1000
0100
1000
0100
1000
0001
1000
0001
1000
0010
0100
0001
1000
0010
0100
,
0001
1000
0010
1000
0010
1000
0001
1000
0001
1000
0100
0010
0001
1000
0100
0010
,
0001
1000
0100
1000
0100
1000
0001
1000
0001
1000
0010
0100
0001
1000
0010
0100
,
0001
1000
0010
1000
0001
1000
0001
1000
0100
0010
0100
1000
0001
0010
0100
1000
,
0001
0010
0001
0010
0001
1000
0001
1000
0001
0100
0010
1000
0001
0100
0010
1000
,
0001
0100
0001
0100
0001
1000
0001
1000
0001
0010
0100
1000
0001
0010
0100
1000
,
0001
0010
0001
0010
0001
1000
0001
1000
0001
0100
0010
1000
0001
0100
0010
1000
,
0001
0100
0001
1000
0001
1000
0001
0010
0001
1000
0100
0010
0001
1000
0100
0010
,
0001
1000
0010
1000
0010
1000
0001
1000
0001
1000
0100
0010
0001
1000
0100
0010
,
0001
1000
0100
1000
0100
1000
0001
1000
0001
1000
0010
0100
0001
1000
0010
0100
,
0001
1000
0010
1000
0010
1000
0001
1000
0001
1000
0100
0010
0001
1000
0100
0010
,
0001
1000
0100
1000
0001
1000
0001
1000
0001
0100
0010
1000
0001
0100
0010
1000
,
0001
0010
0001
0000
0010
0100
0010
0000
0100
1000
0100
0000
1000
0001
1000
0000
,
0001
0100
0001
0000
0100
0010
0100
0000
0010
1000
0010
0000
1000
0001
1000
0000
,
0001
0010
0001
0000
0010
0100
0010
0000
0100
1000
0100
0000
1000
0001
1000
0000
,
0001
0100
0001
0000
0100
0010
0100
0000
0010
1000
0010
0000
1000
0001
1000
0000
,
0002
0000
0023
0000
0130
1000
0100
0020
,
0000
0000
0032
0000
1003
0010
0100
0002
,
0000
0000
2003
0000
3001
0010
0100
2000
,
0000
0000
0000
0000
3001
0010
0100
0010
0001
0010
0001
1000
0100
0010
0100
1000
,
0002
0000
0203
0000
0310
1000
0010
0200
,
0000
0000
0302
0000
1003
0100
0010
0002
,
0000
0000
2003
0000
3001
0100
0010
2000
,
0000
0000
0000
0000
3001
0100
0010
0100
0001
0100
0001
1000
0010
0100
0010
1000
,
0002
0000
0023
0000
0130
1000
0100
0020
,
0000
0000
0032
0000
1003
0010
0100
0002
,
0000
0000
2003
0000
3001
0010
0100
2000
,
0000
0000
0000
0000
3001
0100
0010
1000
0001
1000
0001
0100
0010
0100
0001
1000
,
0002
0000
0203
0000
0310
1000
0010
0200
,
0000
0000
0302
0000
1003
0100
0010
0002
,
0000
0000
0203
0000
0310
1000
0010
0200
,
0300
0000
0002
0003
0002
0003
0002
0003
0002
0003
0002
0003
0002
0003
0002
0003
,
1000
0010
1000
0010
1000
0001
1000
0001
1000
0100
0010
0001
1000
0100
0010
0001
,
1000
0100
1000
0100
1000
0001
1000
0001
1000
0010
0100
0001
1000
0010
0100
0001
,
1000
0010
1000
0010
1000
0001
1000
0001
1000
0100
0010
0001
1000
0100
0010
0001
,
1000
0100
1000
0001
1000
0001
1000
0010
1000
0001
0100
0010
1000
0001
0100
0010
,
1000
0001
0010
0001
0010
0001
1000
0001
1000
0001
0100
0010
1000
0001
0100
0010
,
1000
0001
0100
0001
0100
0001
1000
0001
1000
0001
0010
0100
1000
0001
0010
0100
,
1000
0001
0010
0001
0010
0001
1000
0001
1000
0001
0100
0010
1000
0001
0100
0010
,
1000
0001
0100
0001
1000
0001
1000
0001
0010
0100
0010
0001
1000
0100
0010
0001
,
1000
0100
1000
0100
1000
0001
1000
0001
1000
0010
0100
0001
1000
0010
0100
0001
,
1000
0010
1000
0010
1000
0001
1000
0001
1000
0100
0010
0001
1000
0100
0010
0001
,
1000
0100
1000
0100
1000
0001
1000
0001
1000
0010
0100
0001
1000
0010
0100
0001
,
1000
0010
1000
0001
1000
0001
1000
0100
1000
0001
0010
0100
1000
0001
0010
0100
,
1000
0001
0100
0001
0100
0001
1000
0001
1000
0001
0010
0100
1000
0001
0010
0100
,
1000
0001
0010
0001
0010
0001
1000
0001
1000
0001
0100
0010
1000
0001
0100
0010
,
1000
0001
0100
0001
0100
0001
1000
0001
1000
0001
0010
0100
1000
0001
0010
0100
,
1000
0001
0010
0001
1000
0001
1000
0001
0100
0001
1000
0010
0100
0001
1000
0010
,
2000
0000
0000
0000
,
0000
0000
0000
0000
0000
0000
3000
0000
0000
0000
0000
0000
0000
0000
0000
0000
0000
0000
0001
1000
0001
1000
0001
4000
,
0004
0000
0000
0000
0000
0000
0000
0000
0000
0000
0000
0000
0000
0000
0000
0000
0000
0000
0000
0000
0000
3000
0000
0003
,
1002
0000
0000
0000
0000
0000
1000
0000
0000
0000
0000
0000
0010
0000
0000
1000
0000
0000
0003
0000
0000
0001
1000
0001
,
2000
0000
0000
0000
0010
0000
0000
0001
,
0001
0000
0000
0000
0000
0000
0001
0000
0000
0000
0000
0000
0010
0000
0000
0001
0000
0000
3000
0000
0000
1000
0001
2000
,
0002
0000
0000
0000
,
0000
0000
0000
0000
,
3003
0000
0000
0000
;
