#TITLE:Jersey Spirit;
#SUBTITLE:;
#ARTIST:DJ Sharpnel;
#TITLETRANSLIT:;
#SUBTITLETRANSLIT:;
#ARTISTTRANSLIT:;
#CREDIT:;
#BANNER:jersey bn new.png;
#BACKGROUND:jersey bg new.png;
#LYRICSPATH:;
#CDTITLE:;
#MUSIC:Jersey Spirit.ogg;
#OFFSET:-1.879;
#SAMPLESTART:189.489;
#SAMPLELENGTH:20.699;
#SELECTABLE:YES;
#BPMS:0.000=185.500;
#STOPS:;
#BGCHANGES:;
// cache tags:
#FIRSTBEAT:0.000;
#LASTBEAT:852.000;
#SONGFILENAME:Songs/SHARPNELSTREAMZ v2/Jersey Spirit/Jersey Spirit.sm;
#HASMUSIC:1;
#HASBANNER:1;
#MUSICLENGTH:277.472;
// end cache tags

//---------------dance-single - 17- (@@)----------------
#NOTES:
     dance-single:
     17- (@@):
     Challenge:
     17:
     1.000,1.000,0.004,0.097,1.000,2970.000,1.000,27.000,23.000,0.000:
1000
0100
0010
0100
1000
0001
0010
0001
,
0100
0010
1000
0010
0100
0001
1000
0010
,
1000
0100
0010
0001
0010
0100
0010
0001
,
0100
0010
1000
0001
0100
0010
0100
0100
,
0001
0010
0001
1000
0100
0010
0100
1000
,
0010
0100
0001
1000
0010
1000
0001
0100
,
0001
0010
0100
1000
0001
0010
0100
0010
,
0001
0000
0000
0000
0000
0000
0100
0000
0000
0000
0000
0000
0010
0000
0000
0000
0000
0000
1000
0000
0000
0000
0000
0000
0001
0000
0000
0000
0000
0000
0100
0000
0000
0001
0000
0000
0010
0000
0000
0000
0000
0000
0100
0000
1000
0000
0100
0000
,
1000
0100
1000
0001
0010
0100
1000
0001
0100
0001
1000
0010
0100
0010
1000
0001
,
0100
0010
0100
0001
1000
0100
0010
0100
1000
0001
0100
0010
1000
0001
0010
0100
,
1000
0001
0010
0001
1000
0100
0010
0001
1000
0010
1000
0001
0010
0100
1000
0001
,
0100
0001
1000
0010
0100
0010
1000
0001
0010
0100
1000
0001
0010
0001
1000
0100
,
1000
0001
0010
0100
1000
0001
0100
0001
1000
0100
1000
0001
0010
0001
1000
0001
,
0100
0001
1000
0010
0100
0010
1000
0001
1000
0100
0010
0001
1000
0010
0100
0001
,
1000
0010
1000
0001
0100
0010
0100
0001
1000
0100
0010
0100
1000
0001
0010
0001
,
1000
0000
0000
0010
0000
0000
1000
0000
0000
0001
0000
0000
0100
0000
0000
0010
0000
0000
0100
0000
0000
0001
0000
0000
1000
0000
0000
0100
0000
0000
0010
0000
0000
0100
0000
0000
1000
0000
0000
0001
0000
0000
0010
0000
0001
0000
0010
0000
,
0001
0100
0010
1000
0001
0100
0001
1000
0100
1000
0001
0010
0100
1000
0100
0010
,
0001
0100
0010
1000
0001
0010
0100
1000
0001
0010
0001
1000
0010
1000
0001
0100
,
0001
0010
0100
1000
0001
0100
0001
1000
0010
0100
0001
1000
0010
1000
0001
0010
,
0001
0100
0010
1000
0001
0010
0001
1000
0100
0010
0001
1000
0010
1000
0001
0100
,
0001
0010
0001
1000
0100
1000
0001
0100
0001
1000
0010
0100
0001
1000
0100
0010
,
0001
0100
0010
1000
0001
0010
0100
1000
0100
0010
0001
1000
0001
0100
0010
0100
,
0001
0010
0001
1000
0001
0100
0010
1000
0001
1000
0010
0100
0001
1000
0001
0010
,
0001
0000
0000
0100
0000
0000
0010
0000
0000
1000
0000
0000
0001
0000
0000
0010
0000
0000
0100
0000
0000
1000
0000
0000
0100
0000
0000
0010
0000
0000
0100
0000
0000
1000
0000
0000
0010
0000
0000
0100
0000
0000
0001
0000
1000
0000
0001
0000
,
1000
0010
0100
0001
1000
0010
1000
0001
0010
0001
1000
0100
0010
0001
0010
0100
,
1000
0010
0100
0001
1000
0100
0010
0001
1000
0100
1000
0001
0100
0001
1000
0010
,
1000
0100
0010
0001
1000
0010
1000
0001
0100
0010
1000
0001
0100
0001
1000
0100
,
1000
0010
0100
0001
1000
0100
1000
0001
0010
0100
0010
0001
1000
0010
0100
0010
,
1000
0100
1000
0001
0010
0001
1000
0010
1000
0001
0100
0010
1000
0001
0010
0100
,
1000
0010
0100
0001
1000
0100
0010
0001
0010
0100
1000
0001
1000
0010
0100
0010
,
1000
0100
1000
0001
1000
0010
0100
0001
1000
0001
0100
0010
1000
0001
1000
0100
,
1000
0010
0100
0001
1000
0100
0010
0001
0010
0100
1000
0001
0100
0010
1000
0001
,
1000
0100
0010
0001
0010
0100
1000
0001
0100
0001
1000
0100
1000
0001
0100
0010
,
1000
0100
0010
0001
1000
0010
0100
0001
1000
0010
1000
0001
0010
0001
1000
0100
,
1000
0010
0100
0001
1000
0100
1000
0001
0010
0100
1000
0001
0010
0001
1000
0010
,
1000
0100
0010
0001
1000
0010
1000
0001
0100
0010
1000
0001
0010
0001
1000
0100
,
1000
0010
1000
0001
0100
0001
1000
0100
1000
0001
0010
0100
1000
0001
0100
0010
,
1000
0100
0010
0001
1000
0010
0100
0001
0100
0010
1000
0001
1000
0100
0010
0100
,
1000
0010
1000
0001
1000
0100
0010
0001
1000
0001
0010
0100
1000
0001
1000
0010
,
1000
0000
0000
0100
0000
0000
0010
0000
0000
0100
0000
0000
1000
0000
0000
0001
0000
0000
0100
0000
0000
0001
0000
0000
1000
0000
0000
0010
0000
0000
0100
0000
0000
0001
0000
0000
0010
0000
0000
0100
0000
0000
1000
0000
0001
0000
1000
0000
,
0001
0010
0100
1000
0001
0010
0001
1000
0010
1000
0001
0100
0010
1000
0010
0100
,
0001
0010
0100
1000
0001
0100
0010
1000
0001
0100
0001
1000
0100
1000
0001
0010
,
0001
0100
0010
1000
0001
0010
0001
1000
0100
0010
0001
1000
0100
1000
0001
0100
,
0001
0010
0100
1000
0001
0100
0001
1000
0010
0100
0010
1000
0001
0010
0100
0010
,
0001
0100
0001
1000
0010
1000
0001
0010
0001
1000
0100
0010
0001
1000
0010
0100
,
0001
0010
0100
1000
0001
0100
0010
1000
0010
0100
0001
1000
0001
0010
0100
0010
,
0001
1000
0001
0100
0001
1000
0100
0010
0001
0010
0100
0010
0001
1000
0001
0100
,
0001
0010
0100
1000
0001
0100
0010
1000
0010
0100
0001
1000
0100
0010
0001
1000
,
0100
1000
0010
0100
0001
0100
0010
1000
0100
1000
0010
0100
0001
1000
0010
1000
,
0100
0010
0001
0100
0010
1000
0001
1000
0100
0010
0001
0100
0001
1000
0010
0100
,
0001
1000
0001
0010
0100
1000
0010
1000
0001
0100
0010
0100
0001
1000
0010
1000
,
0001
0000
0000
0010
0000
0000
0001
0000
0000
0100
0000
0000
0010
0000
0000
1000
0000
0000
0001
0000
0000
1000
0000
0000
0100
0000
0000
1000
0000
0000
0010
0000
0000
0100
0000
0000
0001
0000
0000
1000
0000
0000
0001
0000
0100
0000
0001
0000
,
0100
0001
0100
0010
1000
0010
0100
0001
0010
0001
0100
0010
1000
0001
0100
0001
,
0010
0100
1000
0010
0100
0001
1000
0001
0010
0100
1000
0010
1000
0001
0100
0010
,
1000
0001
1000
0100
0010
0001
0100
0001
1000
0010
0100
0010
1000
0001
0100
0001
,
1000
0000
0000
0100
0000
0000
1000
0000
0000
0010
0000
0000
0100
0000
0000
0001
0000
0000
1000
0000
0000
0001
0000
0000
0010
0000
0000
0001
0000
0000
0100
0000
0000
0010
0000
0000
1000
0000
0000
0001
0000
0000
1000
0000
0010
0000
1000
0000
,
0010
1000
0100
0010
0001
0010
0100
1000
0010
1000
0100
0010
0001
1000
0100
1000
,
0010
0100
0001
0010
0100
1000
0001
1000
0010
0100
0001
0010
0001
1000
0100
0010
,
0001
1000
0001
0100
0010
1000
0100
1000
0001
0010
0100
0010
0001
1000
0100
1000
,
0001
0000
0000
0100
0000
0000
0001
0000
0000
0010
0000
0000
0100
0000
0000
1000
0000
0000
0001
0000
0000
1000
0000
0000
0010
0000
0000
1000
0000
0000
0100
0000
0000
0010
0000
0000
0001
0000
0000
1000
0000
0000
0001
0000
0010
0000
0001
0000
,
0010
0001
0010
0100
1000
0100
0010
0001
0100
0001
0010
0100
1000
0001
0010
0001
,
0100
0010
1000
0100
0010
0001
1000
0001
0100
0010
1000
0100
1000
0001
0010
0100
,
1000
0001
1000
0100
1000
0001
0100
0010
0100
0001
0100
0010
1000
0100
0010
0100
,
1000
0100
0010
0001
1000
0100
1000
0001
0100
0001
0010
0100
1000
0001
1000
0100
,
0010
0001
0100
0010
1000
0010
0100
0001
0010
0001
0100
0010
1000
0001
0100
0001
,
0010
0100
1000
0010
0100
0001
1000
0001
0010
0100
1000
0010
1000
0001
0100
0010
,
1000
0001
1000
0100
0010
0001
0100
0001
1000
0010
0100
0010
1000
0001
0100
0001
,
1000
0000
0000
0100
0000
0000
1000
0000
0000
0010
0000
0000
0100
0000
0000
0001
0000
0000
1000
0000
0000
0001
0000
0000
0010
0000
0000
0001
0000
0000
0100
0000
0000
0010
0000
0000
1000
0000
0000
0001
0000
0000
1000
0000
0010
0000
1000
0000
,
0010
1000
0010
0100
0001
0100
0010
1000
0100
1000
0010
0100
0001
1000
0010
1000
,
0100
0010
0001
0100
0010
1000
0001
1000
0100
0010
0001
0100
0001
1000
0010
0100
,
0001
1000
0001
0010
0100
1000
0010
1000
0001
0100
0010
0100
0001
1000
0010
1000
,
0001
0000
0000
0010
0000
0000
0001
0000
0000
0100
0000
0000
0010
0000
0000
1000
0000
0000
0001
0000
0000
1000
0000
0000
0100
0000
0000
1000
0000
0000
0010
0000
0000
0100
0000
0000
0001
0000
0000
1000
0000
0000
0001
0000
0100
0000
0001
0000
,
0100
0001
0010
0100
1000
0100
0010
0001
0100
0001
0010
0100
1000
0001
0010
0001
,
0100
0010
1000
0100
0010
0001
1000
0001
0100
0010
1000
0100
1000
0001
0010
0100
,
1000
0001
1000
0010
0100
0001
0010
0001
1000
0100
0010
0100
1000
0001
0010
0001
,
1000
0000
0000
0010
0000
0000
1000
0000
0000
0100
0000
0000
0010
0000
0000
0001
0000
0000
1000
0000
0000
0001
0000
0000
0100
0000
0000
0001
0000
0000
0010
0000
0000
0100
0000
0000
1000
0000
0000
0001
0000
0000
1000
0000
0100
0000
1000
0000
,
0100
1000
0100
0010
0001
0010
0100
1000
0010
1000
0100
0010
0001
1000
0100
1000
,
0010
0100
0001
0010
0100
1000
0001
1000
0010
0100
0001
0010
0001
1000
0100
0010
,
0001
1000
0001
0010
0001
1000
0010
0100
0010
1000
0010
0100
0001
0010
0100
0010
,
0001
0010
0100
1000
0001
0010
0001
1000
0010
1000
0100
0010
0001
1000
0001
0010
,
0200
0300
0000
0000
,
0000
0000
0000
0000
0000
0000
0000
0000
0000
0000
0000
0000
0000
0000
0000
0000
0000
0000
1000
0100
1000
0100
1000
0100
,
1000
0100
0010
0001
1000
0100
1000
0001
0010
0001
0100
0010
1000
0100
1000
0001
,
1000
0010
0100
0001
1000
0001
0010
0100
1000
0001
0010
0001
1000
0100
1000
0001
,
0100
0010
1000
0010
0100
0010
1000
0001
0010
0100
1000
0100
0010
0001
1000
0010
,
0100
0000
0000
0001
0000
0000
0100
0000
0000
0010
0000
0000
0100
0000
0000
0001
0000
0000
0100
0000
0000
0010
0000
0000
1000
0000
0000
0001
0000
0000
0010
0000
0000
0001
0000
0000
1000
0000
0000
0100
0000
0000
1000
0000
0100
0000
1000
0000
,
0100
0010
0100
1000
0001
0010
0001
1000
0100
1000
0010
0100
0001
0010
0001
1000
,
0001
0100
0010
1000
0001
1000
0100
0010
0001
1000
0100
1000
0001
0010
0001
1000
,
0010
0100
0001
0100
0010
0100
0001
1000
0100
0010
0001
0010
0100
1000
0001
0100
,
0001
0000
0000
1000
0000
0000
0001
0000
0000
0010
0000
0000
0100
0000
0000
0010
0000
0000
0001
0000
0000
1000
0000
0000
0100
0000
0000
1000
0000
0000
0001
0000
0000
0100
0000
0000
0010
0000
0000
1000
0000
0000
0001
0000
0100
0000
0001
0000
,
0100
0001
1000
0010
0100
0001
1000
0100
0010
0001
1000
0100
1000
0001
0010
0001
,
1000
0010
0100
0001
1000
0010
0100
0010
1000
0001
0010
0100
0010
0001
1000
0100
,
1000
0001
0100
0010
0100
0001
1000
0100
0010
0001
1000
0100
1000
0001
0010
0001
,
1000
0000
0000
0010
0000
0000
0100
0000
0000
0001
0000
0000
1000
0000
0000
0010
0000
0000
1000
0000
0000
0001
0000
0000
0010
0000
0000
0100
0000
0000
1000
0000
0000
0100
0000
0000
0010
0000
0000
0100
0000
0000
1000
0000
0001
0000
1000
0000
,
0001
1000
0010
1000
0001
0100
0010
1000
0001
0010
0100
0010
0001
1000
0100
1000
,
0001
0100
0010
1000
0001
0100
0010
0100
0001
1000
0100
0010
0100
1000
0001
0010
,
0001
1000
0100
1000
0001
1000
0010
0100
0001
0100
0010
0100
0001
0010
0100
0010
,
0001
0000
0000
0100
0000
0000
0010
0000
0000
1000
0000
0000
0001
0000
0000
0100
0000
0000
0001
0000
0000
1000
0000
0000
0100
0000
0000
0010
0000
0000
0100
0000
0000
1000
0000
0000
0010
0000
0000
0100
0000
0000
0001
0000
0100
0000
0001
0000
,
0100
0010
0100
0001
1000
0010
1000
0001
0100
0001
0010
0100
1000
0010
1000
0001
,
1000
0100
0010
0001
1000
0001
0100
0010
1000
0001
0100
0001
1000
0010
1000
0001
,
0010
0100
1000
0100
0010
0100
1000
0001
0100
0010
1000
0010
0100
0001
1000
0100
,
0010
0000
0000
0001
0000
0000
0010
0000
0000
0100
0000
0000
0010
0000
0000
0001
0000
0000
0010
0000
0000
0100
0000
0000
1000
0000
0000
0001
0000
0000
0100
0000
0000
0001
0000
0000
1000
0000
0000
0010
0000
0000
1000
0000
0010
0000
1000
0000
,
0010
0100
0010
1000
0001
0100
0001
1000
0010
1000
0100
0010
0001
0100
0001
1000
,
0001
0010
0100
1000
0001
1000
0010
0100
0001
1000
0010
1000
0001
0100
0001
1000
,
0100
0010
0001
0010
0100
0010
0001
1000
0010
0100
0001
0100
0010
1000
0001
0010
,
0001
0000
0000
1000
0000
0000
0001
0000
0000
0100
0000
0000
0010
0000
0000
0100
0000
0000
0001
0000
0000
1000
0000
0000
0010
0000
0000
1000
0000
0000
0001
0000
0000
0010
0000
0000
0100
0000
0000
1000
0000
0000
0001
0000
0010
0000
0001
0000
,
0010
0001
1000
0100
0010
0001
1000
0010
0100
0001
1000
0010
1000
0001
0100
0001
,
1000
0100
0010
0001
1000
0100
0010
0100
1000
0001
0100
0010
0100
0001
1000
0010
,
1000
0001
0010
0100
0010
0001
1000
0010
0100
0001
1000
0010
1000
0001
0100
0001
,
1000
0000
0000
0100
0000
0000
0010
0000
0000
0001
0000
0000
1000
0000
0000
0100
0000
0000
1000
0000
0000
0001
0000
0000
0100
0000
0000
0010
0000
0000
1000
0000
0000
0010
0000
0000
0100
0000
0000
0010
0000
0000
1000
0000
0001
0000
1000
0000
,
0001
1000
0100
1000
0001
0010
0100
1000
0001
0100
0010
0100
0001
1000
0010
1000
,
0001
0010
0100
1000
0001
0010
0100
0010
0001
1000
0010
0100
0010
1000
0001
0100
,
0001
1000
0010
1000
0001
1000
0100
0010
0001
0010
0100
0010
0001
0100
0010
0100
,
0001
0000
0000
0010
0000
0000
0100
0000
0000
1000
0000
0000
0001
0000
0000
0010
0000
0000
0001
0000
0000
1000
0000
0000
0010
0000
0000
0100
0000
0000
0010
0000
0000
1000
0000
0000
0100
0000
0000
0010
0000
0000
0001
0000
0010
0000
0001
0000
,
0020
0000
0030
0000
0001
0010
0100
1000
,
0002
0000
0000
0000
0000
0000
0000
0200
,
0003
0020
0300
2000
0030
0002
3000
0020
,
0003
0200
0030
2000
0300
0002
3000
2000
,
0003
3000
0000
0000
,
0000
0000
0000
0000
0000
0000
0000
0000
00M0
0000
0000
M000
0000
0000
000M
0000
,
0000
0M00
0000
0000
00M0
0000
0000
00M0
0000
0000
0000
0000
0000
M000
0000
0000
,
0M00
0000
0000
00M0
0000
0000
0000
0000
0000
000M
0000
0000
M000
0000
0000
0M00
,
0000
0000
0M00
0000
0000
M000
0000
0000
M000
0000
0000
0000
0000
0000
0000
0000
,
0000
0000
0000
0000
,
0000
0000
0000
0000
0010
0100
0001
1000
,
1002
0000
1000
0000
1000
0000
1003
0200
,
1000
0000
1000
0000
1300
0001
0010
0100
,
2000
0000
0001
0000
0001
0000
3001
0200
,
0001
2300
3002
0000
1000
0000
1000
0000
,
1003
0100
0010
0001
0100
0010
0100
0001
,
0010
0100
1000
0100
0010
0001
0100
0001
,
1000
0010
0100
0001
0010
0100
1000
0100
,
0010
0000
0000
0000
0000
0000
0000
0000
0000
0000
0000
0000
0001
0000
0000
0000
0000
0000
0010
0000
0000
0000
0000
0000
0100
0000
0000
0000
0000
0000
0010
0000
0000
0001
0000
0000
0100
0000
0000
0000
0000
0000
0010
0000
1000
0000
0010
0000
,
2000
0000
0001
0000
0001
0000
3001
0020
,
0001
0000
0001
0000
0031
1000
0100
0010
,
0002
0000
1000
0000
1000
0000
1003
0020
,
1000
0000
0000
0000
0000
0000
0032
0000
0000
0000
0000
0000
2003
0000
0000
0000
0000
0000
0000
0000
0000
0000
0000
0000
0001
0000
0000
0000
0000
0000
3001
0000
0000
0100
0000
0000
0010
0000
0000
0000
0000
0000
1000
0000
0100
0000
1000
0000
,
0100
0010
0100
1000
0010
0100
0010
1000
,
0100
0010
0001
0010
0100
1000
0010
1000
,
0001
0100
0010
1000
0100
0010
0001
0010
,
0100
0000
0000
0000
0000
0000
0000
0000
0000
0000
0000
0000
1000
0000
0000
0000
0000
0000
0100
0000
0000
0000
0000
0000
0010
0000
0000
0000
0000
0000
0100
0000
0000
1000
0000
0000
0010
0000
0000
0000
0000
0000
0100
0000
0001
0000
0100
0000
,
0002
0000
1000
0000
1000
0000
1003
0200
,
0010
0000
0000
0000
0010
0000
0000
0000
0310
0000
0001
1000
0010
0000
0100
0000
,
0001
0100
0001
1000
0010
0100
0001
0100
0010
1000
0001
1000
0100
0010
0001
1000
,
0100
0000
0000
1000
0000
0000
0001
0000
0000
0100
0000
0000
0010
0000
0000
1000
0000
0000
0001
0000
0000
1000
0000
0000
0100
0000
0000
0010
0000
0000
0100
0000
0000
0010
0000
0000
0001
0000
1000
0000
0001
0000
1000
0000
0001
0000
1000
0000
,
0001
1000
0010
1000
0001
1000
0010
1000
0001
0100
0001
0010
0100
1000
0010
0100
,
0001
0100
0010
1000
0001
0010
0100
1000
0001
0100
0001
1000
0100
0010
0001
1000
,
0100
1000
0001
0010
0001
1000
0001
0100
0010
1000
0001
0100
0001
1000
0100
0010
,
0100
0000
0000
1000
0000
0000
0001
0000
0000
0010
0000
0000
0001
0000
0000
1000
0000
0000
0100
0000
0000
1000
0000
0000
0001
0000
0000
0100
0000
0000
0010
0000
0000
0100
0000
0000
0001
0000
0000
0010
0000
0000
0100
0000
1000
0000
0100
0000
,
1000
0001
0010
0001
1000
0001
0010
0001
0100
0010
1000
0010
0100
0001
1000
0100
,
1000
0001
1000
0100
1000
0001
1000
0100
0010
0001
1000
0100
1000
0010
0100
0001
,
0010
0001
1000
0001
0010
0001
1000
0001
0010
0100
1000
0100
0010
0001
1000
0010
,
1000
0000
0000
0001
0000
0000
1000
0000
0000
0010
0000
0000
1000
0000
0000
0001
0000
0000
1000
0000
0000
0010
0000
0000
0100
0000
0000
0001
0000
0000
1000
0000
0000
0100
0000
0000
1000
0000
0000
0001
0000
0000
0010
0000
0001
0000
0010
0000
,
0001
1000
0100
1000
0001
1000
0100
1000
0001
0010
0001
0100
0010
1000
0100
0010
,
0001
0010
0100
1000
0001
0100
0010
1000
0001
0010
0001
1000
0010
0100
0001
1000
,
0010
1000
0001
0100
0001
1000
0001
0010
0100
1000
0001
0010
0001
1000
0010
0100
,
0010
0000
0000
1000
0000
0000
0001
0000
0000
0100
0000
0000
0001
0000
0000
1000
0000
0000
0010
0000
0000
1000
0000
0000
0001
0000
0000
0010
0000
0000
0100
0000
0000
0010
0000
0000
0001
0000
0000
0100
0000
0000
0010
0000
1000
0000
0010
0000
,
1000
0001
0100
0001
1000
0001
0100
0001
0010
0100
1000
0100
0010
0001
1000
0010
,
1000
0001
1000
0010
1000
0001
1000
0010
0100
0001
1000
0010
1000
0100
0010
0001
,
0100
0001
1000
0001
0100
0001
1000
0001
0100
0010
1000
0010
0100
0001
1000
0100
,
1000
0000
0000
0001
0000
0000
1000
0000
0000
0100
0000
0000
1000
0000
0000
0001
0000
0000
1000
0000
0000
0100
0000
0000
0010
0000
0000
0001
0000
0000
1000
0000
0000
0010
0000
0000
1000
0000
0000
0001
0000
0000
0100
0000
0001
0000
0100
0000
,
0001
1000
0010
1000
0001
1000
0010
1000
0001
0100
0010
1000
0100
1000
0010
0100
,
0001
0100
0010
1000
0001
0010
0001
1000
0010
0100
0001
1000
0100
1000
0001
0010
,
0100
1000
0001
0010
0001
1000
0010
0100
0001
1000
0010
0100
0010
1000
0001
0010
,
0100
0000
0000
1000
0000
0000
0001
0000
0000
0010
0000
0000
0001
0000
0000
1000
0000
0000
0100
0000
0000
1000
0000
0000
0001
0000
0000
0100
0000
0000
0010
0000
0000
1000
0000
0000
0100
0000
0000
0010
0000
0000
0100
0000
1000
0000
0100
0000
,
1000
0001
0010
0001
1000
0001
0010
0001
1000
0010
0100
0001
0010
0100
0010
0001
,
1000
0100
0010
0100
1000
0100
0010
0001
0100
0001
1000
0100
1000
0010
1000
0001
,
0100
0001
1000
0001
0100
0001
1000
0001
0010
0100
0010
0001
1000
0010
0100
0010
,
1000
0000
0000
0010
0000
0000
0100
0000
0000
0010
0000
0000
1000
0000
0000
0001
0000
0000
1000
0000
0000
0010
0000
0000
0100
0000
0000
0001
0000
0000
1000
0000
0000
0100
0000
0000
0010
0000
0000
0001
0000
0000
0010
0000
0001
0000
0010
0000
,
0001
1000
0100
1000
0001
1000
0100
1000
0001
0010
0100
1000
0010
1000
0100
0010
,
0001
0010
0100
1000
0001
0100
0001
1000
0100
0010
0001
1000
0010
1000
0001
0100
,
0010
1000
0001
0100
0001
1000
0100
0010
0001
1000
0100
0010
0100
1000
0001
0100
,
0010
0000
0000
1000
0000
0000
0001
0000
0000
0100
0000
0000
0001
0000
0000
1000
0000
0000
0010
0000
0000
1000
0000
0000
0001
0000
0000
0010
0000
0000
0100
0000
0000
1000
0000
0000
0010
0000
0000
0100
0000
0000
0010
0000
1000
0000
0010
0000
,
1000
0001
0100
0001
1000
0001
0100
0001
1000
0100
0010
0001
0100
0010
0100
0001
,
1000
0010
0100
0010
1000
0010
0100
0001
0010
0001
1000
0010
1000
0100
1000
0001
,
0010
0001
1000
0001
0010
0001
1000
0100
0010
0100
1000
0100
0010
0001
1000
0001
,
0010
0000
0000
0100
0000
0000
0010
0000
0000
0001
0000
0000
1000
0000
0000
0010
0000
0000
0100
0000
0000
0001
0000
0000
0100
0000
0000
0010
0000
0000
1000
0000
0000
0001
0000
0000
0010
0000
0000
0100
0000
0000
1000
0000
0001
0000
1000
0000
,
0001
0100
0001
1000
0010
0100
0001
1000
0100
1000
0001
0010
0100
1000
0001
0010
,
0001
0100
0010
1000
0001
0100
0010
0100
0001
1000
0100
0010
0001
1000
0010
0100
,
0001
0010
0100
1000
0001
0100
0010
1000
0001
0010
0001
1000
0010
0100
0010
1000
,
0100
1000
0001
0010
0100
0010
0001
1000
0010
0100
0001
0100
0010
1000
0010
0100
,
0001
0010
0001
0100
0001
1000
0100
1000
0001
0100
0001
1000
0010
1000
0001
0010
,
0001
0100
0010
1000
0001
0010
0100
0010
0001
1000
0010
1000
0001
0010
0100
1000
,
0010
0100
0001
1000
0100
0010
0100
1000
0001
0100
0010
0100
0001
1000
0010
0100
,
0001
0000
0000
0010
0000
0000
0001
0000
0000
1000
0000
0000
0100
0000
0000
0010
0000
0000
0100
0000
0000
1000
0000
0000
0001
0000
0000
0100
0000
0000
0010
0000
0000
0100
0000
0000
0001
0000
0000
1000
0000
0000
0010
0000
1000
0000
0010
0000
,
1000
0100
0010
0001
1000
0100
1000
0001
0100
0001
1000
0010
0100
0001
0100
0010
,
1000
0100
0010
0001
1000
0010
0100
0001
1000
0010
1000
0001
0010
0001
1000
0100
,
1000
0010
0100
0001
1000
0100
1000
0001
0010
0100
1000
0001
0010
0001
1000
0010
,
1000
0100
0010
0001
1000
0010
1000
0001
0100
0010
1000
0001
0010
0001
1000
0100
,
1000
0010
1000
0001
0100
0001
1000
0100
1000
0001
0010
0100
1000
0001
0100
0010
,
1000
0100
0010
0001
1000
0010
0100
0001
0100
0010
1000
0001
1000
0100
0010
0100
,
1000
0010
1000
0001
1000
0100
0010
0001
1000
0001
0010
0100
1000
0001
1000
0010
,
0100
0001
0010
0100
1000
0100
1000
0100
0010
0001
0100
0010
1000
0001
0010
0100
,
1000
0010
1000
0001
0100
0010
1000
0001
0010
0001
1000
0100
0010
0001
1000
0100
,
1000
0010
0100
0001
1000
0010
0100
0010
1000
0001
0010
0100
1000
0001
0100
0010
,
1000
0100
0010
0001
1000
0010
0100
0001
1000
0100
1000
0001
0100
0010
0100
0001
,
0010
0001
1000
0100
0010
0100
1000
0001
0100
0010
1000
0010
0100
0001
0100
0010
,
1000
0100
1000
0010
1000
0001
0010
0001
1000
0010
1000
0001
0100
0001
1000
0100
,
1000
0010
0100
0001
1000
0100
0010
0100
1000
0001
0100
0001
1000
0100
0010
0001
,
0100
0010
1000
0001
0010
0100
0010
0001
1000
0010
0100
0010
1000
0001
0100
0010
,
1000
0000
0000
0100
0000
0000
1000
0000
0000
0001
0000
0000
0100
0000
0000
0010
0000
0000
0100
0000
0000
0001
0000
0000
1000
0000
0000
0010
0000
0000
0100
0000
0000
0010
0000
0000
1000
0000
0000
0001
0000
0000
0100
0000
0001
0000
0100
0000
,
0001
0010
0100
1000
0001
0010
0001
1000
0010
1000
0001
0100
0010
1000
0010
0100
,
0001
0010
0100
1000
0001
0100
0010
1000
0001
0100
0001
1000
0100
1000
0001
0010
,
0001
0100
0010
1000
0001
0010
0001
1000
0100
0010
0001
1000
0100
1000
0001
0100
,
0001
0010
0100
1000
0001
0100
0001
1000
0010
0100
0001
1000
0100
1000
0001
0010
,
0001
0100
0001
1000
0010
1000
0001
0010
0001
1000
0100
0010
0001
1000
0010
0100
,
0001
0010
0100
1000
0001
0100
0010
1000
0010
0100
0001
1000
0001
0010
0100
0010
,
0001
0100
0001
1000
0001
0010
0100
1000
0001
1000
0100
0010
0001
1000
0001
0100
,
0010
1000
0001
1000
0010
0100
0001
1000
0100
0010
0001
0010
0100
1000
0001
1000
,
0002
M000
0000
0M00
,
0000
00M0
0000
0M00
,
0000
M000
0000
0M00
,
0000
00M0
0000
0M00
,
0003
0000
0000
0000
;

//---------------dance-single - 16- (@@TYLR)----------------
#NOTES:
     dance-single:
     16- (@@TYLR):
     Hard:
     16:
     1.000,1.000,0.014,0.141,1.000,2495.000,4.000,39.000,23.000,0.000:
0000
0000
0000
0000
,
0000
0000
0000
0000
,
0000
0000
0000
0000
,
0000
0000
0000
0000
,
0000
0000
0000
0000
,
0000
0000
0000
0000
,
0000
0000
0000
0000
,
0000
0000
0000
0000
,
1001
0001
0010
0100
,
1000
0001
0100
0010
,
1000
0100
0010
0100
,
1000
0000
0010
0000
0100
0000
0001
0001
,
1000
0100
0010
0001
,
0100
0010
1000
0001
,
1000
0100
1000
0001
0010
0001
1000
0001
0100
0010
1000
0001
1000
0010
0100
0001
,
0010
0100
1000
0001
0010
0001
1000
0010
0100
0001
1000
0001
0010
0100
1000
0001
,
1000
0010
0000
1000
0001
1000
0100
0010
0001
0000
1000
0001
0000
0010
0100
1000
,
0001
0100
0000
0001
1000
0010
0100
0001
1000
0000
0001
0010
0000
0001
1000
0001
,
0100
0010
0000
1000
0010
0100
0001
1000
0100
0000
0010
0100
0000
1000
0100
0010
,
0001
0100
0000
0001
0100
0010
1000
0001
0100
0000
0001
1000
0000
0001
1000
0100
,
0010
0001
0000
0010
0100
1000
0001
0100
0010
0000
1000
0010
0000
0100
0001
1000
,
0001
0010
0000
0100
1000
0100
0010
0001
1000
0000
0001
0100
0000
0001
1000
0010
,
0100
0001
0000
1000
0001
0100
0010
1000
0001
0000
1000
0100
0000
0010
0100
1000
,
0010
0000
0000
0100
0000
0000
0000
0000
0000
0001
0000
0000
0100
0000
0000
0010
0000
0000
1000
0000
0000
0001
0000
0000
1000
0000
0000
0000
0000
0000
0001
0000
0000
0010
0000
0000
0001
0000
0000
0000
0000
0000
1000
0000
0001
0000
1000
0000
,
0001
0100
0000
0001
1000
0001
0010
0100
1000
0000
0001
1000
0000
0100
0010
0001
,
1000
0010
0000
1000
0001
0100
0010
1000
0001
0000
1000
0100
0000
1000
0001
1000
,
0010
0100
0000
0001
0100
0010
1000
0001
0010
0000
0100
0010
0000
0001
0010
0100
,
1000
0010
0000
1000
0010
0100
0001
1000
0010
0000
1000
0001
0000
1000
0001
0010
,
0100
1000
0000
0100
0010
0001
1000
0010
0100
0000
0001
0100
0000
0010
1000
0001
,
1000
0100
0000
0010
0001
0010
0100
1000
0001
0000
1000
0010
0000
1000
0001
0100
,
0010
1000
0000
0001
1000
0010
0100
0001
1000
0000
0001
0010
0000
0100
0010
0001
,
0100
0010
1000
0001
1000
0010
0100
0001
1000
0001
1000
0100
0010
0001
0100
0010
,
1000
0001
0000
1000
0100
1000
0001
0100
0010
0000
1000
0010
0000
0100
0001
1000
,
0100
0010
0000
0100
1000
0001
0100
0010
1000
0000
0010
0100
0000
0001
1000
0001
,
1000
0100
0000
0010
0100
1000
0001
1000
0010
0000
0100
0010
0000
1000
0010
0100
,
0001
0010
0000
0001
0010
0100
1000
0001
0010
0000
0001
1000
0000
0001
1000
0010
,
0100
0001
0000
0100
0010
1000
0001
0010
0100
0000
1000
0100
0000
0010
0001
1000
,
0001
0100
0000
0010
1000
0010
0100
0001
1000
0000
0001
0010
0000
0001
1000
0100
,
0010
0001
0000
1000
0001
0010
0100
1000
0001
0000
1000
0010
0000
0100
0010
1000
,
0100
0000
0000
0010
0000
0000
0000
0000
0000
0001
0000
0000
0010
0000
0000
0100
0000
0000
1000
0000
0000
0001
0000
0000
1000
0000
0000
0000
0000
0000
0001
0000
0000
0100
0000
0000
0001
0000
0000
0000
0000
0000
1000
0000
0001
0000
1000
0000
,
0001
0010
0000
0001
1000
0001
0100
0010
1000
0000
0001
1000
0000
0010
0100
0001
,
1000
0100
0000
1000
0001
0010
0100
1000
0001
0000
1000
0010
0000
1000
0001
1000
,
0100
0010
0000
0001
0010
0100
1000
0001
0100
0000
0010
0100
0000
0001
0100
0010
,
1000
0100
0000
1000
0100
0010
0001
1000
0100
0000
1000
0001
0000
1000
0001
0100
,
0010
1000
0000
0010
0100
0001
1000
0100
0010
0000
0001
0010
0000
0100
1000
0001
,
1000
0010
0000
0100
0001
0100
0010
1000
0001
0000
1000
0100
0000
1000
0001
0010
,
0200
0000
0000
2300
0000
0000
3002
0000
,
0000
0000
0203
0000
0000
0000
0000
0000
0310
1000
0010
0100
0001
0010
0100
1000
,
0001
0000
0100
0010
1000
0000
0001
0000
1000
0000
0010
0100
0001
0000
0010
0100
,
1000
0000
0010
0100
0001
0000
1000
0000
0100
0000
0010
0001
0100
0000
0010
0000
,
0100
0000
0001
0010
0100
0000
1000
0000
0001
0000
0100
0010
1000
0000
0100
0010
,
0001
0000
0000
0000
0000
0000
0100
0000
0000
0010
0000
0000
1000
0000
0000
0000
0000
0000
0001
0000
0000
0000
0000
0000
1000
0000
0000
0000
0000
0000
0010
0000
0000
0100
0000
0000
0001
0000
0000
0000
0000
0000
1000
0000
0001
0000
1000
0000
,
0001
0000
0010
0100
1000
0000
0001
0000
1000
0000
0100
0010
0001
0000
1000
0000
,
0001
0000
0010
0100
1000
0000
0001
0000
0100
0000
0010
1000
0100
0000
0010
0000
,
0100
0000
1000
0010
0100
0000
0001
0000
1000
0000
0100
0010
0001
0000
1000
0000
,
0001
0000
0000
0000
0000
0000
0010
0000
0000
0100
0000
0000
1000
0000
0000
0000
0000
0000
0001
0000
0000
0000
0000
0000
1000
0000
0000
0000
0000
0000
0010
0000
0000
1000
0000
0000
0100
0000
0000
0000
0000
0000
0010
0000
0001
0000
0010
0000
,
0001
0000
1000
0001
0100
0000
0001
0000
1000
0000
0100
0010
0001
0000
0100
0010
,
1000
0000
0100
0010
0001
0000
1000
0000
0010
0000
0100
0001
0010
0000
0100
0000
,
0010
0000
0001
0100
0010
0000
1000
0000
0001
0000
0010
0100
1000
0000
0010
0100
,
0001
0000
0000
0000
0000
0000
0010
0000
0000
0100
0000
0000
1000
0000
0000
0000
0000
0000
0001
0000
0000
0000
0000
0000
1000
0000
0000
0000
0000
0000
0100
0000
0000
0010
0000
0000
0001
0000
0000
0000
0000
0000
1000
0000
0001
0000
1000
0000
,
0001
0000
0010
0100
1000
0000
0001
0000
1000
0000
0100
0010
0001
0000
1000
0000
,
0001
0000
0100
0010
1000
0001
1000
0010
0100
0001
1000
0001
1000
0100
0010
0001
,
2000
0000
0000
3020
0000
0000
0230
0000
,
0000
0302
0000
0000
0000
0000
0000
0000
,
1003
0001
0100
0010
1000
0010
0100
0001
0010
0001
0100
0010
1000
0001
0100
0001
,
0010
0100
1000
0010
0100
0001
1000
0001
0010
0100
1000
0010
1000
0001
0100
0010
,
1000
0001
1000
0100
0010
0001
0100
0001
1000
0010
0100
0010
1000
0001
0100
0001
,
1000
0000
0000
0100
0000
0000
1000
0000
0000
0010
0000
0000
0100
0000
0000
0001
0000
0000
1000
0000
0000
0001
0000
0000
0010
0000
0000
0001
0000
0000
0100
0000
0000
0010
0000
0000
1000
0000
0000
0000
0000
0000
0001
0000
1000
0000
0001
0000
,
1000
0001
0100
0010
1000
0010
0100
0001
0010
0001
0100
0010
1000
0001
0100
0001
,
0010
0100
1000
0010
0100
0001
1000
0001
0010
0100
1000
0010
1000
0001
0100
0010
,
1000
0001
1000
0100
0010
0001
0100
0001
1000
0010
0100
0010
1000
0001
0100
0001
,
1000
0000
0000
0100
0000
0000
1000
0000
0000
0010
0000
0000
0100
0000
0000
0001
0000
0000
1000
0000
0000
0001
0000
0000
0010
0000
0000
0001
0000
0000
0100
0000
0000
0010
0000
0000
1000
0000
0000
0000
0000
0000
0001
0000
1000
0000
0001
0000
,
1000
0100
0010
0001
1000
0001
0010
0100
1000
0001
0010
0100
1000
0001
0010
0001
,
0100
0010
1000
0100
0010
0001
1000
0001
0100
0010
1000
0100
1000
0001
0010
0100
,
1000
0001
1000
0010
0100
0001
0010
0001
1000
0100
0010
0100
1000
0001
0010
0001
,
1000
0000
0000
0010
0000
0000
1000
0000
0000
0100
0000
0000
0010
0000
0000
0001
0000
0000
1000
0000
0000
0001
0000
0000
0100
0000
0000
0001
0000
0000
0010
0000
0000
0100
0000
0000
1000
0000
0000
0000
0000
0000
0001
0000
1000
0000
0001
0000
,
1000
0100
0010
0100
1000
0100
0010
0001
0100
0001
0010
0100
1000
0001
0010
0001
,
0100
0010
1000
0100
0010
0001
1000
0001
0100
0010
1000
0100
1000
0001
0010
0100
,
1000
0001
1000
0100
1000
0001
0100
0010
0100
0001
0100
0010
1000
0100
0010
0100
,
1000
0100
0010
0001
1000
0100
1000
0001
0100
0001
0010
0100
1000
0001
1000
0100
,
0020
0030
0000
0000
,
0000
0000
0000
0004
,
1003
0010
0100
0000
0001
0100
0001
0000
0010
0001
1000
0000
0001
0100
0001
1000
,
0010
0100
0001
0000
1000
0100
0010
0000
0001
1000
0001
0000
1000
0010
0100
0001
,
1000
0001
0100
0000
0010
1000
0001
0000
1000
0100
1000
0000
0001
0010
0100
1000
,
0001
0000
0000
0000
0000
0000
0000
0000
0000
0000
0000
0000
0100
0000
0000
0000
0000
0000
0000
0000
0000
0000
0000
0000
0020
0000
0000
0000
0000
0000
0030
0000
0000
0000
0000
0000
0000
0000
0000
0000
0000
0000
0000
0000
0000
0000
0000
0000
0020
0000
0000
0000
0000
0000
0000
0000
0000
0000
0000
0000
0000
0000
0000
0000
0000
0000
0000
0000
0000
0000
0000
0000
1030
0000
0000
0000
0000
0000
0000
0000
0000
0000
0000
0000
0000
0000
0000
0000
0000
0000
0000
0000
0000
0000
0000
0000
0020
0000
0000
0000
0000
0000
0030
0000
0000
0000
0000
0000
0000
0000
0000
0000
0000
0000
0000
0000
0000
0000
0000
0000
0020
0000
0000
0000
0000
0000
0000
0000
0000
0000
0000
0000
0130
0000
0000
0000
0000
0000
0000
0000
0000
0000
0000
0000
0001
0000
0000
0000
0000
0000
0000
0000
0000
0000
0000
0000
0000
0000
0000
0000
0000
0000
0000
0000
0000
0000
0000
0000
1000
0000
0000
0000
0000
0000
0000
0000
0001
0000
0000
0000
0000
0000
0000
0000
1000
0000
0000
0000
0000
0000
0000
0000
,
0001
0000
0100
0000
0010
0100
0001
0000
0010
0100
1000
0000
0001
0010
0001
1000
,
0010
0100
0001
0000
1000
0001
0100
0000
0010
1000
0010
0000
0100
0001
1000
0001
,
0010
0100
1000
0000
0001
0010
0001
0000
1000
0001
0100
0000
0010
1000
0001
0010
,
0100
0000
0000
1000
0000
0000
0001
0000
0000
0000
0000
0000
0100
0000
0000
0001
0000
0000
1000
0000
0000
0000
0000
0000
0100
0000
0000
0000
0000
0000
0100
0000
0000
0010
0000
0000
0001
0000
0000
0000
0000
0000
1000
0000
0001
0000
1000
0000
,
0001
0000
0010
0000
0100
0010
0001
0000
0100
0010
1000
0000
0001
0100
0001
1000
,
0100
0010
0001
0000
1000
0001
0010
0000
0100
1000
0100
0000
0010
0001
1000
0001
,
0100
0010
1000
0000
0001
0100
0001
0000
1000
0001
0010
0000
0100
1000
0001
0100
,
0010
0000
0000
1000
0000
0000
0001
0000
0000
0000
0000
0000
0010
0000
0000
0001
0000
0000
1000
0000
0000
0000
0000
0000
0010
0000
0000
0000
0000
0000
0010
0000
0000
0100
0000
0000
0001
0000
0000
0000
0000
0000
1000
0000
0001
0000
1000
0000
,
0001
0000
1000
0000
0100
0010
0001
0000
0100
0010
1000
0000
0001
1000
0010
0100
,
0001
1000
0001
0000
1000
0100
0010
0000
0001
1000
0001
0000
1000
0010
1000
0001
,
0010
0100
0010
0100
0010
0001
0100
0001
0100
0001
0100
0010
1000
0001
1000
0001
,
1000
0000
0000
0100
0000
0000
0010
0000
0000
0001
0000
0000
0010
0000
0000
0001
0000
0000
0010
0000
0000
0100
0000
0000
1000
0000
0000
0001
0000
0000
0100
0000
0000
0010
0000
0000
1000
0000
0000
0000
0000
0000
0001
0000
1000
0000
0001
0000
,
1000
0000
0001
0000
0010
0100
1000
0000
0001
1000
0001
0000
1000
0010
1000
0001
,
0100
0010
1000
0000
0001
0010
0100
0000
1000
0001
1000
0000
0001
0100
0010
1000
,
0001
1000
0010
0000
0100
0001
1000
0000
0001
0010
0001
0000
1000
0100
0010
0001
,
1000
0000
0000
0010
0000
0000
0100
0000
0000
0000
0000
0000
0001
0000
0000
1000
0000
0000
0100
0000
0000
0000
0000
0000
0010
0000
0000
0000
0000
0000
0010
0000
0000
0001
0000
0000
1000
0000
0000
0000
0000
0000
0001
0000
1000
0000
0001
0000
,
1000
0000
0001
0000
0100
0010
1000
0000
0100
0010
0001
0000
1000
0100
1000
0001
,
0100
0010
1000
0000
0001
1000
0010
0000
0100
0001
0100
0000
0010
1000
0001
1000
,
0100
0010
0001
0000
1000
0100
1000
0000
0001
1000
0010
0000
0100
0001
1000
0100
,
0010
0000
0000
0001
0000
0000
1000
0000
0000
0000
0000
0000
0010
0000
0000
1000
0000
0000
0001
0000
0000
0000
0000
0000
0010
0000
0000
0000
0000
0000
0010
0000
0000
0100
0000
0000
1000
0000
0000
0000
0000
0000
0001
0000
1000
0000
0001
0000
,
1000
0000
0100
0000
0010
0100
1000
0000
0010
0100
0001
0000
1000
0010
1000
0001
,
0010
0100
1000
0000
0001
1000
0100
0000
0010
0001
0010
0000
0100
1000
0001
1000
,
0010
0100
0001
0000
1000
0010
1000
0000
0001
1000
0100
0000
0010
0001
1000
0010
,
0100
0000
0000
0001
0000
0000
1000
0000
0000
0000
0000
0000
0100
0000
0000
1000
0000
0000
0001
0000
0000
0000
0000
0000
0100
0000
0000
0000
0000
0000
0100
0000
0000
0010
0000
0000
1000
0000
0000
0000
0000
0000
0001
0000
1000
0000
0001
0000
,
1000
0000
0001
0000
0010
0100
1000
0000
0010
0100
0001
0000
1000
0001
0100
0010
,
1000
0001
1000
0000
0001
0010
0100
0000
1000
0001
1000
0000
0001
0100
0001
1000
,
0100
0010
0100
0010
0100
1000
0010
1000
0010
1000
0010
0100
0001
1000
0001
1000
,
0001
0000
0000
0010
0000
0000
0100
0000
0000
1000
0000
0000
0100
0000
0000
1000
0000
0000
0100
0000
0000
0010
0000
0000
0001
0000
0000
1000
0000
0000
0010
0000
0000
0100
0000
0000
0001
0000
0000
0000
0000
0000
1000
0000
0001
0000
1000
0000
,
0001
0000
0020
0030
0000
0000
0000
0000
0001
0000
0100
0000
0010
0000
1000
0000
,
0002
0000
0000
0000
0000
0000
0000
0203
,
0000
0320
0000
2030
0000
3002
0000
0023
,
0000
0230
0000
2300
0000
3002
0000
2000
,
0000
0000
0000
0003
,
0000
0000
0000
0000
0000
0000
0000
0000
30M0
0000
0000
M000
0000
0000
000M
0000
,
0000
0M00
0000
0000
00M0
0000
0000
00M0
0000
0000
0000
0000
0000
M000
0000
0000
,
0M00
0000
0000
00M0
0000
0000
0000
0000
0000
000M
0000
0000
M000
0000
0000
0M00
,
0000
0000
0M00
0000
0000
M000
0000
0000
M000
0000
0000
0000
0000
0000
0000
0000
,
0000
0000
0000
0000
,
0000
0000
0000
0000
0010
0100
0001
1000
,
1002
0000
1000
0000
1000
0000
1003
0200
,
1000
0000
1000
0000
1300
0001
0010
0100
,
2000
0000
0001
0000
0001
0000
3001
0200
,
0001
2300
3002
0000
1000
0000
1000
0000
,
1003
0100
0010
0001
0100
0010
0100
0001
,
0010
0100
1000
0100
0010
0001
0100
0001
,
1000
0010
0100
0001
0010
0100
1000
0100
,
0010
0000
0000
0000
0000
0000
0000
0000
0000
0000
0000
0000
0001
0000
0000
0000
0000
0000
0010
0000
0000
0000
0000
0000
0100
0000
0000
0000
0000
0000
0010
0000
0000
0001
0000
0000
0100
0000
0000
0000
0000
0000
0010
0000
1000
0000
0010
0000
,
2000
0000
0001
0000
0001
0000
3001
0020
,
0001
0000
0001
0000
0031
1000
0100
0010
,
0002
0000
1000
0000
1000
0000
1003
0020
,
1000
0000
0000
0000
0000
0000
0032
0000
0000
0000
0000
0000
2003
0000
0000
0000
0000
0000
0000
0000
0000
0000
0000
0000
0001
0000
0000
0000
0000
0000
3001
0000
0000
0100
0000
0000
0010
0000
0000
0000
0000
0000
1000
0000
0100
0000
1000
0000
,
0100
0010
0100
1000
0010
0100
0010
1000
,
0100
0010
0001
0010
0100
1000
0010
1000
,
0001
0100
0010
1000
0100
0010
0001
0010
,
0100
0000
0000
0000
0000
0000
0000
0000
0000
0000
0000
0000
1000
0000
0000
0000
0000
0000
0100
0000
0000
0000
0000
0000
0010
0000
0000
0000
0000
0000
0100
0000
0000
1000
0000
0000
0010
0000
0000
0000
0000
0000
0100
0000
0001
0000
0100
0000
,
0002
0000
1000
0000
1000
0000
1003
0200
,
0010
0000
0000
0000
0010
0000
0000
0000
0310
0000
0001
1000
0010
0000
0100
0000
,
0001
0100
0001
1000
0010
0100
0001
0100
0010
1000
0001
1000
0100
0010
0001
1000
,
0100
0000
0000
1000
0000
0000
0001
0000
0000
0100
0000
0000
0010
0000
0000
1000
0000
0000
0001
0000
0000
1000
0000
0000
0001
0000
0000
0010
0000
0000
0001
0000
0000
0010
0000
0000
0400
0000
4000
0000
0000
0000
0000
0000
0300
0000
3000
0000
,
0001
1000
0010
1000
0001
1000
0010
1000
0001
0100
0001
0010
0100
1000
0010
0100
,
0001
0100
0010
1000
0001
0010
0100
1000
0001
0100
0001
1000
0100
0010
0001
1000
,
0100
1000
0001
0010
0001
1000
0001
0100
0010
1000
0001
0100
0001
1000
0100
0010
,
0100
1000
0001
0010
0001
1000
0100
1000
0001
0100
0010
0100
0001
1000
0100
0010
,
0001
1000
0010
1000
0001
1000
0100
1000
0010
0100
0001
0100
0010
1000
0001
0010
,
0001
1000
0001
0010
0001
1000
0001
0010
0100
1000
0001
0010
0001
0100
0010
1000
,
0100
1000
0001
1000
0100
1000
0001
1000
0100
0010
0001
0010
0100
1000
0001
0100
,
0001
1000
0001
0100
0001
1000
0001
0100
0010
1000
0001
0010
0001
0100
0010
1000
,
0001
1000
0100
1000
0001
1000
0100
1000
0001
0010
0001
0100
0010
1000
0100
0010
,
0001
0010
0100
1000
0001
0100
0010
1000
0001
0010
0001
1000
0010
0100
0001
1000
,
0010
1000
0001
0100
0001
1000
0001
0010
0100
1000
0001
0010
0001
1000
0010
0100
,
0010
1000
0001
0100
0001
1000
0010
1000
0001
0010
0100
0010
0001
0100
0010
0100
,
0001
1000
0010
1000
0001
1000
0010
1000
0100
0010
0001
0010
0100
1000
0001
0100
,
0001
1000
0001
0100
0001
1000
0001
0100
0010
1000
0001
0100
0001
0010
0100
1000
,
0010
1000
0001
1000
0010
1000
0001
1000
0010
0100
0001
0100
0010
1000
0001
0010
,
0001
1000
0001
0010
0001
1000
0001
0010
0100
1000
0001
0100
0001
1000
0100
0010
,
0001
1000
0010
1000
0001
1000
0010
1000
0001
0100
0010
1000
0100
1000
0010
0100
,
0001
0100
0010
1000
0001
0010
0001
1000
0010
0100
0001
1000
0100
1000
0001
0010
,
0100
1000
0001
0010
0001
1000
0010
0100
0001
1000
0010
0100
0010
1000
0001
0010
,
0100
1000
0001
0010
0001
1000
0100
1000
0001
0100
0010
1000
0100
0010
0001
1000
,
0010
1000
0001
1000
0010
1000
0001
1000
0010
0100
0001
1000
0100
0010
0100
1000
,
0001
0010
0100
0010
0001
0010
0100
1000
0010
1000
0001
0010
0001
0100
0001
1000
,
0010
1000
0001
1000
0010
1000
0001
1000
0100
0010
0100
1000
0001
0100
0010
0100
,
0001
0100
0010
0100
0001
1000
0001
0100
0010
1000
0001
0010
0100
1000
0010
0100
,
0001
1000
0100
1000
0001
1000
0100
1000
0001
0010
0100
1000
0010
1000
0100
0010
,
0001
0010
0100
1000
0001
0100
0001
1000
0100
0010
0001
1000
0010
1000
0001
0100
,
0010
1000
0001
0100
0001
1000
0100
0010
0001
1000
0100
0010
0100
1000
0001
0100
,
0010
1000
0001
0100
0001
1000
0010
1000
0001
0010
0100
1000
0010
1000
0100
0010
,
0001
1000
0010
1000
0001
1000
0010
1000
0001
0010
0100
1000
0010
0100
0010
1000
,
0001
0100
0010
0100
0001
0100
0010
1000
0100
1000
0001
0100
0001
0010
0001
1000
,
0100
1000
0001
1000
0100
1000
0001
0010
0100
0010
0001
0010
0100
1000
0001
1000
,
0100
0000
0000
0010
0000
0000
0100
0000
0000
1000
0000
0000
0001
0000
0000
0100
0000
0000
0010
0000
0000
1000
0000
0000
0010
0000
0000
0100
0000
0000
0001
0000
0000
1000
0000
0000
0100
0000
0000
0000
0000
0000
1000
0000
0001
0000
1000
0000
,
0001
0100
0001
1000
0010
0100
0001
1000
0100
1000
0001
0010
0100
1000
0001
0010
,
0001
0100
0010
1000
0001
0100
0010
0100
0001
1000
0100
0010
0001
1000
0010
0100
,
0001
0010
0100
1000
0001
0100
0010
1000
0001
0010
0001
1000
0010
0100
0010
1000
,
0100
1000
0001
0010
0100
0010
0001
1000
0010
0100
0001
0100
0010
1000
0010
0100
,
0001
0010
0001
0100
0001
1000
0100
1000
0001
0100
0001
1000
0010
1000
0001
0010
,
0001
0100
0010
1000
0001
0010
0100
0010
0001
1000
0010
1000
0001
0010
0100
1000
,
0010
0100
0001
1000
0100
0010
0100
1000
0001
0100
0010
0100
0001
1000
0010
0100
,
0001
0000
0000
0010
0000
0000
0001
0000
0000
1000
0000
0000
0100
0000
0000
0010
0000
0000
0100
0000
0000
1000
0000
0000
0001
0000
0000
0100
0000
0000
0010
0000
0000
0100
0000
0000
0001
0000
0000
0000
0000
0000
0010
0000
0001
0000
0010
0000
,
0001
1000
0100
1000
0001
0010
0001
1000
0010
1000
0001
0100
0010
1000
0010
0100
,
0001
0010
0100
1000
0001
0100
0010
1000
0001
0100
0001
1000
0100
1000
0001
0010
,
0001
0100
0010
1000
0001
0010
0001
1000
0100
0010
0001
1000
0100
1000
0001
0100
,
0001
0010
0100
1000
0001
0100
0001
1000
0010
0100
0001
1000
0100
1000
0001
0010
,
0001
0100
0001
1000
0010
1000
0001
0010
0001
1000
0100
0010
0001
1000
0010
0100
,
0001
0010
0100
1000
0001
0100
0010
1000
0010
0100
0001
1000
0001
0010
0100
0010
,
0001
0100
0001
1000
0001
0010
0100
1000
0001
1000
0100
0010
0001
1000
0001
0100
,
0010
1000
0100
0010
0001
0010
0001
0010
0100
4000
3000
0100
4000
3000
0100
4000
,
3001
0100
0001
1000
0010
0100
0001
1000
0100
1000
0001
0010
0100
1000
0001
0010
,
0001
0100
0010
1000
0001
0100
0010
0100
0001
1000
0100
0010
0001
1000
0010
0100
,
0001
0010
0100
1000
0001
0100
0010
1000
0001
0010
0001
1000
0010
0100
0010
1000
,
0100
1000
0001
0010
0100
0010
0001
1000
0010
0100
0001
0100
0010
1000
0010
0100
,
0001
0010
0001
0100
0001
1000
0100
1000
0001
0100
0001
1000
0010
1000
0001
0010
,
0001
0100
0010
1000
0001
0010
0100
0010
0001
1000
0010
1000
0001
0010
0100
1000
,
0010
0100
0001
1000
0100
0010
0100
1000
0001
0100
0010
0100
0001
1000
0010
0100
,
0001
0000
0000
0010
0000
0000
0001
0000
0000
1000
0000
0000
0010
0000
0000
0100
0000
0000
0010
0000
0000
1000
0000
0000
0001
0000
0000
0100
0000
0000
0010
0000
0000
0100
0000
0000
0001
0000
0000
0000
0000
0000
1000
0000
0001
0000
1000
0000
,
0001
0010
0100
1000
0001
0010
0001
1000
0010
1000
0001
0100
0010
1000
0010
0100
,
0001
0010
0100
1000
0001
0100
0010
1000
0001
0100
0001
1000
0100
1000
0001
0010
,
0001
0100
0010
1000
0001
0010
0001
1000
0100
0010
0001
1000
0100
1000
0001
0100
,
0001
0010
0100
1000
0001
0100
0001
1000
0010
0100
0001
1000
0100
1000
0001
0010
,
0001
0100
0001
1000
0010
1000
0001
0010
0001
1000
0100
0010
0001
1000
0010
0100
,
0001
0010
0100
1000
0001
0100
0010
1000
0010
0100
0001
1000
0001
0010
0100
0010
,
0001
0100
0001
1000
0001
0010
0100
1000
0001
1000
0100
0010
0001
1000
0001
0100
,
0010
1000
0001
1000
0010
0100
0001
1000
0100
0010
0001
0010
0100
1000
0001
1000
,
0002
M000
0000
0M00
,
0000
00M0
0000
0M00
,
0000
M000
0000
0M00
,
0000
00M0
0000
0M00
,
0003
0000
0000
0000
;

//---------------dance-single - T. Moore (v2 SM15-)----------------
#NOTES:
     dance-single:
     T. Moore (v2 SM15-):
     Medium:
     15:
     1.000,1.000,0.014,0.141,1.000,2407.000,4.000,39.000,23.000,0.000:
0000
0000
0000
0000
,
0000
0000
0000
0000
,
0000
0000
0000
0000
,
0000
0000
0000
0000
,
0000
0000
0000
0000
,
0000
0000
0000
0000
,
0000
0000
0000
0000
,
0000
0000
0000
0000
,
1001
1000
0100
0010
,
0001
1000
0010
0100
,
0001
0010
0100
0010
,
0001
0000
0100
0000
0010
0000
1000
1000
,
0001
0010
0100
1000
,
0010
0100
0001
1000
,
0001
0010
0001
1000
0100
1000
0001
1000
0010
0100
0001
1000
0001
0100
0010
1000
,
0100
0010
0001
1000
0100
1000
0001
0100
0010
1000
0001
1000
0100
0010
0001
1000
,
0001
0100
0000
0001
1000
0001
0010
0100
1000
0000
0001
1000
0000
0100
0010
0001
,
1000
0010
0000
1000
0001
0100
0010
1000
0001
0000
1000
0100
0000
1000
0001
1000
,
0010
0100
0000
0001
0100
0010
1000
0001
0010
0000
0100
0010
0000
0001
0010
0100
,
1000
0010
0000
1000
0010
0100
0001
1000
0010
0000
1000
0001
0000
1000
0001
0010
,
0100
1000
0000
0100
0010
0001
1000
0010
0100
0000
0001
0100
0000
0010
1000
0001
,
1000
0100
0000
0010
0001
0010
0100
1000
0001
0000
1000
0010
0000
1000
0001
0100
,
0010
1000
0000
0001
1000
0010
0100
0001
1000
0000
0001
0010
0000
0100
0010
0001
,
0100
0000
0000
0010
0000
0000
0000
0000
0000
1000
0000
0000
0010
0000
0000
0100
0000
0000
0001
0000
0000
1000
0000
0000
0001
0000
0000
0000
0000
0000
1000
0000
0000
0100
0000
0000
1000
0000
0000
0000
0000
0000
0001
0000
1000
0000
0001
0000
,
1000
0010
0000
1000
0001
1000
0100
0010
0001
0000
1000
0001
0000
0010
0100
1000
,
0001
0100
0000
0001
1000
0010
0100
0001
1000
0000
0001
0010
0000
0001
1000
0001
,
0100
0010
0000
1000
0010
0100
0001
1000
0100
0000
0010
0100
0000
1000
0100
0010
,
0001
0100
0000
0001
0100
0010
1000
0001
0100
0000
0001
1000
0000
0001
1000
0100
,
0010
0001
0000
0010
0100
1000
0001
0100
0010
0000
1000
0010
0000
0100
0001
1000
,
0001
0010
0000
0100
1000
0100
0010
0001
1000
0000
0001
0100
0000
0001
1000
0010
,
0100
0001
0000
1000
0001
0100
0010
1000
0001
0000
1000
0100
0000
0010
0100
1000
,
0010
0100
0001
1000
0001
0100
0010
1000
0001
1000
0001
0010
0100
1000
0010
0100
,
0001
1000
0000
0001
0010
0001
1000
0010
0100
0000
0001
0100
0000
0010
1000
0001
,
0010
0100
0000
0010
0001
1000
0010
0100
0001
0000
0100
0010
0000
1000
0001
1000
,
0001
0010
0000
0100
0010
0001
1000
0001
0100
0000
0010
0100
0000
0001
0100
0010
,
1000
0100
0000
1000
0100
0010
0001
1000
0100
0000
1000
0001
0000
1000
0001
0100
,
0010
1000
0000
0010
0100
0001
1000
0100
0010
0000
0001
0010
0000
0100
1000
0001
,
1000
0010
0000
0100
0001
0100
0010
1000
0001
0000
1000
0100
0000
1000
0001
0010
,
0100
1000
0000
0001
1000
0100
0010
0001
1000
0000
0001
0100
0000
0010
0100
0001
,
0010
0000
0000
0100
0000
0000
0000
0000
0000
1000
0000
0000
0100
0000
0000
0010
0000
0000
0001
0000
0000
1000
0000
0000
0001
0000
0000
0000
0000
0000
1000
0000
0000
0010
0000
0000
1000
0000
0000
0000
0000
0000
0001
0000
1000
0000
0001
0000
,
1000
0100
0000
1000
0001
1000
0010
0100
0001
0000
1000
0001
0000
0100
0010
1000
,
0001
0010
0000
0001
1000
0100
0010
0001
1000
0000
0001
0100
0000
0001
1000
0001
,
0010
0100
0000
1000
0100
0010
0001
1000
0010
0000
0100
0010
0000
1000
0010
0100
,
0001
0010
0000
0001
0010
0100
1000
0001
0010
0000
0001
1000
0000
0001
1000
0010
,
0100
0001
0000
0100
0010
1000
0001
0010
0100
0000
1000
0100
0000
0010
0001
1000
,
0001
0100
0000
0010
1000
0010
0100
0001
1000
0000
0001
0010
0000
0001
1000
0100
,
0020
0000
0000
0032
0000
0000
2003
0000
,
0000
0000
3020
0000
0000
0000
0000
0000
0130
0001
0100
0010
1000
0100
0010
0001
,
1000
0000
0010
0100
0001
0000
1000
0000
0001
0000
0100
0010
1000
0000
0100
0010
,
0001
0000
0100
0010
1000
0000
0001
0000
0010
0000
0100
1000
0010
0000
0100
0000
,
0010
0000
1000
0100
0010
0000
0001
0000
1000
0000
0010
0100
0001
0000
0010
0100
,
1000
0000
0000
0000
0000
0000
0010
0000
0000
0100
0000
0000
0001
0000
0000
0000
0000
0000
1000
0000
0000
0000
0000
0000
0001
0000
0000
0000
0000
0000
0100
0000
0000
0010
0000
0000
1000
0000
0000
0000
0000
0000
0001
0000
1000
0000
0001
0000
,
1000
0000
0100
0010
0001
0000
1000
0000
0001
0000
0010
0100
1000
0000
0001
0000
,
1000
0000
0100
0010
0001
0000
1000
0000
0010
0000
0100
0001
0010
0000
0100
0000
,
0010
0000
0001
0100
0010
0000
1000
0000
0001
0000
0010
0100
1000
0000
0001
0000
,
1000
0000
0000
0000
0000
0000
0100
0000
0000
0010
0000
0000
0001
0000
0000
0000
0000
0000
1000
0000
0000
0000
0000
0000
0001
0000
0000
0000
0000
0000
0100
0000
0000
0001
0000
0000
0010
0000
0000
0000
0000
0000
0100
0000
1000
0000
0100
0000
,
1000
0000
0001
1000
0010
0000
1000
0000
0001
0000
0010
0100
1000
0000
0010
0100
,
0001
0000
0010
0100
1000
0000
0001
0000
0100
0000
0010
1000
0100
0000
0010
0000
,
0100
0000
1000
0010
0100
0000
0001
0000
1000
0000
0100
0010
0001
0000
0100
0010
,
1000
0000
0000
0000
0000
0000
0100
0000
0000
0010
0000
0000
0001
0000
0000
0000
0000
0000
1000
0000
0000
0000
0000
0000
0001
0000
0000
0000
0000
0000
0010
0000
0000
0100
0000
0000
1000
0000
0000
0000
0000
0000
0001
0000
1000
0000
0001
0000
,
1000
0000
0100
0010
0001
0000
1000
0000
0001
0000
0010
0100
1000
0000
0001
0000
,
1000
0000
0010
0100
0001
1000
0001
0100
0010
1000
0001
1000
0001
0010
0100
1000
,
0002
0000
0000
0203
0000
0000
0320
0000
,
0000
2030
0000
0000
0000
0000
0000
0000
,
3001
1000
0010
0100
0001
0100
0010
1000
0100
1000
0010
0100
0001
1000
0010
1000
,
0100
0010
0001
0100
0010
1000
0001
1000
0100
0010
0001
0100
0001
1000
0010
0100
,
0001
1000
0001
0010
0100
1000
0010
1000
0001
0100
0010
0100
0001
1000
0010
1000
,
0001
0000
0000
0010
0000
0000
0001
0000
0000
0100
0000
0000
0010
0000
0000
1000
0000
0000
0001
0000
0000
1000
0000
0000
0100
0000
0000
1000
0000
0000
0010
0000
0000
0100
0000
0000
0001
0000
0000
0000
0000
0000
1000
0000
0001
0000
1000
0000
,
0001
1000
0010
0100
0001
0100
0010
1000
0100
1000
0010
0100
0001
1000
0010
1000
,
0100
0010
0001
0100
0010
1000
0001
1000
0100
0010
0001
0100
0001
1000
0010
0100
,
0001
1000
0001
0010
0100
1000
0010
1000
0001
0100
0010
0100
0001
1000
0010
1000
,
0001
0000
0000
0010
0000
0000
0001
0000
0000
0100
0000
0000
0010
0000
0000
1000
0000
0000
0001
0000
0000
1000
0000
0000
0100
0000
0000
1000
0000
0000
0010
0000
0000
0100
0000
0000
0001
0000
0000
0000
0000
0000
1000
0000
0001
0000
1000
0000
,
0001
0010
0100
1000
0001
1000
0100
0010
0001
1000
0100
0010
0001
1000
0100
1000
,
0010
0100
0001
0010
0100
1000
0001
1000
0010
0100
0001
0010
0001
1000
0100
0010
,
0001
1000
0001
0100
0010
1000
0100
1000
0001
0010
0100
0010
0001
1000
0100
1000
,
0001
0000
0000
0100
0000
0000
0001
0000
0000
0010
0000
0000
0100
0000
0000
1000
0000
0000
0001
0000
0000
1000
0000
0000
0010
0000
0000
1000
0000
0000
0100
0000
0000
0010
0000
0000
0001
0000
0000
0000
0000
0000
1000
0000
0001
0000
1000
0000
,
0001
0010
0100
0010
0001
0010
0100
1000
0010
1000
0100
0010
0001
1000
0100
1000
,
0010
0100
0001
0010
0100
1000
0001
1000
0010
0100
0001
0010
0001
1000
0100
0010
,
0001
1000
0001
0010
0001
1000
0010
0100
0010
1000
0010
0100
0001
0010
0100
0010
,
0001
0010
0100
1000
0001
0010
0001
1000
0010
1000
0100
0010
0001
1000
0001
0010
,
0200
0300
0000
0000
,
0000
0000
0000
0040
,
0130
1000
0001
0000
0010
0001
0010
0000
0001
1000
0001
0000
1000
0010
1000
0001
,
0100
0010
1000
0000
0001
0010
0100
0000
1000
0001
1000
0000
0001
0100
0010
1000
,
0001
1000
0010
0000
0100
0001
1000
0000
0001
0010
0001
0000
1000
0100
0010
0001
,
1000
0000
0000
0000
0000
0000
0000
0000
0000
0000
0000
0000
0010
0000
0000
0000
0000
0000
0000
0000
0000
0000
0000
0000
0200
0000
0000
0000
0000
0000
0300
0000
0000
0000
0000
0000
0000
0000
0000
0000
0000
0000
0000
0000
0000
0000
0000
0000
0200
0000
0000
0000
0000
0000
0000
0000
0000
0000
0000
0000
0000
0000
0000
0000
0000
0000
0000
0000
0000
0000
0000
0000
0301
0000
0000
0000
0000
0000
0000
0000
0000
0000
0000
0000
0000
0000
0000
0000
0000
0000
0000
0000
0000
0000
0000
0000
0200
0000
0000
0000
0000
0000
0300
0000
0000
0000
0000
0000
0000
0000
0000
0000
0000
0000
0000
0000
0000
0000
0000
0000
0200
0000
0000
0000
0000
0000
0000
0000
0000
0000
0000
0000
0310
0000
0000
0000
0000
0000
0000
0000
0000
0000
0000
0000
1000
0000
0000
0000
0000
0000
0000
0000
0000
0000
0000
0000
0000
0000
0000
0000
0000
0000
0000
0000
0000
0000
0000
0000
0001
0000
0000
0000
0000
0000
0000
0000
1000
0000
0000
0000
0000
0000
0000
0000
0001
0000
0000
0000
0000
0000
0000
0000
,
1000
0000
0010
0000
0100
0010
1000
0000
0100
0010
0001
0000
1000
0100
1000
0001
,
0100
0010
1000
0000
0001
1000
0010
0000
0100
0001
0100
0000
0010
1000
0001
1000
,
0100
0010
0001
0000
1000
0100
1000
0000
0001
1000
0010
0000
0100
0001
1000
0100
,
0010
0000
0000
0001
0000
0000
1000
0000
0000
0000
0000
0000
0010
0000
0000
1000
0000
0000
0001
0000
0000
0000
0000
0000
0010
0000
0000
0000
0000
0000
0010
0000
0000
0100
0000
0000
1000
0000
0000
0000
0000
0000
0001
0000
1000
0000
0001
0000
,
1000
0000
0100
0000
0010
0100
1000
0000
0010
0100
0001
0000
1000
0010
1000
0001
,
0010
0100
1000
0000
0001
1000
0100
0000
0010
0001
0010
0000
0100
1000
0001
1000
,
0010
0100
0001
0000
1000
0010
1000
0000
0001
1000
0100
0000
0010
0001
1000
0010
,
0100
0000
0000
0001
0000
0000
1000
0000
0000
0000
0000
0000
0100
0000
0000
1000
0000
0000
0001
0000
0000
0000
0000
0000
0100
0000
0000
0000
0000
0000
0100
0000
0000
0010
0000
0000
1000
0000
0000
0000
0000
0000
0001
0000
1000
0000
0001
0000
,
1000
0000
0001
0000
0010
0100
1000
0000
0010
0100
0001
0000
1000
0001
0100
0010
,
1000
0001
1000
0000
0001
0010
0100
0000
1000
0001
1000
0000
0001
0100
0001
1000
,
0100
0010
0100
0010
0100
1000
0010
1000
0010
1000
0010
0100
0001
1000
0001
1000
,
0001
0000
0000
0010
0000
0000
0100
0000
0000
1000
0000
0000
0100
0000
0000
1000
0000
0000
0100
0000
0000
0010
0000
0000
0001
0000
0000
1000
0000
0000
0010
0000
0000
0100
0000
0000
0001
0000
0000
0000
0000
0000
1000
0000
0001
0000
1000
0000
,
0001
0000
1000
0000
0100
0010
0001
0000
1000
0001
1000
0000
0001
0100
0001
1000
,
0010
0100
0001
0000
1000
0100
0010
0000
0001
1000
0001
0000
1000
0010
0100
0001
,
1000
0001
0100
0000
0010
1000
0001
0000
1000
0100
1000
0000
0001
0010
0100
1000
,
0001
0000
0000
0100
0000
0000
0010
0000
0000
0000
0000
0000
1000
0000
0000
0001
0000
0000
0010
0000
0000
0000
0000
0000
0100
0000
0000
0000
0000
0000
0100
0000
0000
1000
0000
0000
0001
0000
0000
0000
0000
0000
1000
0000
0001
0000
1000
0000
,
0001
0000
1000
0000
0010
0100
0001
0000
0010
0100
1000
0000
0001
0010
0001
1000
,
0010
0100
0001
0000
1000
0001
0100
0000
0010
1000
0010
0000
0100
0001
1000
0001
,
0010
0100
1000
0000
0001
0010
0001
0000
1000
0001
0100
0000
0010
1000
0001
0010
,
0100
0000
0000
1000
0000
0000
0001
0000
0000
0000
0000
0000
0100
0000
0000
0001
0000
0000
1000
0000
0000
0000
0000
0000
0100
0000
0000
0000
0000
0000
0100
0000
0000
0010
0000
0000
0001
0000
0000
0000
0000
0000
1000
0000
0001
0000
1000
0000
,
0001
0000
0010
0000
0100
0010
0001
0000
0100
0010
1000
0000
0001
0100
0001
1000
,
0100
0010
0001
0000
1000
0001
0010
0000
0100
1000
0100
0000
0010
0001
1000
0001
,
0100
0010
1000
0000
0001
0100
0001
0000
1000
0001
0010
0000
0100
1000
0001
0100
,
0010
0000
0000
1000
0000
0000
0001
0000
0000
0000
0000
0000
0010
0000
0000
0001
0000
0000
1000
0000
0000
0000
0000
0000
0010
0000
0000
0000
0000
0000
0010
0000
0000
0100
0000
0000
0001
0000
0000
0000
0000
0000
1000
0000
0001
0000
1000
0000
,
0001
0000
1000
0000
0100
0010
0001
0000
0100
0010
1000
0000
0001
1000
0010
0100
,
0001
1000
0001
0000
1000
0100
0010
0000
0001
1000
0001
0000
1000
0010
1000
0001
,
0010
0100
0010
0100
0010
0001
0100
0001
0100
0001
0100
0010
1000
0001
1000
0001
,
1000
0000
0000
0100
0000
0000
0010
0000
0000
0001
0000
0000
0010
0000
0000
0001
0000
0000
0010
0000
0000
0100
0000
0000
1000
0000
0000
0001
0000
0000
0100
0000
0000
0010
0000
0000
1000
0000
0000
0000
0000
0000
0001
0000
1000
0000
0001
0000
,
1000
0000
0200
0300
0000
0000
0000
0000
1000
0000
0010
0000
0100
0000
0001
0000
,
2000
0000
0000
0000
0000
0000
0000
3020
,
0000
0230
0000
0302
0000
2003
0000
3200
,
0000
0320
0000
0032
0000
2003
0000
0002
,
0000
0000
0000
3000
,
0000
0000
0000
0000
0000
0000
0000
0000
0M03
0000
0000
000M
0000
0000
M000
0000
,
0000
00M0
0000
0000
0M00
0000
0000
0M00
0000
0000
0000
0000
0000
000M
0000
0000
,
00M0
0000
0000
0M00
0000
0000
0000
0000
0000
M000
0000
0000
000M
0000
0000
00M0
,
0000
0000
00M0
0000
0000
000M
0000
0000
000M
0000
0000
0000
0000
0000
0000
0000
,
0000
0000
0000
0000
,
0000
0000
0000
0000
0100
0010
1000
0001
,
2001
0000
0001
0000
0001
0000
3001
0020
,
0001
0000
0001
0000
0031
1000
0100
0010
,
0002
0000
1000
0000
1000
0000
1003
0020
,
1000
0032
2003
0000
0001
0000
0001
0000
,
3001
0010
0100
1000
0010
0100
0010
1000
,
0100
0010
0001
0010
0100
1000
0010
1000
,
0001
0100
0010
1000
0100
0010
0001
0010
,
0100
0000
0000
0000
0000
0000
0000
0000
0000
0000
0000
0000
1000
0000
0000
0000
0000
0000
0100
0000
0000
0000
0000
0000
0010
0000
0000
0000
0000
0000
0100
0000
0000
1000
0000
0000
0010
0000
0000
0000
0000
0000
0100
0000
0001
0000
0100
0000
,
0002
0000
1000
0000
1000
0000
1003
0200
,
1000
0000
1000
0000
1300
0001
0010
0100
,
2000
0000
0001
0000
0001
0000
3001
0200
,
0001
0000
0000
0000
0000
0000
2300
0000
0000
0000
0000
0000
3002
0000
0000
0000
0000
0000
0000
0000
0000
0000
0000
0000
1000
0000
0000
0000
0000
0000
1003
0000
0000
0010
0000
0000
0100
0000
0000
0000
0000
0000
0001
0000
0010
0000
0001
0000
,
0010
0100
0010
0001
0100
0010
0100
0001
,
0010
0100
1000
0100
0010
0001
0100
0001
,
1000
0010
0100
0001
0010
0100
1000
0100
,
0010
0000
0000
0000
0000
0000
0000
0000
0000
0000
0000
0000
0001
0000
0000
0000
0000
0000
0010
0000
0000
0000
0000
0000
0100
0000
0000
0000
0000
0000
0010
0000
0000
0001
0000
0000
0100
0000
0000
0000
0000
0000
0010
0000
1000
0000
0010
0000
,
2000
0000
0001
0000
0001
0000
3001
0020
,
0100
0000
0000
0000
0100
0000
0000
0000
0130
0000
1000
0001
0100
0000
0010
0000
,
1000
0010
1000
0001
0100
0010
1000
0010
0100
0001
1000
0001
0010
0100
1000
0001
,
0010
0000
0000
0001
0000
0000
1000
0000
0000
0010
0000
0000
0100
0000
0000
0001
0000
0000
1000
0000
0000
0001
0000
0000
1000
0000
0000
0100
0000
0000
1000
0000
0000
0100
0000
0000
0040
0000
0004
0000
0000
0000
0000
0000
0030
0000
0003
0000
,
1000
0001
0100
0001
1000
0001
0100
0001
1000
0010
1000
0100
0010
0001
0100
0010
,
1000
0010
0100
0001
1000
0100
0010
0001
1000
0010
1000
0001
0010
0100
1000
0001
,
0010
0001
1000
0100
1000
0001
1000
0010
0100
0001
1000
0010
1000
0001
0010
0100
,
0010
0001
1000
0100
1000
0001
0010
0001
1000
0010
0100
0010
1000
0001
0010
0100
,
1000
0001
0100
0001
1000
0001
0010
0001
0100
0010
1000
0010
0100
0001
1000
0100
,
1000
0001
1000
0100
1000
0001
1000
0100
0010
0001
1000
0100
1000
0010
0100
0001
,
0010
0001
1000
0001
0010
0001
1000
0001
0010
0100
1000
0100
0010
0001
1000
0010
,
1000
0001
1000
0010
1000
0001
1000
0010
0100
0001
1000
0100
1000
0010
0100
0001
,
1000
0001
0010
0001
1000
0001
0010
0001
1000
0100
1000
0010
0100
0001
0010
0100
,
1000
0100
0010
0001
1000
0010
0100
0001
1000
0100
1000
0001
0100
0010
1000
0001
,
0100
0001
1000
0010
1000
0001
1000
0100
0010
0001
1000
0100
1000
0001
0100
0010
,
0100
0001
1000
0010
1000
0001
0100
0001
1000
0100
0010
0100
1000
0010
0100
0010
,
1000
0001
0100
0001
1000
0001
0100
0001
0010
0100
1000
0100
0010
0001
1000
0010
,
1000
0001
1000
0010
1000
0001
1000
0010
0100
0001
1000
0010
1000
0100
0010
0001
,
0100
0001
1000
0001
0100
0001
1000
0001
0100
0010
1000
0010
0100
0001
1000
0100
,
1000
0001
1000
0100
1000
0001
1000
0100
0010
0001
1000
0010
1000
0001
0010
0100
,
1000
0001
0100
0001
1000
0001
0100
0001
1000
0010
0100
0001
0010
0001
0100
0010
,
1000
0010
0100
0001
1000
0100
1000
0001
0100
0010
1000
0001
0010
0001
1000
0100
,
0010
0001
1000
0100
1000
0001
0100
0010
1000
0001
0100
0010
0100
0001
1000
0100
,
0010
0001
1000
0100
1000
0001
0010
0001
1000
0010
0100
0001
0010
0100
1000
0001
,
0100
0001
1000
0001
0100
0001
1000
0001
0100
0010
1000
0001
0010
0100
0010
0001
,
1000
0100
0010
0100
1000
0100
0010
0001
0100
0001
1000
0100
1000
0010
1000
0001
,
0100
0001
1000
0001
0100
0001
1000
0001
0010
0100
0010
0001
1000
0010
0100
0010
,
1000
0010
0100
0010
1000
0001
1000
0010
0100
0001
1000
0100
0010
0001
0100
0010
,
1000
0001
0010
0001
1000
0001
0010
0001
1000
0100
0010
0001
0100
0001
0010
0100
,
1000
0100
0010
0001
1000
0010
1000
0001
0010
0100
1000
0001
0100
0001
1000
0010
,
0100
0001
1000
0010
1000
0001
0010
0100
1000
0001
0010
0100
0010
0001
1000
0010
,
0100
0001
1000
0010
1000
0001
0100
0001
1000
0100
0010
0001
0100
0001
0010
0100
,
1000
0001
0100
0001
1000
0001
0100
0001
1000
0100
0010
0001
0100
0010
0100
0001
,
1000
0010
0100
0010
1000
0010
0100
0001
0010
0001
1000
0010
1000
0100
1000
0001
,
0010
0001
1000
0001
0010
0001
1000
0100
0010
0100
1000
0100
0010
0001
1000
0001
,
0010
0100
0010
0001
1000
0010
0100
0001
0100
0010
1000
0001
0010
0100
1000
0001
,
1000
0010
0000
1000
0001
1000
0100
0010
0001
0000
1000
0001
0000
0010
0100
1000
,
0001
0100
0000
0001
1000
0010
0100
0001
1000
0000
0001
0010
0000
0001
1000
0001
,
0100
0010
0000
1000
0010
0100
0001
1000
0100
0000
0010
0100
0000
1000
0100
0010
,
0001
0100
0000
0001
0100
0010
1000
0001
0100
0000
0001
1000
0000
0001
1000
0100
,
0010
0001
0000
0010
0100
1000
0001
0100
0010
0000
1000
0010
0000
0100
0001
1000
,
0001
0010
0000
0100
1000
0100
0010
0001
1000
0000
0001
0100
0000
0001
1000
0010
,
0100
0001
0000
1000
0001
0100
0010
1000
0001
0000
1000
0100
0000
0010
0100
1000
,
0010
0000
0000
0100
0000
0000
0000
0000
0000
0001
0000
0000
0100
0000
0000
0010
0000
0000
1000
0000
0000
0001
0000
0000
1000
0000
0000
0000
0000
0000
0001
0000
0000
0010
0000
0000
0001
0000
0000
0000
0000
0000
1000
0000
0001
0000
1000
0000
,
0001
0100
0000
0001
1000
0001
0010
0100
1000
0000
0001
1000
0000
0100
0010
0001
,
1000
0010
0000
1000
0001
0100
0010
1000
0001
0000
1000
0100
0000
1000
0001
1000
,
0010
0100
0000
0001
0100
0010
1000
0001
0010
0000
0100
0010
0000
0001
0010
0100
,
1000
0010
0000
1000
0010
0100
0001
1000
0010
0000
1000
0001
0000
1000
0001
0010
,
0100
1000
0000
0100
0010
0001
1000
0010
0100
0000
0001
0100
0000
0010
1000
0001
,
1000
0100
0000
0010
0001
0010
0100
1000
0001
0000
1000
0010
0000
1000
0001
0100
,
0010
1000
0000
0001
1000
0010
0100
0001
1000
0000
0001
0010
0000
0100
0010
0001
,
0100
0010
1000
0001
1000
0010
0100
0001
1000
0004
0003
1000
0004
0003
1000
0004
,
0013
0100
0000
1000
0001
1000
0100
0010
0001
0000
1000
0001
0000
0010
0100
1000
,
0001
0100
0000
0001
1000
0010
0100
0001
1000
0000
0001
0010
0000
0001
1000
0001
,
0100
0010
0000
1000
0010
0100
0001
1000
0100
0000
0010
0100
0000
1000
0100
0010
,
0001
0100
0000
0001
0100
0010
1000
0001
0100
0000
0001
1000
0000
0001
1000
0100
,
0010
0001
0000
0010
0100
1000
0001
0100
0010
0000
1000
0010
0000
0100
0001
1000
,
0001
0010
0000
0100
1000
0100
0010
0001
1000
0000
0001
0100
0000
0001
1000
0010
,
0100
0001
0000
1000
0001
0100
0010
1000
0001
0000
1000
0100
0000
0010
0100
1000
,
0010
0000
0000
0100
0000
0000
0000
0000
0000
0001
0000
0000
0100
0000
0000
0010
0000
0000
1000
0000
0000
0001
0000
0000
1000
0000
0000
0000
0000
0000
0001
0000
0000
0010
0000
0000
0001
0000
0000
0000
0000
0000
1000
0000
0001
0000
1000
0000
,
0001
0100
0000
0001
1000
0001
0010
0100
1000
0000
0001
1000
0000
0100
0010
0001
,
1000
0010
0000
1000
0001
0100
0010
1000
0001
0000
1000
0100
0000
1000
0001
1000
,
0010
0100
0000
0001
0100
0010
1000
0001
0010
0000
0100
0010
0000
0001
0010
0100
,
1000
0010
0000
1000
0010
0100
0001
1000
0010
0000
1000
0001
0000
1000
0001
0010
,
0100
1000
0000
0100
0010
0001
1000
0010
0100
0000
0001
0100
0000
0010
1000
0001
,
1000
0100
0000
0010
0001
0010
0100
1000
0001
0000
1000
0010
0000
1000
0001
0100
,
0010
1000
0000
0001
1000
0010
0100
0001
1000
0000
0001
0010
0000
0100
0010
0001
,
0100
0001
1000
0001
0100
0010
1000
0001
0010
0100
1000
0100
0010
0001
1000
0001
,
2000
000M
0000
00M0
,
0000
0M00
0000
00M0
,
0000
000M
0000
00M0
,
0000
0M00
0000
00M0
,
3000
0000
0000
0000
;
