#TITLE:Meridian Dance;
#SUBTITLE:Secret of Mana (1993);
#ARTIST:Hiroki Kikuta;
#TITLETRANSLIT:;
#SUBTITLETRANSLIT:;
#ARTISTTRANSLIT:;
#CREDIT:;
#BANNER:meridiandance-banner.PNG;
#BACKGROUND:meridiandance-bg.png;
#LYRICSPATH:;
#CDTITLE:!kil.png;
#MUSIC:SoM-meridiandance.mp3;
#OFFSET:-0.100;
#SAMPLESTART:45.918;
#SAMPLELENGTH:14.320;
#SELECTABLE:YES;
#BPMS:0.000=168.380,32.000=167.640,56.000=167.360,64.000=167.040,84.000=166.800,94.000=167.880,96.000=167.280,120.000=167.840,136.000=168.080,148.000=168.200,152.000=169.040,153.000=168.620,161.000=168.420,168.000=168.220,184.000=167.780,249.000=167.460;
#STOPS:16.000=0.003
,17.000=0.002
,19.000=0.003
,20.000=0.003
,21.000=0.002
,21.500=0.001
,22.000=0.002
,23.000=0.002
,25.000=0.005
,25.500=0.003
,26.000=0.001
,26.500=0.001
,27.000=0.001
,27.333=0.001
,28.000=0.001
,28.333=0.001
,28.667=0.015
,48.000=0.001
,52.000=0.001
,56.000=0.001
,58.000=0.001
,60.000=0.001
,62.000=0.001
,64.000=0.002
,94.000=0.001
,96.000=0.006
,100.000=0.003
,102.000=0.001
,172.000=0.001
,173.500=0.001
,174.000=0.001
,174.500=0.001
,178.500=0.003
,180.000=0.001
,181.500=0.002
,182.500=0.003
,183.500=0.002
,184.000=0.004
,200.000=0.001
,204.000=0.001
,206.500=0.002
,208.000=0.001
,210.500=0.001
,212.000=0.001
,216.500=0.016
;
#BGCHANGES:;
// cache tags:
#FIRSTBEAT:0.000;
#LASTBEAT:317.667;
#SONGFILENAME:Songs/Keys of Flames/Meridian Dance (Kil)/meridiandance.sm;
#HASMUSIC:1;
#HASBANNER:1;
#MUSICLENGTH:118.401;
// end cache tags

//---------------dance-single - ----------------
#NOTES:
     dance-single:
     :
     Hard:
     13:
     1.000,1.000,1.000,0.718,1.000,783.000,230.000,85.000,0.000,19.000:


0001
0010
1000
0100
1000
0010
0100
0010
0001
0010
1000
0100
1000
0010
0100
0010
,
0001
0010
1000
0100
1000
0010
0100
0010
0001
0010
1000
0100
1000
0010
0100
0010
,
0001
0100
0010
1000
0100
1000
0010
0100
0001
0100
0010
1000
0100
1000
0010
0100
,
0001
0100
0010
1000
0100
1000
0010
0100
0001
0100
0010
1000
0100
1000
0010
0100
,
1001
1001
1001
0000
0110
0000
0010
1000
0100
0010
1000
0100
0011
0011
0011
0000
,
0110
0000
0001
1000
0010
0100
0001
0010
1100
1100
1100
0000
0110
0000
0001
0010
,
0100
0000
0000
1000
0000
0000
0001
0000
0000
0010
0000
0000
2002
0000
0000
0000
0000
0000
3003
0000
0000
0000
0000
0000
2002
0000
0000
0000
0000
0000
3003
0000
0000
0000
0000
0000
0011
0000
0000
0000
1100
0000
0000
0000
0011
0000
0000
0000
,
1100
0000
0011
0000
1100
0000
0000
0000
0000
0000
0000
0000
0000
0000
0000
0000
0000
0000
0110
0000
0000
1000
0100
0010
,
1001
0000
0001
0000
1000
0100
0010
0000
0001
0000
0100
0000
0010
1000
0100
0000
,
1000
0000
0001
0000
0011
1000
0100
0000
0011
0000
1010
0000
0101
1000
0010
0100
,
1001
0000
0100
0000
0001
0100
0011
1000
0010
0000
0100
0000
1000
0010
0001
0000
,
1000
0000
0001
0000
0010
1000
0100
0000
1001
0000
0100
0000
0110
1000
0010
0100
,
1001
0000
0001
0000
1000
0100
0010
0000
0001
0000
0100
0000
0010
1000
0100
0000
,
1000
0000
0001
0000
0110
1000
0100
0000
1001
0000
0110
0000
1010
0001
0100
0010
,
1001
0000
0100
0000
0001
0100
1001
0100
1000
0000
0100
0000
1000
0010
0001
0000
,
1000
0000
0001
0000
0010
1000
0100
0000
0010
0000
0011
0000
0000
0011
0000
0011
,
1100
0000
0001
0000
1001
0100
0010
0000
0001
0000
0100
0000
0011
1000
0001
0000
,
1100
0000
0001
0000
0011
1000
0100
0000
0010
0000
1000
0000
0011
1000
0010
0100
,
1001
0000
0100
0000
0011
0100
0001
1000
0010
0000
0100
0000
1001
0010
0001
0000
,
1100
0000
0001
0000
0011
1000
0100
0000
0010
0000
1000
0000
0011
1000
0001
0100
,
1001
0000
0100
0000
0011
1000
0100
0000
0001
0000
0100
0000
0011
0100
1000
0000
,
1100
0000
0001
0000
0011
1000
0100
0000
1001
0000
0110
0000
1010
0001
0100
0010
,
1001
0000
0100
0000
0011
0100
1000
0100
1000
0000
0100
0000
1001
0100
0010
0000
,
1100
0000
0000
0000
0011
0000
0000
0000
0010
0000
1000
0000
0101
0000
0000
0000
1100
0000
0011
0000
0011
0000
0000
0000
0011
0000
0000
0000
1000
0100
0010
0001
,
1000
0000
1000
0110
0000
1010
0111
1100
,
1011
0000
1100
0100
0010
0010
0111
0000
,
1011
0000
1000
0101
0000
0100
1011
0101
,
1001
0000
1100
0010
0100
0001
0011
1000
,
0110
0100
1000
0000
0010
0000
1001
1000
0100
0000
0001
0000
0110
0100
1000
0000
,
0010
0000
1001
1000
0100
0000
0001
1000
0110
0001
0010
0100
1000
0001
0010
0100
,
1000
0100
0010
0001
1100
0001
0010
0000
1000
0001
0010
0100
1001
0000
0000
0001
,
1010
0100
0001
0000
1000
0001
0010
0100
1001
0000
0001
0010
1101
0010
0100
0010
,
1100
0010
0001
0100
1001
0100
0010
0000
1000
0001
0010
0100
1001
0000
0000
0001
,
1010
0100
0001
0000
1000
0001
0010
0100
1000
0100
0011
1100
1100
1100
1100
0000
,
1010
0101
0010
1001
0110
1000
0100
0000
1000
0011
1100
0010
1001
0000
0000
0011
,
1100
0010
1100
0000
1000
0110
1001
0010
1100
0000
1001
0110
1011
0100
0010
0100
,
1010
0101
0010
1001
0110
1000
0100
0000
1000
0011
1100
0010
1001
0000
0000
0011
,
1100
0010
1100
0000
0011
1100
0101
1010
0100
1000
0011
1100
1100
1100
1100
0000
,
1000
0000
0000
0000
0000
0000
0000
0000
0100
0000
0000
0000
0000
0000
0000
0000
0010
0000
0000
0000
0000
0000
0000
0000
0001
0000
0000
0000
0000
0000
0000
0000
0100
0000
0000
0000
0000
0000
0000
0000
0010
0000
0000
0000
0000
0000
0000
0000
1002
0000
0000
0003
0000
0000
0000
0000
0000
0000
0000
0000
0000
0000
0000
0000
0000
0000
0000
0000
0000
0000
0000
0000
1000
0000
0000
0000
0000
0000
0000
0000
0000
0000
0000
0000
0000
0000
0000
0000
0000
0000
0000
0000
0000
0000
0000
0000
0210
0000
0000
0300
0000
0000
0000
0000
0000
0000
0000
0000
0000
0000
0000
0000
0000
0000
0000
0000
0000
0000
0000
0000
0021
0000
0000
0030
0000
0000
0000
0000
0000
0000
0000
0000
0000
0000
0000
0000
0000
0000
0000
0000
0000
0000
0000
0000
0001
0000
0000
0000
0000
0000
0000
0000
0000
0000
0000
0000
0000
0000
0000
0000
0000
0000
0000
0000
0000
0000
0000
0000
1002
0000
0000
0003
0000
0000
0000
0000
0000
0000
0000
0000
0000
0000
0000
0000
0000
0000
0000
0000
0000
0000
0000
0000
,
0210
0300
0000
0000
0000
0000
0000
0000
0010
0000
0000
0000
0000
0000
0000
0000
1000
0000
0000
0000
0000
0000
0000
0000
1000
0000
0000
0000
0000
0000
0000
0000
0102
0003
0000
0000
0000
0000
0000
0000
0010
0000
0000
0000
0000
0000
0000
0000
2100
3000
0000
0000
0000
0000
0000
0000
0010
0000
0000
0000
0000
0000
0000
0000
,
0210
0300
0000
0000
0000
0000
0000
0000
0001
0000
0000
0000
0000
0000
0000
0000
1002
0003
0000
0000
0000
0000
0000
0000
1000
0000
0000
0000
0000
0000
0000
0000
0210
0300
0000
0000
0000
0000
0000
0000
0012
0003
0000
0000
0000
0000
0000
0000
0001
0000
0000
0000
0000
0000
0000
0000
1000
0000
0000
0000
0000
0000
0000
0000
,
0100
0010
1000
1000
0100
0010
1000
0010
,
2100
3000
0000
0000
0000
0000
0000
0000
0201
0300
0000
0000
0000
0000
0000
0000
1020
0030
0000
0000
0000
0000
0000
0000
1000
0000
0000
0000
0000
0000
0000
0000
0100
0000
0000
0000
0000
0000
0000
0000
0210
0300
0000
0000
0000
0000
0000
0000
0000
0000
0000
0000
0000
0000
0000
0000
0001
0000
0000
0000
0000
0000
0000
0000
,
0120
0030
0000
0000
0000
0000
0000
0000
1000
0000
0000
0000
0000
0000
0000
0000
2100
3000
0000
0000
0000
0000
0000
0000
0100
0000
0000
0000
0000
0000
0000
0000
0021
0030
0000
0000
0000
0000
0000
0000
0201
0300
0000
0000
0000
0000
0000
0000
0000
0000
0000
0000
0000
0000
0000
0000
2010
3000
0000
0000
0000
0000
0000
0000
,
0201
0300
0000
0000
0000
0000
0000
0000
0100
0000
0000
0000
0000
0000
0000
0000
2010
3000
0000
0000
0000
0000
0000
0000
0001
0000
0000
0000
0000
0000
0000
0000
1200
0300
0000
0000
0000
0000
0000
0000
0021
0030
0000
0000
0000
0000
0000
0000
0000
0000
0000
0000
0000
0000
0000
0000
2001
3000
0000
0000
0000
0000
0000
0000
,
0210
0300
0000
0000
0000
0000
0000
0000
1000
0000
0000
0000
0000
0000
0000
0000
0100
0000
0000
0000
0000
0000
0000
0000
0100
0000
0000
0000
0000
0000
0000
0000
0000
0000
0000
0000
0000
0000
0000
0000
1000
0000
0000
0000
0000
0000
0000
0000
0000
0000
0000
0000
0000
0000
0000
0000
0001
0000
0000
0000
0000
0000
0000
0000
,
0100
0000
0000
0000
0000
0000
0000
0000
0010
0000
0000
0000
0000
0000
0000
0000
1002
0003
0000
0000
0000
0000
0000
0000
1000
0000
0000
0000
0000
0000
0000
0000
0211
0300
0000
0000
0000
0000
0000
0000
0021
0030
0000
0000
0000
0000
0000
0000
0001
0000
0000
0000
0000
0000
0000
0000
1002
0003
0000
0000
0000
0000
0000
0000
,
0211
0300
0000
0000
0000
0000
0000
0000
0010
0000
0000
0000
0000
0000
0000
0000
1000
0000
0000
0000
0000
0000
0000
0000
1000
0000
0000
0000
0000
0000
0000
0000
0112
0003
0000
0000
0000
0000
0000
0000
0010
0000
0000
0000
0000
0000
0000
0000
2100
3000
0000
0000
0000
0000
0000
0000
0010
0000
0000
0000
0000
0000
0000
0000
,
0211
0300
0000
0000
0000
0000
0000
0000
0001
0000
0000
0000
0000
0000
0000
0000
1002
0003
0000
0000
0000
0000
0000
0000
1000
0000
0000
0000
0000
0000
0000
0000
0211
0300
0000
0000
0000
0000
0000
0000
0012
0003
0000
0000
0000
0000
0000
0000
0001
0000
0000
0000
0000
0000
0000
0000
1000
0000
0000
0000
0000
0000
0000
0000
,
0101
0010
1000
1000
0101
0010
1000
0010
,
2101
3000
0000
0000
0000
0000
0000
0000
0201
0300
0000
0000
0000
0000
0000
0000
1020
0030
0000
0000
0000
0000
0000
0000
1000
0000
0000
0000
0000
0000
0000
0000
0101
0000
0000
0000
0000
0000
0000
0000
0210
0300
0000
0000
0000
0000
0000
0000
0000
0000
0000
0000
0000
0000
0000
0000
0001
0000
0000
0000
0000
0000
0000
0000
,
0121
0030
0000
0000
0000
0000
0000
0000
1000
0000
0000
0000
0000
0000
0000
0000
2100
3000
0000
0000
0000
0000
0000
0000
0100
0000
0000
0000
0000
0000
0000
0000
1021
0030
0000
0000
0000
0000
0000
0000
0201
0300
0000
0000
0000
0000
0000
0000
0000
0000
0000
0000
0000
0000
0000
0000
2010
3000
0000
0000
0000
0000
0000
0000
,
0211
0300
0000
0000
0000
0000
0000
0000
0100
0000
0000
0000
0000
0000
0000
0000
2010
3000
0000
0000
0000
0000
0000
0000
0001
0000
0000
0000
0000
0000
0000
0000
1201
0300
0000
0000
0000
0000
0000
0000
0021
0030
0000
0000
0000
0000
0000
0000
0000
0000
0000
0000
0000
0000
0000
0000
2001
3000
0000
0000
0000
0000
0000
0000
,
0211
0300
0000
0000
0000
0000
0000
0000
1000
0000
0000
0000
0000
0000
0000
0000
0100
0000
0000
0000
0000
0000
0000
0000
0100
0000
0000
0000
0000
0000
0000
0000
0011
0000
0000
0000
0000
0000
0000
0000
1000
0000
0000
0000
0000
0000
0000
0000
0000
0000
0000
0000
0000
0000
0000
0000
0001
0000
0000
0000
0000
0000
0000
0000
,
0101
0000
0000
0010
0000
0000
0100
0000
0001
0000
0100
0000
0010
0000
1000
0000
0100
0000
0010
0000
0001
0000
0100
0000
,
0010
1000
0100
1000
0001
0100
0010
1000
0100
0010
0001
0100
,
0010
0000
1000
0000
0100
0000
0010
0000
0000
0000
0000
0000
0010
0000
0000
1000
0000
0000
0000
0000
0000
1000
0000
0000
,
0101
0000
0000
0000
0010
0000
0010
0000
0000
0000
1000
0000
0000
0000
1000
0100
,
0011
0000
0000
0010
0001
0100
0010
1000
0100
0010
0001
0100
,
0010
1000
0100
1000
0001
0100
0010
1000
0100
0010
0001
0100
,
0010
0000
1000
0000
0100
0000
0001
0000
0000
0000
0000
0000
0001
0000
0000
0100
0000
0000
0000
0000
0000
0100
0000
0000
,
1001
0000
0000
0000
1000
0000
0010
0000
0000
0000
0100
0000
0001
0000
1000
0100
,
0011
1000
0010
1000
0102
0000
0000
0003
0010
0000
0200
0000
0000
0300
0010
0000
,
2000
0000
0100
0010
0002
0000
0000
0000
0000
0000
0000
0000
0000
0000
0000
0000
,
0000
3003
0000
0000
1012
0000
0000
0003
0010
0000
0200
0000
0000
0300
0010
0000
,
0200
0000
1000
0010
0002
0000
0000
0000
0000
0000
0000
0000
0000
0000
0000
0000
,
0000
0000
0000
0000
0000
0000
0000
0000
0000
0000
0000
0000
0303
0000
0000
0000
0000
0000
0000
0000
0000
0000
0000
0000
0000
0000
0000
0000
0000
0000
0000
0000
0000
0000
0000
0000
0000
0000
0000
0000
0000
0000
0000
0000
0000
0000
0000
0000
0020
0000
0000
0000
0000
0000
0000
0000
0000
0000
0000
0000
0000
0000
0000
0000
0000
0000
0000
0000
0000
0000
0000
0000
0000
0000
0000
0000
0000
0000
0000
0000
0000
0000
0000
0000
0130
0000
0000
0000
0000
0000
0000
0000
0000
0000
0000
0000
0000
0000
0000
0000
0000
0000
0000
0000
0000
0000
0000
0000
0000
0000
0000
0000
0000
0000
0000
0000
0000
0000
0000
0000
1200
0000
0000
0300
0000
0000
0000
0000
0000
0000
0000
0000
0020
0000
0000
0030
0000
0000
0000
0000
0000
0000
0000
0000
1002
0000
0000
0003
0000
0000
0000
0000
0000
0000
0000
0000
0000
0000
0000
0000
0000
0000
0000
0000
0000
0000
0000
0000
0000
0000
0000
0000
0000
0000
0000
0000
0100
0000
0000
0000
0000
0000
0000
0000
0000
0000
0000
0000
0000
0000
0000
0000
,
0000
0000
0000
0000
0000
0000
0000
0000
0000
0000
0000
0000
0000
0000
0000
0000
0010
0000
0000
0000
0000
0000
0000
0000
0000
0000
0000
0000
0000
0000
0000
0000
0000
0000
0000
0000
0000
0000
0000
0000
0000
0000
0000
0000
0000
0000
0000
0000
0102
0000
0000
0003
0000
0000
0000
0000
0000
0000
0000
0000
0000
0000
0000
0000
0000
0000
0000
0000
0000
0000
0000
0000
0000
0000
0000
0000
0000
0000
0000
0000
0000
0000
0000
0000
0000
0000
0000
0000
0000
0000
0000
0000
0000
0000
0000
0000
1000
0000
0000
0000
0000
0000
0000
0000
0000
0000
0000
0000
0000
0000
0000
0000
0000
0000
0000
0000
0000
0000
0000
0000
0021
0000
0000
0030
0000
0000
0000
0000
0000
0000
0000
0000
0200
0000
0000
0300
0000
0000
0000
0000
0000
0000
0000
0000
0020
0000
0000
0030
0000
0000
0000
0000
0000
0000
0000
0000
0000
0000
0000
0000
0000
0000
0000
0000
0000
0000
0000
0000
0001
0000
0000
0000
0000
0000
0000
0000
0000
0000
0000
0000
0000
0000
0000
0000
0000
0000
0000
0000
0000
0000
0000
0000
,
2100
3000
0000
0000
0000
0000
0000
0000
0000
0000
0000
0000
0000
0000
0000
0000
0210
0300
0000
0000
0000
0000
0000
0000
0000
0000
0000
0000
0000
0000
0000
0000
0012
0003
0000
0000
0000
0000
0000
0000
1000
0000
0000
0000
0000
0000
0000
0000
0020
0030
0000
0000
0000
0000
0000
0000
1000
0000
0000
0000
0000
0000
0000
0000
,
0200
0300
0000
0000
0000
0000
0000
0000
0010
0000
0000
0000
0000
0000
0000
0000
2001
3000
0000
0000
0000
0000
0000
0000
0000
0000
0000
0000
0000
0000
0000
0000
0001
0000
0000
0000
0000
0000
0000
0000
1000
0000
0000
0000
0000
0000
0000
0000
0200
0300
0000
0000
0000
0000
0000
0000
0000
0000
0000
0000
0000
0000
0000
0000
,
0010
0000
0000
0000
0000
0000
0000
0000
0000
0000
0000
0000
0000
0000
0000
0000
0102
0003
0000
0000
0000
0000
0000
0000
0000
0000
0000
0000
0000
0000
0000
0000
0000
0000
0000
0000
0000
0000
0000
0000
0000
0000
0000
0000
0000
0000
0000
0000
0000
0000
0000
0000
0000
0000
0000
0000
0000
0000
0000
0000
0000
0000
0000
0000
,
0000
0000
1000
0010
0002
0000
0000
0000
0000
0000
0000
0000
0000
0000
0000
0000
,
0000
0000
0000
0003
0001
0010
1000
0100
1000
0010
0100
0010
0001
0010
1000
0100
,
1000
0010
0100
0010
0001
0010
1000
0100
1000
0010
0100
0010
0001
0010
1000
0100
,
1000
0010
0100
0010
0001
0100
0010
1000
0100
1000
0010
0100
0001
0100
0010
1000
,
0100
1000
0010
0100
0001
0100
0010
1000
0100
1000
0010
0100
0001
0100
0010
1000
,
0100
1000
0010
0100
1001
1001
1001
0000
0110
0000
0010
1000
0100
0010
1000
0100
,
0011
0011
0011
0000
0110
0000
0001
1000
0010
0100
0001
0010
1100
1100
1100
0000
,
0110
0000
0001
0010
0100
1000
0001
0010
2002
0000
3003
0000
2002
0000
3003
0000
,
0011
1100
0011
1100
0011
1100
0000
0000
0000
0000
0000
0000
;

//---------------dance-double - ----------------
#NOTES:
     dance-double:
     :
     Hard:
     1:
     0.158,0.142,0.414,0.000,0.203,82.000,49.000,0.000,0.000,0.000:












00100010
00100010
00000000
00100010
00000000
00100010
00000000
00100010
01000100
01000100
00000000
01000100
00000000
01000100
00000000
01000100
,
00100010
00100010
00000000
00100010
00000000
00100010
00000000
00100010
01000100
01000100
00000000
01000100
00000000
01000100
00000000
01000100
,
10001000
10001000
00000000
10001000
00000000
10001000
00000000
10001000
00100100
00100100
00000000
00100100
00000000
00100100
00000000
00100100
,
01001000
01001000
00000000
01001000
00000000
01001000
00000000
01001000
00100010
00100010
00000000
00100010
00000000
00100010
00000000
00100010
,
10000000
00000000
00000100
01000000
00000000
00000000
00100100
00000000
10000000
00000000
00000100
00100100
00000000
00001000
01000000
00000000
,
10000000
00000000
00000100
01000000
00000000
00000000
00100100
00000000
10000000
00000000
00000100
00100100
00000000
00001000
01000000
00000000
,
10000000
00000000
00000100
01000000
00000000
00000000
00100100
00000000
10000000
00000000
00000100
00100100
00000000
00001000
01000000
00000000
,
10000000
00000000
00000000
00000000
00000000
00000000
00000100
00000000
00000000
01000000
00000000
00000000
00000000
00000000
00000000
00000000
00000000
00000000
00100100
00000000
00000000
00000000
00000000
00000000
10000000
00000000
00000000
00000000
00000000
00000000
00000100
00000000
00000000
00100100
00000000
00000000
10000000
01000000
00000000
00100000
00010000
00000000
00001000
00000000
00000100
00000000
00000010
00000000
,
10001000
00000000
00000000
00000000
;
