#TITLE:Jordan;
#SUBTITLE:;
#ARTIST:Buckethead;
#TITLETRANSLIT:;
#SUBTITLETRANSLIT:;
#ARTISTTRANSLIT:;
#CREDIT:;
#BANNER:Jordan_BN.png;
#BACKGROUND:Jordan_BG.png;
#LYRICSPATH:;
#CDTITLE:;
#MUSIC:Jordan.mp3;
#OFFSET:-0.120;
#SAMPLESTART:24.964;
#SAMPLELENGTH:13.340;
#SELECTABLE:YES;
#BPMS:0.000=115.980,168.000=231.960,584.000=115.980;
#STOPS:;
#BGCHANGES:;
// cache tags:
#FIRSTBEAT:11.625;
#LASTBEAT:647.750;
#SONGFILENAME:Songs/toune 2/Jordan/Jordan.sm;
#HASMUSIC:1;
#HASBANNER:1;
#MUSICLENGTH:230.432;
// end cache tags

//---------------dance-single - Keyboard----------------
#NOTES:
     dance-single:
     Keyboard:
     Edit:
     14:
     1.000,1.000,0.972,0.091,1.000,1688.000,224.000,21.000,0.000,3.000:
0000
0000
0000
0000
,
0000
0000
0000
0000
,
0000
0000
0000
0000
0000
0000
0000
0000
0000
0000
0000
0000
0000
0000
0000
0000
0000
0000
0000
0000
0000
0000
0000
0000
0000
0000
0000
0000
0000
1000
0001
1000
,
0001
0100
0001
0100
0000
0010
0000
1000
0000
0001
0010
0000
1100
0100
0000
0000
,
0010
1000
1000
0001
0010
0001
0010
0100
1000
0001
0001
0100
1010
0000
1001
0000
,
0001
0010
0010
0100
0010
0001
0100
0010
1000
1000
0100
1000
1010
0000
0110
0000
,
0010
1000
1000
0001
0010
0100
0010
0001
0100
0100
0010
1000
0101
0000
0110
0000
,
0010
1000
1000
0100
1000
0010
0100
0001
1000
1000
0100
0010
0011
0000
1001
0000
,
0010
0100
0100
0001
0100
1000
0010
0100
0001
0001
1000
0100
0110
0000
0011
0000
,
0001
1000
1000
0010
0100
0001
0010
1000
0100
0100
0001
0010
0110
0000
1100
0000
,
0010
0100
0100
0001
0010
1000
0100
0001
0100
0100
0010
1000
1100
0000
1001
0000
,
0001
1000
1000
0001
0000
0100
0010
1000
0100
0010
0001
0100
0010
0000
1001
0000
,
1100
0000
0110
0000
0011
0000
0001
1001
0000
1000
1010
0000
0010
0100
0010
0100
,
0101
0001
0100
0110
0010
1000
1100
1000
0100
0010
0001
0100
0110
0000
0010
1000
,
1001
0000
0011
0000
0110
0000
0100
1100
0000
1000
1001
0000
0001
0100
0001
0100
,
0110
0010
1000
1100
1000
0100
0110
0010
0001
0100
0001
0010
0100
0000
1000
0001
,
1001
0000
0101
0000
1100
0000
0100
0110
0000
0010
0011
0000
0001
1000
0001
1000
,
1010
0010
0100
0101
0001
0010
0110
0100
1000
0010
0100
0010
1000
0000
0001
0010
,
0110
0000
1100
0000
1001
0000
0001
0101
0000
0010
1010
0000
1000
0100
1000
0100
,
0110
0010
0001
0101
0010
1000
1100
1000
0001
0100
0010
1000
0001
0000
0001
1000
,
0001
0100
0100
0001
0010
0100
0010
0001
1000
1000
0010
0100
0001
0000
0001
0000
,
1000
0100
0100
1000
0010
0100
0010
1000
0001
0001
0010
0100
1000
0000
1000
0000
,
0001
0010
0010
0001
0100
0010
0100
0001
1000
1000
0100
0010
0001
0000
0001
0000
,
1000
0010
0010
1000
0100
0010
0100
1000
0001
0001
0100
0010
1000
0000
1000
0000
,
0100
0001
0001
1000
0100
1000
0100
0010
0001
1000
1000
0010
0101
0000
1001
0000
,
1000
0100
0100
0010
0100
1000
0010
0100
0001
0001
0010
0001
0101
0000
0110
0000
,
0100
0001
0001
1000
0100
0010
0100
1000
0010
0010
0100
0001
1010
0000
0110
0000
,
0100
0001
0001
0010
0001
0100
0010
1000
0001
0001
0010
0100
1100
0000
1001
0000
,
0100
0010
0010
1000
0010
0001
0100
0010
1000
1000
0001
0010
0110
0000
1100
0000
,
1000
0001
0001
0100
0010
1000
0100
0001
0010
0010
1000
0100
0110
0000
0011
0000
,
0100
0010
0010
1000
0100
0001
0010
1000
0010
0010
0100
0001
0011
0000
1001
0000
,
1000
0001
0001
1000
0000
0010
0100
0001
0010
0100
1000
0010
0100
0000
1001
0000
,
0011
0000
0110
0000
1100
0000
1000
1001
0000
0001
0101
0000
0100
0010
0100
0010
,
1010
1000
0010
0110
0100
0001
0011
0001
0010
0100
1000
0010
0110
0000
0100
0001
,
1001
0000
1100
0000
0110
0000
0010
0011
0000
0001
1001
0000
1000
0010
1000
0010
,
0110
0100
0001
0011
0001
0010
0110
0100
1000
0010
1000
0100
0010
0000
0001
1000
,
1001
0000
1010
0000
0011
0000
0010
0110
0000
0100
1100
0000
1000
0001
1000
0001
,
0101
0100
0010
1010
1000
0100
0110
0010
0001
0100
0010
0100
0001
0000
1000
0100
,
0110
0000
0011
0000
1001
0000
1000
1010
0000
0100
0101
0000
0001
0010
0001
0010
,
0110
0100
1000
1010
0100
0001
0011
0001
1000
0010
0100
0001
1000
0000
1000
0001
,
1000
0100
1000
0100
0010
0100
0010
0001
0010
0001
1000
0001
1000
0010
1000
0010
0100
0010
0100
0001
0100
0001
0010
0001
,
1000
0001
0100
0010
1000
0100
1000
0001
0100
0010
1000
0100
0010
0001
0100
0010
1000
0001
0200
0000
0000
0000
0000
0000
,
0310
1000
0100
0010
0000
0001
1000
0000
,
0001
0000
0000
0100
0000
0000
0010
0000
0000
0000
0000
0000
1000
0000
0000
0000
0000
0000
0010
0000
1000
0000
0100
0000
,
0010
0001
0101
0110
1010
0000
1100
0110
,
0011
0000
1001
1010
0110
0000
0101
0000
,
1001
0100
0010
0001
0000
0010
0100
0000
,
1000
0001
0100
0010
0000
0010
1000
0000
,
0010
1000
0100
0010
0000
0001
0010
0100
,
1000
0001
0100
0010
0100
0001
1000
0000
,
1000
0100
0100
1000
0001
0001
0100
0010
,
1000
0010
0100
0001
0001
1000
0100
0001
,
0010
1000
0100
1000
0010
0001
0100
1000
,
0020
0000
0100
0000
0001
0000
1000
0030
,
0010
0001
0010
0001
1000
0001
1000
0100
1000
0010
1000
0010
,
0100
0010
0100
0001
0100
0001
1000
0001
1000
0100
0010
0100
,
0010
0001
0010
0001
1000
0001
0100
0001
0100
0010
1000
0010
,
1000
0100
1000
0001
0100
0001
0200
0000
0000
0010
0000
0000
,
0310
0000
1000
0000
0000
0010
0100
0001
0100
0010
1000
0100
,
1000
0001
0100
0010
1000
0010
1000
0100
1000
0001
0100
0010
,
1000
0001
0010
0001
0100
0010
1000
0010
0100
0001
0010
0100
,
1000
0010
0100
0010
1000
0100
0010
0001
0010
0100
1000
0001
,
0100
0010
1000
0010
0100
0001
1000
0100
0010
0001
0010
0100
,
1000
0001
0100
1000
0100
0001
1000
0100
0010
0001
0010
0100
,
1000
0001
0100
1000
0100
0001
0010
0100
1000
0001
0100
0010
,
1000
0100
0010
0001
0010
0100
2000
0000
0000
0001
0000
0000
,
3001
0100
0010
0100
0001
1000
0100
0010
0001
0010
0100
1000
,
0100
1000
0100
0001
1000
0100
0001
0100
1000
0010
0100
0001
,
0010
1000
0010
0001
0100
0010
1000
0010
0100
0001
0010
0100
,
1000
0001
0100
0010
1000
0010
0100
0001
0010
1000
0010
0001
,
0100
0010
1000
0010
0100
0001
0010
0100
1000
0001
1000
0100
,
0010
0001
0010
0001
0100
0010
1000
0010
0100
0001
0010
0100
,
1000
0010
1000
0010
0100
0010
0100
0001
0100
0001
1000
0001
,
2000
0100
0010
0001
,
3020
0000
0000
0100
0000
0000
0130
0001
0100
0010
1000
0100
,
0010
0001
0010
0100
1000
0001
0100
0010
1000
0100
0001
0100
,
1000
0010
0001
0010
1000
0100
0010
0001
0100
0010
1000
0010
,
0100
0000
0000
0000
0001
0000
0000
0000
1000
0000
0000
0000
0100
0000
0000
0000
0010
0000
0000
0000
0001
0000
0000
0000
0200
0000
0000
0000
0000
0000
0000
0000
0000
0000
0000
0000
0310
0000
0000
0000
0000
0000
1000
0000
0000
0010
0000
0000
,
1000
0000
0000
0100
0000
0000
1000
0000
0000
0100
0000
0000
0010
0000
0000
0100
0000
0000
0010
0000
0000
0100
0000
0000
1000
0000
0000
0000
0010
0000
0000
0000
0100
0000
0000
0000
0001
0000
0000
0000
1000
0000
0000
0000
0100
0000
0000
0000
,
0001
0010
0001
0100
0010
1000
0100
0010
0001
0100
1000
0010
,
0001
0100
0010
1000
0100
0010
0001
1000
0001
0100
0010
1000
,
0100
0010
0001
0100
0010
0100
0002
0000
0000
1000
0000
0000
,
2003
0000
0000
3100
1000
0100
1000
0010
0100
0001
0010
0100
,
0010
0001
0100
0010
1000
0100
0010
0001
0010
0100
1000
0010
,
0001
0100
1000
0010
0001
0100
0010
1000
0100
0010
0100
0001
,
2000
0000
0000
0100
0000
0000
0010
0000
0001
3100
0001
0100
,
0001
1000
0100
1000
0010
0100
0001
0010
1000
0010
0001
0100
,
0010
1000
0100
1000
0010
0100
0001
0010
1000
0010
0001
0100
,
0010
1000
0100
0010
0001
0010
0100
1000
0001
0100
0010
1000
,
0001
0100
0010
0100
0001
1000
0100
0010
0001
0010
0100
1000
,
0002
0103
0002
2003
,
0100
0000
0000
0010
0000
0000
3100
0000
0000
0001
1000
0001
,
0100
0010
1000
0100
0010
0000
0100
1000
,
0001
0100
1000
0100
0001
0010
0100
1000
,
0010
0000
0110
0000
0010
1000
0100
0000
,
0110
0011
2002
0000
,
0000
0000
0000
0000
,
0000
0000
0000
0000
0000
0220
0000
0000
3003
0000
0000
0000
0000
0000
0000
0000
,
0331
0000
0100
0010
1010
0000
0100
0010
,
0011
0000
0001
1001
0000
1000
1001
0000
,
0101
0010
0100
0001
,
1100
0000
0000
0110
0000
0000
0011
0000
1001
0000
1010
0000
,
0110
0000
0100
0001
1001
0000
1100
0000
,
0110
0000
0101
0000
1000
0100
0110
0000
,
0011
0100
0110
1000
,
1001
0110
1001
0000
,
1020
0100
0231
0010
,
0310
0100
0001
1000
0100
0010
0001
0010
,
0200
1000
1000
1300
,
1001
0000
0000
0000
0100
0010
1000
0000
,
1001
0000
0000
0000
0101
0000
0000
0000
0000
0000
0110
0000
0000
0000
0000
0000
0000
0000
0000
0000
0000
0100
0000
0000
,
0010
1000
0010
1000
0100
0010
0001
0010
,
0100
1000
0001
0000
0100
0010
1000
0000
,
0011
0100
1010
0000
,
0001
0100
0001
0001
1000
0100
1000
1000
,
0010
0100
0010
0010
1000
1000
0001
0001
,
0010
0100
0010
0010
0001
1000
0001
0001
,
0100
0010
0100
0100
0010
0010
1000
1000
,
0001
0001
0010
0010
0001
0001
0100
0100
,
0010
0010
1000
1000
0001
0001
1000
1000
,
0100
0100
0100
0100
0010
0010
0100
0100
,
1000
1000
0002
0000
0103
0000
0110
0000
,
1000
0010
0001
0010
1000
0100
0010
0001
0010
0100
1000
0001
,
0100
0010
1000
0100
1000
0001
0100
0010
1000
0001
0010
0001
,
0100
0010
1000
0100
0010
0001
0010
0100
1000
0001
0100
0001
,
1000
0010
0100
0001
0100
0010
1000
0100
0010
0001
0010
0100
,
1000
0001
0100
0010
0100
0001
1000
0100
0010
0001
0100
0010
,
1000
0001
0100
0001
0100
0010
1000
0100
0010
0001
0010
0100
,
0010
0001
0100
0010
1000
0010
0100
0010
1000
0100
0010
0001
,
1000
0001
1000
0010
0100
0001
0010
0100
0010
0001
1000
0100
,
1100
1000
0001
0100
0010
1000
0100
0010
0100
1000
0001
0100
,
0010
1000
0100
0010
0001
0100
0101
0001
0010
0100
1000
0001
,
1001
1000
0010
0100
0001
0010
0100
0010
0001
0100
0010
1000
,
0100
0010
0001
0010
0100
1000
1100
1000
0001
0100
0010
1000
,
1001
0010
0100
1000
0001
0100
0010
1000
0100
1000
0010
0100
,
0001
0010
0100
1000
0001
0010
0011
0001
0100
0010
1000
0001
,
1001
1000
0100
1000
0010
0100
0001
0010
0100
0010
0001
0100
,
1010
1000
0100
0010
0001
1000
0100
0010
0001
1000
0010
1000
,
1001
1000
0010
0100
0001
1000
0100
0010
0001
0010
0100
1000
,
0001
0100
0010
1000
0010
0100
0101
0010
0100
1000
0001
0100
,
0110
0010
1000
0100
1000
0010
0100
0001
0010
0100
0010
0001
,
0100
0010
1000
0100
0010
0100
1100
0010
0100
0001
0010
0100
,
0110
0010
0001
0100
0010
1000
0010
0100
0001
1000
0100
0010
,
0001
0010
0100
1000
0010
0100
0011
0010
0100
1000
0010
0100
,
0110
0010
1000
0100
0010
0001
0100
0010
1000
0010
0100
0001
,
0011
0100
1000
0010
0100
0001
0110
0100
1000
0010
0100
0001
,
1001
0000
1100
0000
0110
0000
0001
0011
0000
0010
0110
0000
0100
1000
0100
1000
,
1010
0010
0100
0101
0001
0010
0110
0100
1000
0100
1000
0010
0100
0000
0010
1000
,
1100
0000
0110
0000
0011
0000
0001
1001
0000
1000
1010
0000
0010
0100
0010
0100
,
0101
0010
1000
1100
0010
0001
0101
0010
1000
0100
1000
0001
0100
0000
0010
1000
,
1100
0000
1001
0000
0101
0000
0010
1010
0000
0001
1001
0000
0001
0010
0001
0010
,
0110
0100
1000
1001
0001
0100
0110
0010
1000
0010
1000
0100
0010
0000
0001
0100
,
0110
0000
1010
0000
1001
0000
0001
0011
0000
0100
1100
0000
1000
0001
1000
0001
,
0101
0010
1000
1100
0010
0001
0011
0100
1000
0001
0100
0010
1000
0000
0010
1000
,
1001
0000
0011
0000
0110
0000
1000
1100
0000
0100
0110
0000
0010
0001
0010
0001
,
0101
0100
0010
1010
1000
0100
0110
0010
0001
0010
0001
0100
0010
0000
0100
0001
,
0011
0000
0110
0000
1100
0000
1000
1001
0000
0001
0101
0000
0100
0010
0100
0010
,
1010
0100
0001
0011
0100
1000
1010
0100
0001
0010
0001
1000
0010
0000
0100
0001
,
0011
0000
1001
0000
1010
0000
0100
0101
0000
1000
1001
0000
1000
0100
1000
0100
,
0110
0010
0001
1001
1000
0010
0110
0100
0001
0100
0001
0010
0100
0000
1000
0010
,
0110
0000
0101
0000
1001
0000
1000
1100
0000
0010
0011
0000
0001
1000
0001
1000
,
1010
0100
0001
0011
0100
1000
1100
0010
0001
1000
0010
0100
0001
0000
0100
0001
;

//---------------dance-single - ----------------
#NOTES:
     dance-single:
     :
     Challenge:
     11:
     0.948,1.000,0.625,0.104,0.775,1361.000,144.000,24.000,0.000,2.000:
0000
0000
0000
0000
,
0000
0000
0000
0000
,
0000
0000
0000
0000
,
0000
0000
0000
0000
,
0001
0100
0001
1000
0100
0010
0001
0010
0100
1000
0001
0100
0010
0000
1001
0000
,
1000
0100
1000
0001
0100
0010
0100
0010
1000
0100
0010
0001
1000
0000
0110
0000
,
0001
0100
0001
1000
0010
1000
0100
0010
0001
0010
0100
1000
0001
0000
1001
0000
,
0001
0100
0010
0100
0001
1000
0100
0010
0001
0010
0100
1000
0001
0000
0101
0000
,
0010
1000
0100
1000
0010
0100
0001
1000
0100
0010
0001
1000
0010
0000
0110
0000
,
0100
0001
1000
0100
0010
0001
0010
0100
1000
0001
0100
0010
1000
0000
0011
0000
,
0100
1000
0001
0100
0010
1000
0100
0010
0001
0010
0100
1000
0001
0000
0101
0000
,
0010
0000
1000
0010
0000
0100
0001
0100
0001
1000
0001
1000
0100
0000
0110
0000
,
0011
0000
1001
0000
1010
0000
0001
1000
0000
1000
0010
0000
0010
0100
0010
0100
,
0001
0100
0001
1000
0100
1000
0010
0100
0001
0010
0100
1000
0001
0000
0100
0010
,
1010
0000
1001
0000
0011
0000
0100
1000
0000
1000
0001
0000
1000
0100
1000
0100
,
1000
0010
1000
0001
0010
0001
0010
0100
1000
0001
0100
0010
1000
0000
0001
1000
,
1100
0000
0110
0000
0011
0000
0001
1000
0000
1000
0010
0000
0100
0001
0100
0001
,
0010
0100
0010
0100
1000
0100
1000
0001
0100
0010
1000
0010
0100
0000
0001
0010
,
0110
0000
1100
0000
1001
0000
0001
0100
0000
0100
0010
0000
0100
0001
0100
0001
,
1000
0100
1000
0100
0010
0100
0010
0001
1000
0010
0100
0010
1000
0000
0100
0010
,
0001
0100
0001
1000
0100
0010
0001
0010
0100
1000
0001
0100
0010
0000
0000
0000
,
1000
0100
1000
0001
0100
0010
0100
0010
1000
0100
0010
0001
1000
0000
0000
0000
,
0010
0100
0001
0100
0010
1000
0100
0010
0001
0010
0100
1000
0001
0000
0000
0000
,
0001
0100
0010
0100
0001
1000
0100
0010
0001
0010
0100
1000
0001
0000
0000
0000
,
1000
0010
1000
0001
0010
0100
1000
0100
0010
0001
1000
0010
0100
0000
1001
0000
,
0001
0010
0001
1000
0010
0100
0010
0100
0001
0010
0100
1000
0001
0000
0110
0000
,
0100
0010
1000
0010
0100
0001
0010
0100
1000
0100
0010
0001
1000
0000
1001
0000
,
1000
0010
0100
0010
1000
0001
0010
0100
1000
0100
0010
0001
1000
0000
1010
0000
,
0100
0001
0010
0001
0100
0010
1000
0001
0010
0100
1000
0001
0100
0000
0110
0000
,
0001
0100
0001
1000
0100
0010
0001
0010
0100
1000
0001
0100
0010
0000
1001
0000
,
1000
0100
1000
0001
0100
0010
0100
0010
1000
0100
0010
0001
1000
0000
0110
0000
,
0010
0000
1000
0010
0000
0100
0001
0100
0001
1000
0001
1000
0001
0000
1000
0000
,
0101
0000
1001
0000
1100
0000
0100
0010
0000
0010
0100
0000
1000
0001
1000
0001
,
0100
0001
0100
0010
0100
0010
1000
0100
0010
0001
0100
0010
0100
0000
0001
1000
,
1100
0000
1001
0000
0011
0000
0010
0100
0000
0100
1000
0000
0001
0100
0001
0100
,
0010
0100
0010
1000
0010
1000
0001
0010
0100
1000
0001
0100
0010
0000
0100
0001
,
1001
0000
1100
0000
0110
0000
0010
0001
0000
1000
0010
0000
0100
0001
0100
0001
,
1000
0100
1000
0010
0100
0010
1000
0100
0010
0001
0010
0100
1000
0000
0001
0100
,
0110
0000
1010
0000
0011
0000
0100
1000
0000
0001
0100
0000
0010
1000
0100
1000
,
0010
0100
0010
0100
0001
0100
0001
0010
0100
1000
0001
0100
0010
0000
0010
0100
,
0001
1000
0001
1000
0001
1000
0001
0100
0001
0100
0001
0100
0010
0100
0010
0100
0010
0100
0010
1000
0010
1000
0010
1000
,
0001
0010
0001
0100
0010
0100
0010
1000
0010
1000
0100
1000
0001
0100
0010
1000
0010
0100
0002
0000
0000
0000
0000
0000
,
2003
0100
0010
0001
,
0010
0000
0000
0100
0000
0000
3001
0000
0000
1000
0001
0100
,
0010
0100
0001
1000
0100
0000
0010
0001
,
0100
0000
0010
1000
0001
0000
0010
0000
,
0200
0010
0001
1000
,
0001
0000
0310
0100
0000
1000
0001
0000
,
0100
0010
1000
0010
0000
0000
0100
0001
,
1000
0100
0010
0001
0010
0100
1000
0000
,
0001
0100
0000
0001
1000
0000
0100
1000
,
0100
1000
0001
1000
0001
0100
0001
0100
,
0010
0100
0010
1000
0010
1000
0001
1000
,
0002
0100
0010
1000
,
1003
0100
1000
0001
1000
0001
0100
0001
0100
0010
0100
0010
,
1000
0010
1000
0001
1000
0001
0010
0100
0010
0100
1000
0100
,
1000
0010
1000
0010
0100
0010
0100
0001
0100
0001
1000
0001
,
1000
0100
1000
0100
0010
0001
2000
0000
0000
0000
0000
3000
,
0002
0000
0000
0103
0010
1000
0001
0010
,
0001
0100
0010
1000
0100
0010
0100
1000
,
0001
0100
0010
0100
0001
1000
0100
0010
,
0001
1000
0001
0100
0010
0100
0010
1000
,
0001
0010
0100
1000
0001
0100
0010
0100
,
0001
1000
0100
0010
0001
0010
0100
1000
,
0001
0100
0010
0100
0001
1000
0100
0010
,
0001
0010
0100
0010
0002
0000
0000
0000
,
0103
0001
0010
0001
0100
0001
1000
0100
,
1000
0010
0100
0001
0010
0100
0010
0001
,
1000
0010
0100
0010
1000
0001
0010
0100
,
1000
0001
1000
0010
0100
0010
0100
0001
,
1000
0100
0010
0001
1000
0010
0100
0010
,
1000
0001
0010
0100
1000
0100
0010
0001
,
1000
0010
0100
0010
1000
0001
0010
0100
,
2000
0000
0000
0000
,
3020
0000
0000
0000
0130
0001
0100
0010
,
1000
0100
0010
0001
0010
0100
1000
0001
,
0100
0010
0100
0001
1000
0010
1000
0100
,
0010
0000
0000
0001
0000
0000
0010
0000
0000
0100
0000
0000
2000
0000
0000
0000
0000
0000
3001
0000
0100
0000
0001
0000
,
1000
0100
1000
0010
0100
0001
0010
0001
,
0010
0100
1000
0001
0100
0010
0100
0001
,
1000
0100
0001
0100
1000
0010
0001
0010
,
1000
0100
0010
0001
1000
0000
0110
0000
,
0200
0000
0310
1000
0010
1000
0010
0100
,
0001
1000
0100
0001
0100
1000
0010
0001
,
0010
1000
0100
0010
0001
1000
0010
0100
,
0020
0000
0000
0000
0000
0130
0010
0100
,
0001
1000
0100
0010
0001
0010
0100
0001
,
0100
1000
0100
0010
0100
1000
0010
0100
,
0001
0100
0010
1000
0100
0001
0100
1000
,
0010
0100
0010
1000
0001
0010
0100
1000
,
0020
0100
0230
0320
,
0100
0000
0000
0000
0000
0000
1000
0000
0000
0000
0000
0000
0100
0000
0000
0030
0000
0000
0010
0000
1000
0000
0001
0000
,
0010
0100
1000
0001
0100
0000
0010
1000
,
0001
0010
0001
0100
0010
1000
0100
0010
,
0001
0000
1001
0000
0010
1000
0001
0000
,
0011
0110
2002
0000
,
0000
0000
0000
0000
,
0000
0000
0000
0220
0000
0000
3003
0000
0000
0000
0000
0000
0000
0000
0000
0000
,
0331
0100
0000
0001
1000
0000
0000
0000
,
1100
0000
0010
0001
,
0100
0000
0110
0000
,
0010
1000
0001
1000
,
0010
0000
0000
0100
0001
0000
0000
0001
,
1000
0000
0100
0000
0010
0100
1000
0000
,
0201
0000
0320
0000
,
2030
0000
0000
0000
0002
0000
0000
3003
,
0010
0000
0101
0000
,
1000
0000
0100
0000
0010
0000
0001
0100
,
0020
0000
1000
0000
,
0100
0000
1030
0001
,
0100
0000
0010
0000
1000
0000
0000
0001
,
0100
0001
0100
0010
0100
0010
1000
0010
,
1000
0001
0010
0100
1000
0001
0100
0000
,
0110
1010
1001
0011
,
0001
0100
0001
0100
0001
1000
0001
1000
,
0100
1000
0100
1000
0010
1000
0010
0100
,
0001
1000
0001
1000
0001
0010
0001
0100
,
0010
1000
0010
0100
0001
1000
0100
1000
,
0010
0100
0001
1000
0100
0010
0100
1000
,
0001
0100
0010
1000
0001
0010
0100
0010
,
0001
1000
0010
0100
0010
1000
0001
0010
,
0100
1100
1001
0110
,
0001
1000
0100
0010
0100
1000
0001
0100
,
1000
0100
0001
0010
0100
1000
0010
0001
,
0010
1000
0100
0010
0001
0010
0100
1000
,
0001
0100
0010
0100
0001
1000
0100
0001
,
0100
1000
0010
0001
0010
1000
0100
1000
,
0001
0100
0010
1000
0010
0100
0001
0010
,
0100
0010
0001
0100
0010
1000
0001
0010
,
0100
1000
0001
0100
0010
1000
0010
0100
,
1001
1100
0110
1100
,
1001
0101
0110
1010
,
0110
0101
1001
1100
,
0110
0011
0110
1100
,
1001
0101
0110
1010
,
0011
0110
1100
0101
,
0110
1010
0110
0101
,
0011
1100
1010
0101
,
1100
1001
0101
0110
,
1010
1001
0110
1001
,
0101
1100
0110
0011
,
1010
1001
0110
1001
,
0101
0110
1010
0011
,
0110
1100
1001
0110
,
0101
0110
1010
0011
,
0110
1100
1010
0110
,
1100
0000
1001
0000
0101
0000
1000
0001
0000
0001
0100
0000
0100
0010
0100
0010
,
1000
0010
1000
0001
0010
0001
0100
0010
1000
0100
0010
0001
1000
0000
0010
0100
,
0101
0000
1001
0000
1100
0000
0010
0001
0000
0001
1000
0000
0001
0010
0001
0010
,
0001
0100
0001
1000
0100
1000
0100
0010
0001
1000
0010
0100
0001
0000
1000
0001
,
0011
0000
0110
0000
1100
0000
1000
0001
0000
0001
0100
0000
0010
1000
0010
1000
,
0100
0010
0100
0010
0001
0010
0001
1000
0010
0100
0001
0100
0010
0000
1000
0100
,
0110
0000
0011
0000
1001
0000
1000
0010
0000
0010
0100
0000
0010
1000
0010
1000
,
0001
0010
0001
0010
0100
0010
0100
1000
0001
0100
0010
0100
0001
0000
1000
0001
,
0011
0000
1001
0000
1010
0000
0001
1000
0000
1000
0010
0000
0010
0100
0010
0100
,
0001
0100
0001
1000
0100
1000
0010
0100
0001
0010
0100
1000
0001
0000
0100
0010
,
1010
0000
1001
0000
0011
0000
0100
1000
0000
1000
0001
0000
1000
0100
1000
0100
,
1000
0010
1000
0001
0010
0001
0010
0100
1000
0001
0100
0010
1000
0000
0001
1000
,
1100
0000
0110
0000
0011
0000
0001
1000
0000
1000
0010
0000
0100
0001
0100
0001
,
0010
0100
0010
0100
1000
0100
1000
0001
0100
0010
1000
0010
0100
0000
0001
0010
,
0110
0000
1100
0000
1001
0000
0001
0100
0000
0100
0010
0000
0100
0001
0100
0001
,
1000
0100
1000
0100
0010
0100
0010
0001
1000
0010
0100
0010
1000
0000
0100
0010
;

//---------------dance-single - ----------------
#NOTES:
     dance-single:
     :
     Hard:
     9:
     0.579,0.703,0.139,0.082,0.239,883.000,32.000,19.000,0.000,0.000:
0000
0000
0000
0000
,
0000
0000
0000
0000
,
0000
0000
0000
0000
,
0000
0000
0000
0000
,
1000
0000
0000
1000
0010
0000
0000
0000
0100
0000
0001
0010
0001
0000
0010
0000
,
0100
0000
0000
0100
0010
0000
0000
0000
0001
0000
1000
0010
0100
0000
0010
0000
,
1000
0000
0000
0100
0010
0000
0000
0000
0100
0000
0000
0001
0100
0000
0010
0000
,
0100
0000
0000
0001
0010
0000
0000
0100
0000
0000
0010
0001
0100
0000
0100
0000
,
0100
0000
0000
0010
1000
0000
0000
0000
0001
0000
0010
0100
0010
0000
0001
0000
,
0100
0000
0000
0100
0010
0000
0000
0000
1000
0000
0001
0010
0100
0000
0010
0000
,
0001
0000
0000
0100
0010
0000
0000
0000
1000
0000
0000
0001
0010
0000
0100
0000
,
1000
0000
0000
0100
0010
0000
0000
0001
0000
1000
0100
0010
0001
1000
0001
1000
,
0001
0000
1000
0000
0001
0000
0000
0010
0000
0010
1000
0000
0001
0000
0100
0000
,
0010
0000
1000
0000
0001
0000
0010
0000
0100
0000
1000
0000
0001
0000
0100
0010
,
1000
0000
0001
0000
1000
0000
0000
0010
0000
0010
0001
0000
1000
0000
0100
0000
,
0010
0000
0001
0000
1000
0000
0010
0000
0100
0000
0001
0000
1000
0000
0100
0010
,
0001
0000
1000
0000
0001
0000
0000
0100
0000
0100
1000
0000
0001
0000
0010
0000
,
0100
0000
1000
0000
0001
0000
0100
0000
0010
0000
1000
0000
0001
0000
0010
0100
,
1000
0000
0001
0000
1000
0000
0000
0100
0000
0100
0001
0000
1000
0000
0010
0000
,
0100
0000
0001
0000
1000
0000
0100
0000
0010
0000
0001
0000
1000
0000
0010
0100
,
0001
0000
0000
0100
0000
0100
0000
0100
0000
0000
0010
1000
0001
0000
0000
0000
,
1000
0000
0000
0100
0000
0100
0000
0100
0000
0000
0010
0001
1000
0000
0000
0000
,
0001
0000
0000
0010
0000
0010
0000
0010
0000
0000
0100
1000
0001
0000
0000
0000
,
1000
0010
1000
0010
0000
0100
0001
1000
0001
0100
0010
1000
0001
0000
0000
0000
,
0001
0000
0000
0001
0100
0000
0000
0000
0010
0000
1000
0100
1000
0000
0100
0000
,
0010
0000
0000
0010
0100
0000
0000
0000
1000
0000
0001
0100
0010
0000
0100
0000
,
0001
0000
0000
0010
0100
0000
0000
0000
0010
0000
0000
1000
0010
0000
0100
0000
,
0010
0000
0000
1000
0100
0000
0000
0010
0000
0000
0100
1000
0010
0000
0010
0000
,
0010
0000
0000
0100
0001
0000
0000
0000
1000
0000
0100
0010
0100
0000
1000
0000
,
0010
0000
0000
0010
0100
0000
0000
0000
0001
0000
1000
0100
0010
0000
0100
0000
,
1000
0000
0000
0010
0100
0000
0000
0000
0001
0000
0000
1000
0100
0000
0010
0000
,
0001
0000
0000
0010
0100
0000
0000
1000
0000
0001
0010
0100
1000
0001
1000
0001
,
1000
0000
0001
0000
1000
0000
0000
0100
0000
0100
0001
0000
1000
0000
0010
0000
,
0100
0000
0001
0000
1000
0000
0100
0000
0010
0000
0001
0000
1000
0000
0010
0100
,
0001
0000
1000
0000
0001
0000
0000
0100
0000
0100
1000
0000
0001
0000
0010
0000
,
0100
0000
1000
0000
0001
0000
0100
0000
0010
0000
1000
0000
0001
0000
0010
0100
,
1000
0000
0001
0000
1000
0000
0000
0010
0000
0010
0001
0000
1000
0000
0100
0000
,
0010
0000
0001
0000
1000
0000
0010
0000
0100
0000
0001
0000
1000
0000
0100
0010
,
0001
0000
1000
0000
0001
0000
0000
0010
0000
0010
1000
0000
0001
0000
0100
0000
,
0010
0000
1000
0000
0001
0000
0010
0000
0100
0000
1000
0000
0001
0000
0100
0010
,
1000
1000
0100
1000
0001
0001
0100
0001
,
0010
0100
1000
0010
0100
0001
0010
0000
,
0100
1000
0001
0100
,
0010
0000
1000
0000
0001
0000
0010
0001
,
0100
0010
1000
0010
,
0100
0001
1000
0100
,
0110
0001
1000
0001
,
0100
0000
0010
0000
1000
0000
0010
0100
,
0001
1000
0100
0010
,
0100
1000
0001
0100
,
0010
0000
0000
1000
0000
0000
0001
0000
,
0010
0100
0010
0001
,
1000
0000
0010
0000
0100
0000
0010
1000
,
0100
0010
0001
1001
,
0010
1000
0010
0000
0100
0001
0100
0000
,
0001
1000
0001
0000
1000
0100
1000
0000
,
0010
0001
0010
0000
1000
0001
1000
0000
,
0100
0010
0100
0000
0001
1000
0001
0000
,
1000
0000
0000
0100
0010
0000
0000
0001
,
0000
1000
0001
0000
0010
0100
0000
0000
,
0001
0000
0000
0100
0010
0000
0000
0000
,
0000
0001
1000
0000
0010
0100
0000
0000
,
1000
0000
0000
0010
0100
0000
0000
0001
,
0000
1000
0001
0000
0100
0010
0000
0000
,
0001
0000
0000
0010
0100
0000
0000
0000
,
0000
0001
1000
0000
0100
0010
0100
0010
,
0100
0000
0000
0001
1000
0000
0000
0100
,
0000
0010
0001
0000
1000
0010
0000
0000
,
0100
0000
0000
1000
0001
0000
0000
0000
,
0000
0010
1000
0000
0001
0010
0000
0000
,
0010
0000
0000
0001
1000
0000
0000
0000
,
0000
0100
0001
0000
1000
0100
0000
0000
,
0010
0000
0000
1000
0001
0000
0000
0000
,
0000
0100
1000
0100
1000
0000
0000
0000
,
1000
0000
0001
0000
0100
0010
0100
0000
,
0010
1000
0010
0000
1000
0001
1000
0000
,
0001
0010
0001
0000
0010
0100
0010
0000
,
0001
0010
0001
0000
2000
0000
0000
0000
,
3010
0100
0010
0000
0100
0001
0100
0000
,
0001
1000
0001
0000
1000
0100
1000
0000
,
0100
0010
0100
0000
0010
0001
0010
0000
,
0001
0100
0001
0000
0020
0000
0000
0000
,
0130
0000
0001
1000
0001
0100
0001
0000
,
0010
0100
0010
0000
0001
0010
0001
0000
,
1000
0010
1000
0000
0010
0100
0010
0100
,
0001
0000
0000
0000
0000
0001
1000
0100
,
0010
0001
0010
0000
0001
1000
0001
0000
,
0100
0010
0100
0000
0010
1000
0010
0000
,
1000
0001
1000
0000
0001
0010
0001
0000
,
0010
0100
0010
0000
0100
1000
0100
0000
,
0200
0000
0310
0200
,
0000
0000
0320
0000
0032
0000
1003
0001
,
1000
0001
1000
0100
1000
0000
0010
0100
,
0010
0000
1000
0001
0010
0000
0100
0000
,
1000
0000
0001
0000
0100
0010
0100
0000
,
0010
1000
2002
0000
,
0000
0000
0000
0000
,
3003
0000
0000
0220
0000
0000
0000
0000
0000
0000
0000
0000
0330
0000
0000
0000
,
0001
0000
1100
0000
,
0110
0000
0011
0000
,
1001
0000
0110
0000
,
0100
0001
1000
0100
,
0010
0000
0110
0000
,
0100
1000
0001
0100
,
0010
0000
1010
0000
,
1001
0000
0011
0000
,
0200
0000
2300
0000
,
3002
0000
0203
0000
,
0320
0000
1000
0000
,
0100
0000
1000
0000
,
0130
0010
1000
0001
,
0010
0100
0010
0000
0100
0000
1000
0000
,
0001
0100
0001
0000
1000
0100
1000
0000
,
0020
0230
0302
2003
,
3100
0100
1000
1000
,
0001
0001
1000
0001
,
0010
0010
0100
0100
,
1000
0001
0100
0010
,
1000
1000
0001
0001
,
0010
0010
0100
0100
,
1000
1000
1000
0001
,
1000
0100
0010
1001
,
0001
0100
0010
0100
,
0001
1000
0100
0010
,
0001
0010
0100
1000
,
0001
0100
0010
1000
,
0010
0100
0001
1000
,
0100
0010
0001
0010
,
0100
1000
0001
0100
,
0010
1000
0100
0010
,
0110
0100
1000
0001
,
0100
0010
0110
1000
,
1001
0001
0010
0100
,
1000
0010
0110
0001
,
0011
0010
0100
1000
,
0001
0100
0110
1000
,
1010
0100
0010
0001
,
1001
1000
0010
0100
,
0101
0001
1000
0100
,
0010
0001
1001
1000
,
1010
0010
0100
0001
,
0010
0100
1100
0001
,
0101
0010
1000
0100
,
0010
0001
0011
0001
,
0101
0100
0010
1000
,
1010
0100
0110
1001
,
1000
0000
0001
0000
1000
0000
0000
0100
0000
0100
0001
0000
1000
0000
0010
0000
,
0100
0000
0001
0000
1000
0000
0100
0000
0010
0000
0001
0000
1000
0000
0010
0100
,
0001
0000
1000
0000
0001
0000
0000
0100
0000
0100
1000
0000
0001
0000
0010
0000
,
0100
0000
1000
0000
0001
0000
0100
0000
0010
0000
1000
0000
0001
0000
0010
0100
,
1000
0000
0001
0000
1000
0000
0000
0010
0000
0010
0001
0000
1000
0000
0100
0000
,
0010
0000
0001
0000
1000
0000
0010
0000
0100
0000
0001
0000
1000
0000
0100
0010
,
0001
0000
1000
0000
0001
0000
0000
0010
0000
0010
1000
0000
0001
0000
0100
0000
,
0010
0000
1000
0000
0001
0000
0010
0000
0100
0000
1000
0000
0001
0000
0100
0010
,
1000
0000
0001
0000
0100
0000
0010
1000
0000
1000
0001
0000
0010
0100
0010
0000
,
0001
0100
0001
1000
0100
0010
0001
1000
,
0010
0000
0100
0000
0010
0000
1000
0100
0000
0100
1000
0000
0001
0100
0001
0000
,
0100
0010
1000
0001
0010
0100
0010
0001
,
1000
0000
0010
0000
0100
0000
0001
1000
0000
1000
0100
0000
1000
0001
1000
0000
,
0100
1000
0010
0100
0001
1000
0100
0010
,
0100
0000
1000
0000
0001
0000
0100
0010
0000
0010
0100
0000
0001
0010
0001
0000
,
0010
0000
0100
0000
1000
0000
0001
0000
0100
0000
0010
0000
0100
0000
0001
1000
;

//---------------dance-single - ----------------
#NOTES:
     dance-single:
     :
     Beginner:
     2:
     0.148,0.211,0.078,0.000,0.000,220.000,18.000,0.000,0.000,0.000:
0000
0000
0000
0000
,
0000
0000
0000
0000
,
0000
0000
0000
0000
,
0000
0000
0000
0000
,
0010
0000
0000
0000
,
1000
0000
0000
0000
,
0001
0000
0000
0000
,
0010
0000
0000
0000
,
0100
0000
0000
0000
,
1000
0000
0000
0000
,
0001
0000
0000
0000
,
0100
0000
0000
0000
,
0010
0000
0010
0000
,
0010
0000
0010
0000
,
0100
0000
0100
0000
,
0100
0000
0100
0000
,
0001
0000
0001
0000
,
0001
0000
0001
0000
,
1000
0000
1000
0000
,
1000
0000
1000
0000
,
0100
0000
0000
0000
,
0001
0000
0000
0000
,
1000
0000
0000
0000
,
0100
0000
0000
0000
,
0010
0000
0000
0000
,
0001
0000
0000
0000
,
1000
0000
0000
0000
,
0010
0000
0000
0000
,
0100
0000
0000
0000
,
0010
0000
0000
0000
,
1000
0000
0000
0000
,
0001
0000
0000
0000
,
0100
0000
0100
0000
,
0100
0000
0100
0000
,
0010
0000
0010
0000
,
0010
0000
0010
0000
,
1000
0000
1000
0000
,
1000
0000
1000
0000
,
0001
0000
0001
0000
,
0001
0000
0001
0000
,
1001
0000
0000
0000
,
0000
0000
0000
0000
,
1000
0000
0000
0000
,
0100
0000
1000
0000
,
0001
0000
0000
0000
,
0100
0000
0001
0000
,
1000
0000
0000
0000
,
0010
0000
0001
0000
,
1000
0000
0000
0000
,
0010
0000
1000
0000
,
0001
0000
0000
0000
,
0100
0000
0010
0000
,
1000
0000
0000
0000
,
0100
0000
0010
0000
,
0001
0000
0000
0000
,
0010
0000
1000
0000
,
0100
0000
0000
0000
,
0010
0000
0001
0000
,
0100
0000
0000
0000
,
0000
0000
0000
0000
,
0010
0000
0000
0000
,
1000
0000
0000
0000
,
0100
0000
0000
0000
,
0000
0000
0000
0000
,
0110
0000
0000
0000
,
0000
0000
0000
0000
,
0100
0000
0000
0000
,
0000
0000
0000
0000
,
0010
0000
0000
0000
,
0001
0000
0000
0000
,
0100
0000
0000
0000
,
0000
0000
0000
0000
,
0110
0000
0000
0000
,
0000
0000
0000
0000
,
0001
0000
0000
0000
,
0001
0000
0001
0000
,
1000
0000
0000
0000
,
1000
0000
1000
0000
,
0010
0000
0000
0000
,
0010
0000
0010
0000
,
0100
0000
0000
0000
,
0100
0000
0100
0000
,
0001
0000
0000
0000
,
1000
0000
0000
0000
,
0001
0000
0000
0000
,
0100
0000
0000
0000
,
0010
0000
0000
0000
,
1000
0000
0000
0000
,
0001
0000
0000
0000
,
0010
0000
0000
0000
,
0100
0000
0100
0000
,
0100
0000
0000
0000
,
0010
0000
0001
0000
,
1000
0000
0010
0000
,
0100
0000
0100
0000
,
0010
0000
0000
0000
,
1001
0000
0000
0000
,
0000
0000
0000
0000
,
0010
0000
0010
0000
,
0010
0000
0010
0000
,
0010
0000
0000
0000
,
0100
0000
0001
0000
,
1000
0000
0000
0000
,
0100
0000
0010
0000
,
0001
0000
0000
0000
,
1001
0000
0000
0000
,
0100
0000
0100
0000
,
0001
0000
1000
0000
,
1001
0000
0000
0000
,
0110
0000
0000
0000
,
0100
0000
0001
0000
,
1000
0000
0100
0000
,
0010
0000
0001
0000
,
1000
0000
0000
0000
,
0100
0000
0100
0000
,
0001
0000
1000
0000
,
0010
0000
0010
0000
,
1000
0000
0001
0000
,
0010
0000
0100
0000
,
1000
0000
0001
0000
,
0100
0000
0010
0000
,
1000
0000
1001
0000
,
0100
0000
0000
0000
,
0001
0000
1000
0000
,
0100
0000
0000
0000
,
1000
0000
0001
0000
,
0010
0000
0000
0000
,
0001
0000
1000
0000
,
0010
0000
0000
0000
,
0100
0000
0001
0000
,
0110
0000
0000
0000
,
0000
0000
0100
0000
,
0110
0000
0000
0000
,
0000
0000
0001
0000
,
1001
0000
0000
0000
,
0000
0000
1000
0000
,
1001
0000
0000
0000
,
0110
0000
0000
0000
,
1001
0000
0000
0000
,
0000
0000
1000
0000
,
1001
0000
0000
0000
,
0000
0000
0001
0000
,
1001
0000
0000
0000
,
0000
0000
0010
0000
,
0110
0000
0000
0000
,
1001
0000
0000
0000
,
0010
0000
0010
0000
,
0010
0000
0010
0000
,
0100
0000
0100
0000
,
0100
0000
0100
0000
,
0001
0000
0001
0000
,
0001
0000
0001
0000
,
1000
0000
1000
0000
,
1000
0000
1000
0000
,
0001
0000
1000
0000
,
0100
0000
0010
0000
,
0001
0000
1000
0000
,
0010
0000
0100
0000
,
0010
0000
1000
0000
,
0100
0000
0010
0000
,
0001
0000
0100
0000
,
0010
0000
1000
1000
;

//---------------dance-single - ----------------
#NOTES:
     dance-single:
     :
     Easy:
     4:
     0.291,0.491,0.117,0.165,0.000,404.000,27.000,38.000,0.000,0.000:
0000
0000
0000
0000
,
0000
0000
0000
0000
,
0000
0000
0000
0000
,
0000
0000
0000
0000
,
1000
0001
0100
0010
,
0100
0001
1000
0100
,
0010
0001
0010
0100
,
1000
0001
0100
0010
,
0100
0001
1000
0100
,
0010
0001
0010
0100
,
1000
0001
0100
0010
,
0001
0001
0100
0010
,
1000
1000
0001
0100
,
0001
0001
1000
0100
,
1000
1000
0010
1000
,
0001
0001
0010
0001
,
0100
0100
0010
1000
,
0100
0100
0010
0001
,
0010
0010
0100
1000
,
0010
0010
0100
0001
,
1000
0001
1000
0010
,
0001
1000
0001
0010
,
1000
0001
1000
0100
,
0001
1000
0001
0100
,
0010
1000
0100
0010
,
0001
0100
0010
0100
,
0001
1000
0100
0010
,
0001
0010
0100
1000
,
0001
0100
0010
1000
,
0100
1000
0001
0100
,
0010
1000
0100
0010
,
0100
0100
0010
0100
,
0001
0001
1000
0010
,
1000
1000
0001
0010
,
0001
0001
0100
0001
,
1000
1000
0100
1000
,
0010
0010
0100
0001
,
0010
0010
0100
1000
,
0100
0100
0010
0001
,
0100
0100
0010
1000
,
1001
0000
0000
0000
,
0000
0000
0000
0000
,
2000
0000
0000
0000
,
0000
0000
3100
1000
,
0001
0100
0000
0010
,
0000
1000
0001
0020
,
0000
0000
0000
0000
,
0000
0130
0010
0001
,
1000
0000
0001
0000
,
0100
0000
0010
0000
,
0100
0000
0100
0000
,
0010
0000
0010
0000
,
1000
0000
1000
0000
,
0001
0000
0001
0000
,
0010
0100
1000
0001
,
0100
0010
1000
0001
,
0010
0100
1000
0001
,
0100
0010
0100
0000
,
2002
0000
0000
0000
,
0000
0000
0000
3003
,
0022
0000
0000
0033
,
2200
3300
0202
0303
,
2002
0000
0000
0000
,
0000
0000
0000
3003
,
0110
0000
0000
0000
,
0000
0000
0000
0000
,
2002
0000
0000
0000
,
0000
0000
0000
3003
,
2020
0000
0000
3030
,
0202
0303
2200
3300
,
2002
0000
0000
0000
,
0000
0000
0000
3003
,
0110
0000
0000
0000
,
0000
0000
0000
0000
,
0200
0000
0010
0000
,
0010
0000
0320
0000
,
2030
0000
0001
0000
,
0100
0000
3200
0000
,
0320
0000
0001
0000
,
1000
0000
0032
0000
,
0203
0000
0010
0000
,
1000
0000
0001
0000
,
0320
0000
1000
0000
,
0001
0000
2030
0000
,
3200
0000
0010
0000
,
1000
0000
0320
0000
,
0032
0000
1000
0000
,
0010
0000
0203
0000
,
0310
0000
0000
0000
,
0000
0000
0110
0000
,
1000
0000
0001
0000
,
0100
0000
0001
0000
,
1000
0000
0100
0000
,
0010
0000
0001
0000
,
0010
0000
0100
0000
,
1000
0000
0001
0000
,
0110
0000
0000
0000
,
0000
0000
0000
0000
,
1000
0000
1100
0000
,
0101
0000
0110
0000
,
1001
0000
0100
0000
,
0010
0000
1000
0001
,
0010
0000
0110
0000
,
0100
1000
0001
0000
,
0101
0000
0010
0000
,
1010
0000
0000
0000
,
0110
0000
0101
0000
,
1000
0000
0100
0000
,
0220
0000
0000
0330
,
1001
0000
0110
0000
,
0010
0000
1000
0000
,
0001
0000
0010
0000
,
0100
0000
0100
0000
,
1000
0000
0001
0000
,
0100
0000
0100
0000
,
0010
0000
1000
0001
,
0010
0000
0100
0000
,
1000
0001
0100
0010
,
1000
0000
1000
0000
,
0001
0000
0001
0000
,
0010
0010
0010
0100
,
0100
2000
0000
0000
,
3001
0100
0001
1000
,
0100
0010
0001
1000
,
0010
1000
0100
0010
,
0001
0010
0100
1000
,
0001
0100
0010
1000
,
0001
0010
0100
1000
,
0100
0010
0001
1000
,
0100
0010
0100
1000
,
0001
0000
0000
0000
,
0000
0000
0100
0000
,
0001
0000
0000
0000
,
0000
0000
0100
0000
,
1000
0000
0000
0000
,
0000
0000
0010
0000
,
0001
0000
0000
0000
,
0000
0000
0010
0000
,
1000
0000
0000
0000
,
0000
0000
1000
0000
,
0100
0000
0000
0000
,
0000
0000
0001
0000
,
0100
0000
0000
0000
,
0000
0000
0010
0000
,
1000
0000
0000
0000
,
0000
0000
0010
0000
,
1000
1000
0001
0100
,
0001
0001
1000
0100
,
1000
1000
0010
1000
,
0001
0001
0010
0001
,
0100
0100
0010
1000
,
0100
0100
0010
0001
,
0010
0010
0100
1000
,
0010
0010
0100
0001
,
0001
0001
1000
0010
,
1000
1000
0001
0010
,
0001
0001
0100
0001
,
1000
1000
0100
1000
,
0010
0010
0100
0001
,
0010
0010
0100
1000
,
0100
0100
0010
0001
,
0100
0100
0010
1000
;

//---------------dance-single - ----------------
#NOTES:
     dance-single:
     :
     Medium:
     7:
     0.408,0.527,0.247,0.017,0.020,597.000,57.000,4.000,0.000,0.000:
0000
0000
0000
0000
,
0000
0000
0000
0000
,
0000
0000
0000
0000
,
0000
0000
0000
0000
,
1000
0000
0001
0100
0010
1000
0001
0000
,
1000
0000
0001
0010
0100
1000
0001
0000
,
0100
0000
0010
1000
0100
0010
0001
0000
,
0100
0000
0010
1000
0100
0010
0100
0000
,
0010
0000
0001
0100
0010
1000
0010
0000
,
0100
0000
0001
1000
0100
0010
0001
0000
,
0010
0000
0100
1000
0001
0100
0010
0000
,
0100
0100
0001
1001
,
0100
0000
0100
0000
0010
0000
0001
0001
,
1000
0000
1000
0000
0010
0000
0100
0100
,
0001
0000
1000
0000
0100
0000
0010
0010
,
0100
0000
0100
0000
1000
0000
0001
0100
,
0010
0000
1000
0000
0001
0000
0100
0100
,
0001
0000
0001
0000
1000
0000
0100
0010
,
0001
0000
1000
0000
0010
0000
0100
0100
,
0001
0000
0001
0000
1000
0000
0010
1000
,
0001
0000
1000
0010
0100
0001
1000
0000
,
0001
0000
1000
0100
0010
0001
1000
0000
,
0010
0000
0100
0001
0010
0100
1000
0000
,
0010
0000
0100
0001
0010
0100
0010
0000
,
0100
0000
1000
0010
0100
0001
0100
0000
,
0010
0000
1000
0001
0010
0100
1000
0000
,
0100
0000
0010
0001
1000
0010
0100
0000
,
0010
0000
1000
0001
0010
0100
1000
0000
,
1000
0000
0001
0100
0010
1000
0001
0000
,
1000
0000
0001
0010
0100
1000
0001
0000
,
0100
0000
0010
1000
0100
0010
0001
0000
,
0100
0100
0001
1001
,
0100
0000
0100
0000
0010
0000
0001
0001
,
1000
0000
1000
0000
0010
0000
0100
0100
,
0001
0000
1000
0000
0100
0000
0010
0010
,
0100
0000
0100
0000
1000
0000
0001
0100
,
0010
0000
1000
0000
0001
0000
0100
0100
,
0001
0000
0001
0000
1000
0000
0100
0010
,
0001
0000
1000
0000
0010
0000
0100
0100
,
0001
0000
0001
0000
1000
0000
0010
1000
,
1001
0000
0000
0000
,
0000
0000
0000
0000
,
0010
1000
0010
0100
,
0001
0000
1000
0000
0100
0000
0010
0100
,
0010
0001
0100
0010
,
0100
0001
1000
0100
,
0010
0100
1000
0001
,
0100
0010
0100
0001
,
0100
0010
1000
0100
,
0010
0100
1000
0000
,
0001
0100
0001
1000
,
0100
0010
0100
1000
,
0001
0100
0010
1000
,
0010
0100
0001
1001
,
0100
0100
1000
1000
,
0001
0001
0100
0100
,
0010
0010
1000
1000
,
0001
0001
0010
0010
,
0110
0000
0100
0000
,
1000
0000
0001
0000
,
0101
0000
0010
0000
,
1010
0000
1001
0000
,
0011
0000
0100
0000
,
1000
0000
0001
0000
,
0110
0000
0000
0000
,
0000
0000
0000
0000
,
1001
0000
0100
0000
,
1000
0000
0001
0000
,
0101
0000
0010
0000
,
1010
0000
0011
0000
,
0110
0000
0100
0000
,
1000
0000
0001
0000
,
1001
0000
0000
0000
,
0000
0000
0000
0000
,
0110
0000
0100
0000
,
0001
0000
1000
0000
,
0101
0000
0010
0000
,
1001
0000
0100
0000
,
0011
0000
0100
0000
,
0010
0000
0001
0000
,
0110
0000
1000
0000
,
1001
0000
0100
0000
,
1010
0000
0100
0000
,
0001
0000
0110
0000
,
1100
0000
0001
0000
,
0001
0000
0101
0000
,
1010
0000
1000
0000
,
0100
0000
1001
0000
,
0110
0000
0000
0000
,
0000
0000
1001
0000
,
0100
0010
1000
0010
,
0100
0001
1000
0100
,
0010
0001
0010
0100
,
1000
0001
0100
0010
,
1000
1000
0001
0001
,
1000
0010
0220
0000
,
0000
0000
0000
0000
,
0330
0000
0000
2002
0000
0000
0000
0000
0000
0000
0000
0000
0000
0000
3003
0000
,
0010
0000
0101
0000
,
1001
0000
1100
0000
,
0010
0000
0011
0000
,
1001
0000
1010
0000
,
0100
0000
0101
0000
,
1001
0000
1100
0000
,
0010
0000
0011
0000
,
1001
0000
1010
0000
,
0100
0000
0101
0000
,
1100
0000
0110
0000
,
0001
0000
1010
0000
,
0101
0000
1001
0000
,
0100
0000
1010
0000
,
0011
0000
0110
0000
,
1100
0000
1001
0000
,
0110
0000
1001
0000
,
0100
0100
0001
0001
,
1000
1000
0001
1000
,
0010
0010
0100
0100
,
0001
1000
0100
0010
,
0001
0001
0100
0100
,
0010
0010
1000
1000
,
0001
0001
0001
0100
,
0001
1000
0100
0000
,
0010
0001
0010
0100
,
1000
0001
0100
0010
,
1000
0001
0010
0001
,
0100
0010
1000
0010
,
0100
0001
0010
0100
,
1000
0001
0100
0010
,
0100
0001
1000
0100
,
0010
0100
1000
0001
,
1000
0100
0001
0100
,
1000
0010
0001
0010
,
1000
0100
0010
0001
,
0100
0010
1000
0010
,
0100
0001
0100
1000
,
0001
0010
1000
0010
,
0100
0001
1000
0100
,
0001
0100
1000
0010
,
0001
0010
1000
0100
,
0010
0001
0010
0100
,
1000
0001
0100
1000
,
0100
0001
0010
1000
,
0010
0001
0100
0010
,
1000
0100
0001
0100
,
1000
0010
0100
0001
,
0010
1000
0010
0001
,
0010
0000
0010
0000
0100
0000
1000
1000
,
0001
0000
0001
0000
0100
0000
0010
0010
,
1000
0000
0001
0000
0010
0000
0100
0100
,
0010
0000
0010
0000
0001
0000
1000
0010
,
0100
0000
0001
0000
1000
0000
0010
0010
,
1000
0000
1000
0000
0001
0000
0010
0100
,
1000
0000
0001
0000
0100
0000
0010
0010
,
1000
0000
1000
0000
0001
0000
0100
0001
,
1000
0000
0100
0000
1000
0000
0000
0001
0000
0001
0100
0000
0001
0000
0000
0000
,
0001
1000
0100
0010
0100
1000
0001
0000
,
0001
0000
0100
0000
0001
0000
0000
1000
0000
1000
0100
0000
1000
0000
0000
0000
,
1000
0001
0100
0010
0100
0001
1000
0000
,
1000
0000
0010
0000
1000
0000
0000
0001
0000
0001
0010
0000
0001
0000
0000
0000
,
0001
1000
0010
0100
0010
1000
0001
0000
,
0001
0000
0010
0000
0001
0000
0000
1000
0000
1000
0010
0000
1000
0000
0000
0000
,
1000
0001
0010
0100
0010
0001
1000
0001
;
