#TITLE:Vanity Angel;
#SUBTITLE:;
#ARTIST:FIXX;
#TITLETRANSLIT:;
#SUBTITLETRANSLIT:;
#ARTISTTRANSLIT:;
#CREDIT:;
#BANNER:Vanity Angel-bn.png;
#BACKGROUND:Vanity Angel-bg.png;
#LYRICSPATH:;
#CDTITLE:!Dan23!.png;
#MUSIC:VANITY ANGEL.mp3;
#OFFSET:-0.260;
#SAMPLESTART:34.500;
#SAMPLELENGTH:12.000;
#SELECTABLE:YES;
#BPMS:0.000=140.000;
#STOPS:;
#BGCHANGES:;
// cache tags:
#FIRSTBEAT:16.000;
#LASTBEAT:211.500;
#SONGFILENAME:Songs/Fresh Flock of Fantastic Files F4/(Dan23) Vanity Angel/VANITY ANGEL.sm;
#HASMUSIC:1;
#HASBANNER:1;
#MUSICLENGTH:93.570;
// end cache tags

//---------------dance-single - ----------------
#NOTES:
     dance-single:
     :
     Hard:
     11:
     0.948,0.989,1.000,0.032,1.000,504.000,114.000,3.000,0.000,0.000:
0000
0000
0000
0000
,
0000
0000
0000
0000
,
0000
0000
0000
0000
,
0000
0000
0000
0000
,
1001
0100
1010
0001
0011
1000
1100
0010
,
1001
0000
0100
0000
0101
0000
1000
0000
1010
0000
0001
0000
1001
0000
0100
0010
,
1100
0000
0001
0000
0101
0000
1000
0010
0101
0000
1000
0000
1100
0000
0010
0100
,
1001
0000
0010
0000
1010
0000
0001
0000
1001
0010
0100
0001
0010
0100
1000
0010
,
0102
0000
1000
0003
0100
0000
0100
0010
1000
0000
0001
0000
0011
0000
1000
0000
,
1100
0000
0010
0000
0101
1000
0010
0100
1001
0010
0100
0001
1100
0010
0100
0001
,
1001
0000
0100
0010
0100
0000
0100
0010
0000
0110
0000
0010
1000
0000
0010
0100
,
0001
0010
0100
1000
0100
0010
0001
0100
0010
0100
0001
1000
0100
0010
0100
1000
,
1001
0000
0110
0000
1100
0000
0001
0001
1000
0000
0010
0000
0110
0000
0001
0000
,
1001
0000
1000
0000
1010
0000
0001
0000
1001
0000
0100
0000
1100
0010
0100
0001
,
1001
0100
1100
1001
1001
1000
0001
0100
,
1010
0001
0010
0100
1000
0001
0010
0100
1000
0010
0100
0001
1000
0100
1000
0001
,
1100
0001
0000
0001
0000
0001
0000
1000
,
1100
0000
0000
0010
0000
0000
0100
0000
0101
0000
0000
1000
0000
0000
0010
0000
,
1001
0000
0000
0000
0000
0000
0000
0000
0010
0000
0000
0000
0101
0000
0000
0000
0000
0000
0000
0000
0000
0000
0000
0000
1100
0000
0000
0000
0000
0000
0100
0010
,
0001
0000
0000
0000
1000
0000
0000
0000
0101
0000
0000
1000
0000
0000
0001
0000
,
0110
0010
0000
1000
0010
0000
0100
0001
0000
1100
0000
0010
0100
0000
1001
0000
,
1100
0001
0000
0010
0100
0000
1000
0001
0000
1100
0000
0010
0100
0000
1001
0000
,
0101
1000
0000
0010
0100
0000
0001
1000
0000
0110
0000
0001
0100
0000
1010
0000
,
0101
1000
0010
0100
0001
1000
0100
0010
0001
1000
0100
0010
0001
0100
0010
1000
,
1001
0010
0000
1000
0010
0000
0100
0001
0000
1100
0000
0010
0100
0000
1001
0000
,
0110
0001
0000
1000
0010
0000
0100
0001
0000
1001
0000
0100
0010
0000
1100
0000
,
0101
0000
1000
0000
1100
0000
0010
0100
1001
0000
0010
0000
1010
0000
0001
0100
,
1001
0000
0001
1000
0110
0000
1000
0010
0101
1000
0010
0100
1001
0010
0100
0001
,
1100
0000
0001
0000
1000
0100
0000
0100
0010
0000
0010
0001
0000
1001
0000
1001
,
0000
1000
0010
0000
0010
0100
0000
0100
0001
0000
0001
1000
0000
0110
0000
0110
,
0000
0100
0001
0000
0001
1000
0000
1000
0010
0000
0010
1000
0000
0101
0000
0101
,
0000
1000
0100
0000
0100
0010
0000
0010
0001
0100
0010
1000
0100
0010
0001
0100
,
1010
0000
0001
0000
0001
0100
0000
0010
1000
0000
0100
0010
0000
0011
0000
0011
,
0000
0001
0100
0000
0010
1000
0000
0100
1000
0000
0001
0010
0000
1100
0000
1100
,
0000
0010
0100
0000
0001
1000
0000
0100
0010
0000
0010
0001
0000
1100
0000
1100
,
0000
0010
0100
0000
0100
0001
0000
0001
1000
0100
0010
0001
1000
0010
0100
0001
,
1000
0000
0000
1000
0010
0000
0000
0010
0100
0000
0000
0100
0001
0000
1001
0000
,
1001
0000
0000
0001
1000
0000
0000
1000
0010
0000
0000
0010
0100
0000
0110
0000
,
0110
0000
0000
1000
0010
0000
0000
0010
0100
0000
0000
0100
0001
0000
1100
0000
,
1100
0000
0010
0100
0010
0000
1001
0000
0100
1000
0100
0000
0110
0000
0011
0000
,
1001
0000
0010
0100
0010
0000
1100
0000
0001
0100
0001
0000
1001
0000
1100
0000
,
0110
0000
0001
0000
1001
0000
0100
0000
0110
0000
0010
0100
0010
0000
0101
0000
,
1000
0010
0100
0001
0010
0100
1000
0100
1000
0010
0100
0010
0100
0001
0010
0100
,
1010
0001
0100
0010
0100
0001
0010
0001
1000
0100
1000
0010
0100
0001
1000
0010
,
0101
0000
1000
0000
0010
0100
0000
0100
0010
0000
0010
1000
0000
0101
0000
0101
,
0000
1000
0100
0000
0100
0010
0000
0010
0001
0000
0001
1000
0000
1001
0000
1001
,
0000
1000
0001
0000
0001
1000
0000
1000
0010
0000
0010
0100
0000
0101
0000
0101
,
0000
1000
0010
0000
0010
0100
0000
0100
0001
0010
0100
1000
0010
0100
0001
1000
,
0110
0000
0010
0000
0100
0001
0000
0001
1000
0000
0010
0100
0000
0110
0000
0110
,
0000
1000
0010
0000
0100
0001
0000
1000
0100
0000
0010
0001
0000
1001
0000
1001
,
0000
0100
0010
0000
1000
0100
0000
0001
0010
0000
1000
0010
0000
0101
0000
0101
,
0000
1000
0100
0010
0001
0100
0010
0100
0001
1000
0100
1000
0010
0100
0001
1000
,
0220
0000
0000
0000
0000
0000
0000
0330
;
