#TITLE:Ω;
#SUBTITLE:;
#ARTIST:Max Dragon;
#TITLETRANSLIT:OMEGA;
#SUBTITLETRANSLIT:;
#ARTISTTRANSLIT:;
#CREDIT:;
#BANNER:Omega-bn.png;
#BACKGROUND:Omega-bg.png;
#LYRICSPATH:;
#CDTITLE:!aptitle.png;
#MUSIC:Omega.mp3;
#OFFSET:-0.046;
#SAMPLESTART:117.000;
#SAMPLELENGTH:21.250;
#SELECTABLE:YES;
#BPMS:0.000=87.500,14.000=43.750,14.500=87.500,15.000=175.000,16.000=350.000,121.000=300.000,129.000=350.000,313.000=300.000,321.000=350.000,385.000=175.000,393.000=15.000,394.000=30.000,394.500=60.000,395.000=120.000,427.000=240.000,491.000=350.000;
#STOPS:40.500=1.200
,64.000=1.371
;
#BGCHANGES:;
// cache tags:
#FIRSTBEAT:16.000;
#LASTBEAT:683.000;
#SONGFILENAME:Songs/Community Keyboard Megapack - Volume 1/(Aperson) Omega/omega.sm;
#HASMUSIC:1;
#HASBANNER:1;
#MUSICLENGTH:150.987;
// end cache tags

//---------------dance-single - ----------------
#NOTES:
     dance-single:
     :
     Hard:
     11:
     0.921,1.000,0.384,0.053,0.500,907.000,58.000,8.000,0.000,0.000:  // measure 1
0000
0000
0000
0000
,  // measure 2
0000
0000
0000
0000
,  // measure 3
0000
0000
0000
0000
,  // measure 4
0000
0000
0000
0000
,  // measure 5
1000
0100
1000
0100
1000
0000
0000
0000
,  // measure 6
0001
0010
0001
0010
0001
0000
0000
0000
,  // measure 7
1000
0001
1000
0000
0001
1000
0001
0000
,  // measure 8
0000
0000
0000
0000
1000
0010
0100
0000
,  // measure 9
0001
0100
0010
0000
1000
0100
0010
0000
,  // measure 10
0001
0010
0001
0100
0001
0000
0101
0000
,  // measure 11
0000
0000
1001
0000
1000
0001
1000
0000
,  // measure 12
0000
0000
1000
0001
1000
0010
0100
0000
,  // measure 13
0000
0000
0010
1000
0010
0000
1000
0010
,  // measure 14
1000
0000
0000
0000
0000
0000
1000
0010
,  // measure 15
0100
0000
0001
0100
0010
0000
1000
0100
,  // measure 16
0010
0000
0001
1000
0001
0100
0001
0000
,  // measure 17
0101
0000
0001
0100
0001
0100
0001
0000
,  // measure 18
1000
0010
1000
0010
1000
0000
0100
0000
,  // measure 19
0010
0000
0001
1000
0001
1000
0001
0000
,  // measure 20
0100
0010
0100
0010
0100
0010
0100
0000
,  // measure 21
0000
0000
0001
0100
0001
0100
0001
0000
,  // measure 22
1000
0100
1000
0100
1000
0000
0001
0000
,  // measure 23
0010
0000
0100
1000
0100
1000
0100
0000
,  // measure 24
0010
0001
0010
0001
0010
0001
0010
0000
,  // measure 25
1100
0000
0010
0100
0001
0100
0010
0000
,  // measure 26
1000
0010
0100
0001
0100
0000
0010
0000
,  // measure 27
1000
0000
0100
0010
0001
0010
0100
0000
,  // measure 28
1000
0100
0010
0001
0010
0100
1000
0000
,  // measure 29
0000
0000
0001
1000
0010
0100
0010
0000
,  // measure 30
0100
0010
1000
0010
0100
0000
0001
0000
,  // measure 31
0010
0000
0100
1000
0100
1000
0001
0010
,  // measure 32
0001
0010
0001
1000
0100
0010
0001
0100
,  // measure 33
0010
1000
0100
0000
0010
0000
0001
1000
,  // measure 34
0000
1000
0001
0000
0010
0000
0100
0000
,  // measure 35
1000
0000
0010
0000
0100
0000
0001
0100
,  // measure 36
0000
0100
0001
0000
0010
0000
0100
0000
,  // measure 37
1000
0000
0010
0000
0100
0000
0001
1000
,  // measure 38
0000
1000
0001
0000
0010
0000
0100
1000
,  // measure 39
0000
1000
0100
0000
0010
0000
0001
0100
,  // measure 40
0000
0100
0010
0000
1000
0000
0010
0000
,  // measure 41
1000
0000
0100
0000
0010
0001
0010
0000
,  // measure 42
0100
1000
0100
0000
1000
0010
1000
0000
,  // measure 43
0001
0100
0001
0000
0010
0000
0100
0000
,  // measure 44
1000
0010
0100
0001
,  // measure 45
0000
0000
1000
0100
1000
0000
0100
0010
,  // measure 46
0100
0000
0010
0001
0010
0000
0001
1000
,  // measure 47
0001
0000
1000
0100
0010
0001
0100
0010
,  // measure 48
1000
0001
0010
0100
1000
0010
0100
0001
,  // measure 49
1000
0000
1001
0000
0001
1000
0100
0000
,  // measure 50
0000
0000
0100
0000
1000
0001
0100
0000
,  // measure 51
0110
0000
0000
0000
0010
1000
0010
0000
,  // measure 52
1001
1100
0000
0011
,  // measure 53
0000
0000
0110
0000
0010
0100
0001
0000
,  // measure 54
0000
0000
0001
0000
0100
0010
1000
0000
,  // measure 55
1001
0000
0000
0000
1000
0100
1000
0000
,  // measure 56
0110
0101
0000
1010
,  // measure 57
0000
0000
1001
0000
1000
0001
0010
0000
,  // measure 58
0000
0000
0010
0000
0001
1000
0010
0000
,  // measure 59
0110
0000
0000
0000
0100
0001
0100
0000
,  // measure 60
1001
0011
0000
1100
,  // measure 61
0000
0000
0110
0000
0010
0100
0001
0000
,  // measure 62
0000
0000
0010
0000
1000
0010
0100
0000
,  // measure 63
1010
0000
0000
0000
1000
0001
1000
0000
,  // measure 64
0101
0110
0000
1010
,  // measure 65
0000
0000
1000
0100
1000
0010
1000
0000
,  // measure 66
0000
0000
0001
0010
0001
0100
0001
0000
,  // measure 67
0000
0000
0001
0100
0010
0000
1000
0010
,  // measure 68
0100
0000
0000
0000
0000
0000
1000
0100
,  // measure 69
0010
0000
0001
0010
0100
0000
1000
0010
,  // measure 70
0100
0000
1000
0100
0010
0001
0010
0000
,  // measure 71
0010
0100
0000
0100
1000
0000
1001
0000
,  // measure 72
1000
0100
0000
0100
0010
0000
0110
0000
,  // measure 73
1001
0000
1000
0010
1000
0100
1000
0000
,  // measure 74
0000
0000
0001
1000
0001
0100
0001
0000
,  // measure 75
0000
0000
0100
0001
1000
0000
1000
0001
,  // measure 76
0100
0000
0000
0000
0000
0000
0100
0001
,  // measure 77
0010
0000
0010
0001
0100
0000
0100
0010
,  // measure 78
1000
0000
1000
0010
0100
0001
0010
0000
,  // measure 79
0011
0000
1000
0100
1000
0100
0000
0000
,  // measure 80
1000
0010
0000
0010
0100
0000
0000
0000
,  // measure 81
1001
0000
1000
0100
0000
0010
0001
0000
,  // measure 82
0100
0001
0000
0010
0100
0000
1000
0000
,  // measure 83
1100
0000
1000
0010
0000
0100
0001
0000
,  // measure 84
0010
0001
0000
0001
1000
0000
0010
0000
,  // measure 85
1010
0000
0100
0010
0000
1000
0010
0000
,  // measure 86
0100
0001
0000
0001
1000
0000
0100
0000
,  // measure 87
1100
0000
0010
1000
0000
1000
0100
0000
,  // measure 88
1000
0010
0000
1000
0001
0000
0100
0000
,  // measure 89
0101
0000
0010
1000
0000
0010
1000
0000
,  // measure 90
0001
0100
0000
0010
1000
0000
0110
0000
,  // measure 91
0110
0000
0001
1000
0000
0001
1000
0000
,  // measure 92
0010
0100
0000
0001
1000
0000
0101
0000
,  // measure 93
0101
0000
1000
0100
0000
1000
0100
0000
,  // measure 94
0010
0001
0000
1000
0100
0000
1001
0000
,  // measure 95
1001
0000
0010
0100
0000
0010
0100
0000
,  // measure 96
0001
0100
0000
0100
0010
0000
1100
0000
,  // measure 97
0011
0000
0000
0000
1001
0000
0000
0000
1000
0100
0000
0100
0010
0000
0010
0001
,  // measure 98
0000
0001
0000
0000
0000
0000
1000
0010
0000
0010
0100
0000
0100
0001
0000
0001
,  // measure 99
1000
0000
0000
0010
0000
0000
2020
0000
0000
0000
0000
0000
0000
0000
0000
3030
0000
0000
1000
0000
0100
0000
0001
0000
,  // measure 100
0100
1000
0100
0010
0001
0100
0010
1000
0001
0010
0100
1000
,  // measure 101
1000
0000
1000
0010
0100
0001
0100
0001
0010
0100
1000
0100
,  // measure 102
1000
0010
1000
0001
0100
0010
0100
0010
1000
0001
1000
0100
,  // measure 103
0001
0100
1000
0100
0010
0001
0200
0000
0300
0010
0001
1000
,  // measure 104
0100
1000
0010
0100
0001
0100
0010
1000
0010
0100
0001
0010
,  // measure 105
0010
0000
0100
1000
0010
1000
0001
1000
0010
0100
0001
0010
,  // measure 106
0100
1000
0100
0010
0100
0010
0001
1000
0001
0100
1000
0100
,  // measure 107
0001
1000
0100
0001
0100
1000
0200
0000
0300
0001
0000
0010
,  // measure 108
0000
1000
0000
0010
0000
0001
0000
0000
0000
1000
0000
0100
,  // measure 109
0000
0010
0000
0001
0000
0000
0000
1000
0000
0010
0000
0100
,  // measure 110
0000
0001
0000
0000
0000
0001
0000
0010
0000
0000
0000
0010
,  // measure 111
0000
0100
0000
1000
0000
0001
0000
1000
0000
0100
0000
0000
,  // measure 112
0000
0100
0000
0010
0000
0000
0000
0010
0000
0001
0000
1000
,  // measure 113
0000
0010
0000
0100
0000
0001
0000
0010
0000
0100
0000
0010
,  // measure 114
0000
0001
0000
0010
0000
0001
0000
0100
0000
0001
0000
0010
,  // measure 115
0000
0100
0000
0000
0000
0100
0000
0010
0000
0001
0000
0010
,  // measure 116
0000
0100
0000
1000
0000
0000
0000
1000
0000
0010
0000
0100
,  // measure 117
0000
0001
0000
0000
0000
0001
0000
0010
0000
0100
0000
1000
,  // measure 118
0000
0100
0000
0010
0000
0000
0000
0010
0000
0001
0000
0000
,  // measure 119
0000
0001
0000
1000
0000
0000
0000
1000
0000
0001
0000
0100
,  // measure 120
0000
0010
0000
1000
0000
0000
0000
1000
0000
0100
0000
0000
,  // measure 121
0000
0100
0000
0010
0000
0000
0000
0010
0000
0001
0000
1000
,  // measure 122
0000
0100
0000
0010
0000
0100
0000
1000
0000
0001
0000
0100
,  // measure 123
0000
0000
0202
0000
0000
0000
0000
0000
0000
0000
0000
0000
0000
0000
0303
0000
0000
0000
1000
0000
0000
0100
0000
0000
,  // measure 124
0010
0001
0010
0000
0010
0001
1000
0100
,  // measure 125
0010
0000
0010
0001
0100
0001
0010
0000
,  // measure 126
0100
1000
0100
0010
0001
0000
0001
1000
,  // measure 127
0010
1000
0100
0000
0010
0001
0010
0100
,  // measure 128
1000
0000
1000
0010
1000
0100
0010
0000
,  // measure 129
0010
0001
0100
0010
1000
0000
1000
0010
,  // measure 130
0100
0000
0001
0100
0010
0000
1000
0010
,  // measure 131
1000
0000
0001
0100
0001
0000
1000
0001
,  // measure 132
1000
0010
0100
0000
0010
1000
0010
0100
,  // measure 133
0001
0000
1000
0010
0100
0001
1000
0001
,  // measure 134
0010
0000
0010
0001
0010
0000
0100
1000
,  // measure 135
0100
0000
1000
0001
0100
0000
0010
1000
,  // measure 136
0010
0100
0001
0100
0010
1000
0100
0001
,  // measure 137
0100
1000
0000
1000
0001
1000
0010
0100
,  // measure 138
0001
0010
0100
1000
0001
0100
0010
1000
,  // measure 139
0100
0000
0001
0100
0010
0000
1001
0000
,  // measure 140
1000
0010
0000
1000
0010
0000
0101
0000
,  // measure 141
1000
0001
0000
1000
0001
0000
1010
0000
,  // measure 142
0100
0010
0000
0100
0010
0000
1001
0000
,  // measure 143
1010
0000
0000
0110
0000
0000
1001
0000
,  // measure 144
1000
0010
1000
0000
0100
0000
1100
0000
,  // measure 145
0010
0001
0100
0000
0001
0000
0101
0000
,  // measure 146
1000
0001
0100
0000
0010
0000
0110
0000
,  // measure 147
1100
0000
0000
0101
0000
0000
1001
0000
,  // measure 148
1000
0010
0100
0001
0010
0100
1000
0000
,  // measure 149
0001
0100
0010
1000
0001
0010
0100
0000
,  // measure 150
0010
0100
1000
0001
1000
0010
0100
0000
,  // measure 151
0001
1000
0010
1000
0100
0010
0001
0100
,  // measure 152
0010
1000
0010
0100
0001
0100
0001
1000
,  // measure 153
0010
1000
0010
0100
0010
0100
0010
1000
,  // measure 154
0100
1000
0100
0010
0001
0010
0001
1000
,  // measure 155
0100
0000
0000
0010
0000
0000
0001
0000
0000
0010
0000
0000
0100
0000
0000
1000
0000
0000
0001
0000
0000
0000
0100
0000
,  // measure 156
0000
0001
0000
0000
0000
0000
0000
0000
0000
1000
0000
0010
,  // measure 157
0000
1000
0000
0000
0000
0000
0000
0000
0000
0010
0000
0100
,  // measure 158
0000
0010
0000
0000
0000
0000
0000
0000
0000
1000
0000
0001
,  // measure 159
0000
1000
0000
0000
0000
0000
0000
0000
0000
1000
0000
0001
,  // measure 160
0000
0010
0000
0000
0000
0000
0000
0000
0000
0001
0000
1000
,  // measure 161
0000
0100
0000
0000
0000
0000
0000
0000
0000
0100
0000
0010
,  // measure 162
0000
1000
0000
0000
0000
0000
0000
0000
0000
0001
0000
0100
,  // measure 163
0000
0010
0000
0000
0000
0000
0000
0000
0000
1000
0000
0100
,  // measure 164
0000
1000
0000
0000
0000
0000
0000
0000
0000
0001
0000
0010
,  // measure 165
0000
0001
0000
0000
0000
0000
0000
0000
0000
1000
0000
0010
,  // measure 166
0000
1000
0000
0000
0000
0000
0000
0000
0000
0001
0000
0010
,  // measure 167
0000
0001
0000
0010
0000
0001
0000
0010
0000
1000
0000
1000
,  // measure 168
0000
1000
0000
0000
0000
0000
0000
0000
0000
0001
0000
0001
,  // measure 169
0000
0001
0000
0000
0000
0000
0000
0000
0000
0010
0000
0010
,  // measure 170
0000
0010
0000
0100
0000
0100
0000
0100
0000
2002
0000
0000
,  // measure 171
0000
3003
0000
0000
;

//---------------dance-single - ----------------
#NOTES:
     dance-single:
     :
     Challenge:
     11:
     1.000,1.000,0.623,0.046,0.510,965.000,94.000,7.000,0.000,0.000:  // measure 1
0000
0000
0000
0000
,  // measure 2
0000
0000
0000
0000
,  // measure 3
0000
0000
0000
0000
,  // measure 4
0000
0000
0000
0000
,  // measure 5
0001
0010
0100
0010
0001
0000
0000
0000
,  // measure 6
0100
1000
0100
0010
0001
0000
0000
0000
,  // measure 7
1000
0010
1000
0000
0001
0100
0001
0000
,  // measure 8
0000
0000
0000
0000
0001
0010
0001
0000
,  // measure 9
0010
0100
1000
0000
0001
0100
0001
0000
,  // measure 10
1000
0010
1000
0100
1000
0000
0010
0000
,  // measure 11
0010
0001
1000
0100
1000
0010
0100
0000
,  // measure 12
0000
0000
0001
0100
0001
0010
0001
0000
,  // measure 13
0000
0000
0001
0010
0001
0000
1000
0010
,  // measure 14
1000
0000
0000
0000
0000
0000
0100
0001
,  // measure 15
0010
0000
1000
0010
0100
0000
0001
0100
,  // measure 16
0010
0000
1000
0100
0010
0001
0010
0000
,  // measure 17
1001
0000
1000
0010
1000
0001
1000
0000
,  // measure 18
0010
0100
0001
0100
0010
0000
1010
0000
,  // measure 19
0110
0000
0100
0010
0100
0001
0100
0000
,  // measure 20
0010
0100
0001
0010
0100
1000
0010
0000
,  // measure 21
0000
0000
0001
0100
0001
0010
0001
0000
,  // measure 22
1000
0001
0100
0010
0100
0000
0101
0000
,  // measure 23
0110
0000
1000
0001
1000
0100
1000
0000
,  // measure 24
0010
0100
0010
1000
0010
0100
0001
0010
,  // measure 25
0100
1000
0001
0010
0001
0100
0001
0000
,  // measure 26
0001
0010
0100
1000
0100
0000
1010
0000
,  // measure 27
0110
0000
0100
0010
0100
0001
0100
0000
,  // measure 28
0100
0010
0001
0010
0100
1000
0100
0000
,  // measure 29
0000
0000
0010
0100
0010
1000
0010
0000
,  // measure 30
0001
0010
0100
1000
0100
0000
1100
0000
,  // measure 31
0011
0000
1000
0100
1000
0100
0010
0001
,  // measure 32
0010
0001
1000
0100
0010
0001
0100
0010
,  // measure 33
1000
0010
0100
0010
0000
0100
0010
0000
,  // measure 34
1000
0001
0010
0100
1000
0010
0100
0000
,  // measure 35
1010
0000
0001
0010
0000
0100
1000
0000
,  // measure 36
1000
0010
0100
0001
1000
0100
0010
0000
,  // measure 37
1001
0000
1000
0010
0000
0100
0001
0000
,  // measure 38
1000
0001
0100
0010
0100
0001
1000
0000
,  // measure 39
1100
0000
0010
0001
0010
0100
1000
0000
,  // measure 40
0100
0010
0001
0010
0100
1000
0001
0000
,  // measure 41
1010
0000
1000
0010
0100
0000
0001
0100
,  // measure 42
0010
0000
1000
0100
0010
0001
0010
0100
,  // measure 43
1000
0000
0100
0001
0010
0000
0001
1000
,  // measure 44
0100
0000
1000
0010
0100
0001
0010
0100
,  // measure 45
1000
0000
0100
0010
0001
0000
0010
0100
,  // measure 46
1000
0000
1000
0010
0100
0001
0100
0010
,  // measure 47
1000
0001
1000
0100
0010
0001
0100
0010
,  // measure 48
1000
0010
0100
0001
0010
0100
0010
0001
,  // measure 49
1010
0000
1001
0000
0001
1000
0100
0000
,  // measure 50
0000
0000
0100
0000
1000
0001
0100
0000
,  // measure 51
0110
0000
0000
0000
0010
1000
0010
0000
,  // measure 52
1001
1100
0000
0011
,  // measure 53
0000
0000
0110
0000
0010
0100
0001
0000
,  // measure 54
0000
0000
0001
0000
0100
0010
1000
0000
,  // measure 55
1001
0000
0000
0000
1000
0100
1000
0000
,  // measure 56
0110
0101
0000
1010
,  // measure 57
0000
0000
1001
0000
1000
0001
0010
0000
,  // measure 58
0000
0000
0010
0000
0001
1000
0010
0000
,  // measure 59
0110
0000
0000
0000
0100
0001
0100
0000
,  // measure 60
1001
0011
0000
1100
,  // measure 61
0000
0000
0110
0000
0010
0100
0001
0000
,  // measure 62
0000
0000
1000
0000
0000
0000
1000
0010
,  // measure 63
1000
0001
1000
0010
1000
0001
1000
0010
,  // measure 64
1000
0001
1000
0010
1000
0001
0100
0001
,  // measure 65
0010
0100
1001
0100
0010
0000
1010
0000
,  // measure 66
0000
0000
1000
0100
0010
0001
0010
0000
,  // measure 67
0000
0000
0010
0001
0010
0000
0100
1000
,  // measure 68
0100
0000
0000
0000
0000
0000
0001
0100
,  // measure 69
0010
0000
1000
0010
0100
0000
0001
0010
,  // measure 70
0100
0000
0001
0010
1000
0010
0001
0000
,  // measure 71
1001
0000
0100
1000
0100
1000
0100
0000
,  // measure 72
0100
0010
0001
1000
0001
1000
0001
0000
,  // measure 73
0110
0000
1000
0100
0010
0100
1000
0000
,  // measure 74
0000
0000
0001
0100
1000
0100
0010
0000
,  // measure 75
0000
0000
1000
0010
1000
0000
0100
0001
,  // measure 76
0100
0000
0000
0000
0000
0000
0010
0001
,  // measure 77
0100
0000
0010
1000
0100
0000
0010
0001
,  // measure 78
1000
0000
0100
0001
0010
0100
1000
0000
,  // measure 79
1001
0000
0100
0001
0100
0001
0100
0000
,  // measure 80
0100
0010
0000
0010
1000
0000
0000
0000
,  // measure 81
1001
0000
1000
0100
0000
0010
0001
0000
,  // measure 82
0001
0100
0000
0010
1000
0000
1001
0000
,  // measure 83
0101
0000
1000
0010
0000
0100
0001
0000
,  // measure 84
0001
1000
0000
1000
0010
0000
1100
0000
,  // measure 85
0011
0000
1000
0100
0000
0100
0010
0000
,  // measure 86
0001
1000
0000
1000
0100
0000
1001
0000
,  // measure 87
0110
0000
1000
0001
0000
0100
0001
0000
,  // measure 88
0010
0100
0000
0001
0100
0000
1001
0000
,  // measure 89
0110
0000
0100
0001
0000
0001
0100
0000
,  // measure 90
1000
0010
0000
0010
1000
0000
0101
0000
,  // measure 91
0110
0000
1000
0001
0000
0001
1000
0000
,  // measure 92
0100
0010
0000
0010
0100
0000
1001
0000
,  // measure 93
0110
0000
1000
0100
0000
1000
0100
0000
,  // measure 94
0100
0010
0000
0010
0001
0000
1100
0000
,  // measure 95
0011
0000
0001
0100
0000
0001
0100
0000
,  // measure 96
0010
0100
0000
0010
1000
0000
0101
0000
,  // measure 97
0011
0000
0000
0000
1001
0000
0000
0000
1000
0100
0000
0100
0010
0000
0010
0001
,  // measure 98
0000
0001
0100
0000
0000
0000
0100
0001
0000
0001
1000
0000
1000
0010
0000
0010
,  // measure 99
0100
0000
0000
0000
0000
0000
0100
0000
0000
0010
0000
0000
2002
0000
0000
0000
0000
0000
0000
0000
0000
0000
0000
0000
0000
0000
0000
0000
0000
0000
0000
0000
0000
3003
0000
0000
0010
0000
0000
0000
0100
0000
0000
0000
0001
0000
0000
0000
,  // measure 100
0100
0010
1000
0100
0010
0100
1000
0001
1000
0100
0010
0001
,  // measure 101
0001
0000
0001
0010
0100
1000
0010
1000
0001
0100
0010
1000
,  // measure 102
0100
0010
0001
0010
0100
0010
0001
1000
0001
0100
0010
1000
,  // measure 103
0010
0100
0001
0100
0010
1000
0200
0000
0000
0301
1000
0010
,  // measure 104
0100
0010
1000
0100
0010
0100
1000
0010
0100
0010
1000
0001
,  // measure 105
0001
0000
1000
0001
0010
0001
0100
0001
0010
0100
0010
0001
,  // measure 106
1000
0100
0010
0001
1000
0001
0010
1000
0010
0001
0010
0100
,  // measure 107
1000
0100
0010
0001
1000
0001
0020
0000
0030
0001
0000
0010
,  // measure 108
0000
1000
0000
0010
0000
0001
0000
0000
0000
1000
0000
0100
,  // measure 109
0000
0010
0000
0001
0000
0000
0000
1000
0000
0010
0000
0100
,  // measure 110
0000
0001
0000
0000
0000
0001
0000
0010
0000
0000
0000
0010
,  // measure 111
0000
0100
0000
1000
0000
0001
0000
1000
0000
0100
0000
0000
,  // measure 112
0000
0100
0000
0010
0000
0000
0000
0010
0000
0001
0000
1000
,  // measure 113
0000
0010
0000
0100
0000
0001
0000
0010
0000
0100
0000
0010
,  // measure 114
0000
0001
0000
0010
0000
0001
0000
0100
0000
0001
0000
0010
,  // measure 115
0000
0100
0000
0000
0000
0100
0000
0010
0000
0001
0000
0010
,  // measure 116
0000
0100
0000
1000
0000
0000
0000
1000
0000
0010
0000
0100
,  // measure 117
0000
0001
0000
0000
0000
0001
0000
0010
0000
0100
0000
1000
,  // measure 118
0000
0100
0000
0010
0000
0000
0000
0010
0000
0001
0000
0000
,  // measure 119
0000
0001
0000
1000
0000
0000
0000
1000
0000
0001
0000
0100
,  // measure 120
0000
0010
0000
1000
0000
0000
0000
1000
0000
0100
0000
0000
,  // measure 121
0000
0100
0000
0010
0000
0000
0000
0010
0000
0001
0000
1000
,  // measure 122
0000
0100
0000
0010
0000
0100
0000
1000
0000
0001
0000
0100
,  // measure 123
0000
0000
0020
0000
0000
0000
0000
0000
0000
0000
0000
0000
0000
0000
0000
0000
0030
0000
1000
0000
0000
0100
0000
0000
,  // measure 124
0010
0001
0010
0000
0010
0100
0010
0001
,  // measure 125
0000
0001
0010
0100
0010
0001
1000
0000
,  // measure 126
1000
0100
0010
0100
1000
0000
0100
1000
,  // measure 127
0100
0010
0001
0000
0001
0010
0100
1000
,  // measure 128
0100
0000
0100
0010
0001
0010
1000
0000
,  // measure 129
1000
0010
0001
0010
0100
0000
0010
0100
,  // measure 130
1000
0000
1000
0100
0010
0000
0010
0001
,  // measure 131
0100
0000
0100
0001
1000
0000
1000
0001
,  // measure 132
0010
0100
1000
0000
1000
0100
0001
0100
,  // measure 133
1000
0000
1000
0100
0010
0001
0010
0100
,  // measure 134
0010
0000
0001
1000
0100
0000
1000
0001
,  // measure 135
0010
0000
0100
1000
0010
0000
0100
0010
,  // measure 136
1000
0100
0010
0001
0010
1000
0010
0100
,  // measure 137
0010
0001
0000
0001
0010
0001
0100
0001
,  // measure 138
0010
0100
0010
0001
1000
0010
0100
1000
,  // measure 139
0100
0010
0001
0010
0001
0000
1001
0000
,  // measure 140
1000
0100
0000
1000
0100
0000
1010
0000
,  // measure 141
0001
0010
0000
0001
0010
0000
1010
0000
,  // measure 142
0100
0010
0000
0100
0010
0000
1001
0000
,  // measure 143
0010
1000
0000
0010
1000
0000
1001
0000
,  // measure 144
1000
0010
0100
0000
0010
0100
0011
0000
,  // measure 145
1000
0001
0100
0000
0100
0010
1100
0000
,  // measure 146
0001
1000
0100
0000
0001
0010
1100
0000
,  // measure 147
0000
1010
0000
0000
0101
0000
1001
0000
,  // measure 148
0001
0100
1000
0100
0010
0001
1100
0000
,  // measure 149
0010
0100
1000
0001
1000
0010
1001
0000
,  // measure 150
0100
1000
0100
0001
0100
0001
1010
0000
,  // measure 151
0010
0001
0010
0100
1000
0010
1100
0000
,  // measure 152
0010
0100
1000
0001
1000
0010
1100
0001
,  // measure 153
0010
0100
1000
0001
1000
0010
1001
0010
,  // measure 154
0100
1000
0001
0100
0010
0100
1001
0010
,  // measure 155
0001
0000
0000
1000
0000
0000
0100
0000
0000
1000
0000
0000
0001
0000
0000
1000
0000
0000
0001
0000
0000
0000
0001
0000
,  // measure 156
0000
0001
0000
0000
0000
0000
0110
0000
0000
1000
0000
1000
,  // measure 157
0000
1000
0000
0000
0000
0000
0101
0000
0000
0100
0000
0100
,  // measure 158
0000
0100
0000
0000
0000
0000
1100
0000
0000
0010
0000
0001
,  // measure 159
0000
0010
0000
0100
0000
1000
0000
0100
0000
0001
0000
0001
,  // measure 160
0000
0001
0000
0000
0000
0000
0110
0000
0000
1000
0000
1000
,  // measure 161
0000
1000
0000
0000
0000
0000
1001
0000
0000
0100
0000
0100
,  // measure 162
0000
0100
0000
0000
0000
0000
1100
0000
0000
0010
0000
0010
,  // measure 163
0000
0010
0000
0000
0000
0000
0000
0000
0000
0001
0000
0001
,  // measure 164
0000
0001
0000
0000
0000
0000
0101
0000
0000
1000
0000
1000
,  // measure 165
0000
1000
0000
0000
0000
0000
1010
0000
0000
0100
0000
0100
,  // measure 166
0000
0100
0000
0000
0000
0000
1100
0000
0000
0010
0000
0001
,  // measure 167
0000
0010
0000
0100
0000
1000
0000
0100
0000
0011
0000
0011
,  // measure 168
0000
0011
0000
0000
0000
0000
0000
0000
0000
1100
0000
1100
,  // measure 169
0000
1100
0000
0000
0000
0000
0000
0000
0000
1001
0000
1001
,  // measure 170
0000
1001
0000
0110
0000
0110
0000
0110
0000
2020
0000
0000
,  // measure 171
0000
0000
0000
3030
;

//---------------dance-single - ----------------
#NOTES:
     dance-single:
     :
     Medium:
     10:
     0.765,1.000,0.238,0.040,0.464,767.000,36.000,6.000,0.000,0.000:  // measure 1
0000
0000
0000
0000
,  // measure 2
0000
0000
0000
0000
,  // measure 3
0000
0000
0000
0000
,  // measure 4
0000
0000
0000
0000
,  // measure 5
1000
0100
0000
0010
0001
0000
0000
0000
,  // measure 6
0001
0100
0000
0010
1000
0000
0000
0000
,  // measure 7
1000
0001
0000
0000
0001
1000
0000
0000
,  // measure 8
0000
0000
0000
0000
1000
0010
1000
0000
,  // measure 9
1000
0000
0010
0000
0100
0001
0000
0000
,  // measure 10
0010
0100
0000
0100
0001
0000
0001
0000
,  // measure 11
0000
0000
1000
0000
1000
0010
0000
0010
,  // measure 12
0000
0000
0100
0001
0000
0001
0100
0000
,  // measure 13
0000
0000
0010
0100
0000
0000
0100
0010
,  // measure 14
0000
0000
0000
0000
0000
0000
1000
0001
,  // measure 15
0000
0000
1001
0000
1000
0010
0000
0100
,  // measure 16
0001
0000
0100
0001
0100
0001
0100
0000
,  // measure 17
0101
0000
1000
0100
0000
0100
1000
0000
,  // measure 18
0001
0010
0000
0010
0001
0000
0100
0000
,  // measure 19
0010
0000
1000
0010
0000
0010
1000
0000
,  // measure 20
0001
0100
0000
0100
0001
0000
0101
0000
,  // measure 21
0000
0000
1000
0001
0000
0001
1000
0000
,  // measure 22
0010
0100
0000
0100
0010
0000
1000
0000
,  // measure 23
0001
0000
1000
0100
0000
0010
0001
0000
,  // measure 24
1000
0010
0000
0100
0001
0000
0101
0000
,  // measure 25
0000
0000
1000
0010
0000
0010
0100
0000
,  // measure 26
0100
0001
0000
0001
1000
0000
0010
0000
,  // measure 27
0000
0000
1000
0100
0000
0100
0010
0000
,  // measure 28
0010
0001
0010
0001
0010
0001
0010
0000
,  // measure 29
0000
0000
0100
1000
0000
1000
0010
0000
,  // measure 30
0010
0100
0000
0100
0001
0000
1000
0000
,  // measure 31
0010
0000
1000
0100
1000
0100
0010
0001
,  // measure 32
0010
0001
1000
0001
1000
0001
0100
0010
,  // measure 33
0100
0010
1000
0000
1000
0001
0000
0001
,  // measure 34
1000
0100
0010
0110
,  // measure 35
0000
0100
0010
0100
,  // measure 36
1000
0010
0100
1001
,  // measure 37
0000
0000
0001
0000
0100
0010
0000
0010
,  // measure 38
1000
0000
0001
0000
0001
0100
0000
0100
,  // measure 39
0010
0000
0010
0000
1000
0001
0000
0001
,  // measure 40
0100
0010
1000
0101
,  // measure 41
0000
1000
0100
0010
,  // measure 42
0001
1000
0010
0100
,  // measure 43
0001
0000
1000
0000
0100
0000
0010
0001
,  // measure 44
0000
0001
1000
0000
0100
0000
0010
0000
,  // measure 45
0000
1000
0010
0100
,  // measure 46
0001
0010
0100
1001
,  // measure 47
0000
0000
0001
0100
0001
0100
0001
0000
,  // measure 48
1000
0010
1000
0010
1000
0010
1000
0010
,  // measure 49
1000
1001
0000
1010
,  // measure 50
0000
1000
0010
0000
0100
0000
0000
0000
,  // measure 51
0101
0000
0100
0001
,  // measure 52
0010
0100
0000
0110
,  // measure 53
0000
0110
0000
1100
,  // measure 54
0000
0100
1000
0000
0001
0000
0000
0000
,  // measure 55
0011
0000
0001
0010
,  // measure 56
1000
0001
0000
1001
,  // measure 57
0000
1001
0000
0101
,  // measure 58
0000
0001
0100
0000
0010
0000
0000
0000
,  // measure 59
1010
0000
0010
1000
,  // measure 60
0100
0010
0000
0110
,  // measure 61
0000
0110
0000
0011
,  // measure 62
0000
0010
0001
0000
1000
0000
0000
0000
,  // measure 63
1100
0000
1000
0100
,  // measure 64
0001
1000
0000
1001
,  // measure 65
0000
0000
1000
0100
0000
0100
1000
0000
,  // measure 66
0000
0000
0001
0010
0000
0010
0001
0000
,  // measure 67
0000
0000
0001
0100
0000
0000
0100
0001
,  // measure 68
0000
0000
0000
0101
,  // measure 69
0000
0000
0110
0000
0000
0000
1000
0010
,  // measure 70
1000
0000
1000
0001
0000
0001
1000
0000
,  // measure 71
0000
0000
1000
0100
1000
0100
1000
0000
,  // measure 72
0001
0010
0001
0010
0001
0010
0001
0000
,  // measure 73
0000
0000
1000
0100
0000
0010
0001
0000
,  // measure 74
0000
0000
1000
0010
1000
0010
1000
0000
,  // measure 75
0000
0000
1000
0001
0000
0000
0001
1000
,  // measure 76
0000
0000
0000
1001
,  // measure 77
0000
0000
1000
0100
0000
0100
0010
0000
,  // measure 78
0000
0000
0001
0010
0001
0010
0001
0000
,  // measure 79
0000
0000
1000
0001
1000
0001
0000
0000
,  // measure 80
1000
0010
0000
0010
1000
0000
0000
0000
,  // measure 81
1001
1000
0010
1000
,  // measure 82
0010
0000
0100
0000
0001
0000
0100
0001
,  // measure 83
0100
0001
0010
0100
,  // measure 84
1000
0010
0100
0001
,  // measure 85
1000
0001
0100
0010
,  // measure 86
1000
0000
0100
0000
0010
0000
0001
1000
,  // measure 87
0001
0000
0010
0100
0000
0010
0100
0000
,  // measure 88
1000
0001
1000
0000
0100
0000
0010
0000
,  // measure 89
0001
1000
0010
0100
,  // measure 90
0001
0000
0100
0000
0010
0000
1000
0010
,  // measure 91
1000
0000
0100
0010
0000
0010
0100
0000
,  // measure 92
0001
0010
0100
1000
,  // measure 93
0001
0000
1000
0100
0000
0010
0001
0000
,  // measure 94
1000
0010
0000
0100
0001
0000
0010
0000
,  // measure 95
0100
0000
1000
0010
1000
0000
0001
0100
,  // measure 96
0001
0000
1000
0001
1000
0001
1000
0000
,  // measure 97
0000
0000
0000
0000
1001
0000
0000
0000
1000
0000
0000
0100
0000
0000
0010
0000
,  // measure 98
0000
0001
0000
0000
0000
0000
0001
0000
0000
0010
0000
0000
0100
0000
0000
1000
,  // measure 99
0000
0000
0000
0100
0000
0000
0022
0000
0000
0000
0000
0000
0000
0000
0000
0033
0000
0000
1000
0000
0100
0000
0010
0000
,  // measure 100
0001
0000
0100
0000
0010
1000
0010
0000
0001
0010
0001
0010
,  // measure 101
0000
0000
0100
1000
0000
1000
0010
0100
0001
0000
0001
0010
,  // measure 102
0001
0000
1000
0100
0010
0001
0010
0100
1000
0010
0100
0001
,  // measure 103
0100
0010
1000
0001
0010
0100
2000
0000
0000
3001
0100
0010
,  // measure 104
0000
1000
0010
0100
0000
1010
0000
0101
0000
0001
0100
0010
,  // measure 105
1000
0000
1000
0100
0000
0100
0010
0000
0010
0001
0000
0001
,  // measure 106
1000
0000
1000
0100
0010
0001
0000
0001
0010
0000
0010
0100
,  // measure 107
1000
0100
0010
0001
0100
0010
2000
0000
3000
0001
0000
0010
,  // measure 108
0000
0100
0000
1000
0000
0000
0000
1000
0000
0100
0000
0000
,  // measure 109
0000
0100
0000
0010
0000
0000
0000
0001
0000
0010
0000
0100
,  // measure 110
0000
1000
0000
0000
0000
0010
0000
0100
0000
0000
0000
0001
,  // measure 111
0000
1000
0000
0100
0000
0010
0000
0100
0000
0010
0000
0001
,  // measure 112
0000
1000
0000
0000
0000
0100
0000
0010
0000
0000
0000
0010
,  // measure 113
0000
0001
0000
0000
0000
0001
0000
0100
0000
0010
0000
1000
,  // measure 114
0000
0100
0000
0010
0000
0000
0000
0001
0000
0010
0000
0100
,  // measure 115
0000
1000
0000
0000
0000
1000
0000
0010
0000
0100
0000
0001
,  // measure 116
0000
0010
0000
0100
0000
1000
0000
0000
0000
0010
0000
0100
,  // measure 117
0000
0001
0000
0100
0000
0010
0000
1000
0000
0100
0000
0010
,  // measure 118
0000
0001
0000
0010
0000
0000
0000
0010
0000
0100
0000
0000
,  // measure 119
0000
0100
0000
1000
0000
0000
0000
1000
0000
0100
0000
0010
,  // measure 120
0000
0001
0000
0000
0000
0001
0000
0100
0000
0000
0000
0100
,  // measure 121
0000
0010
0000
0000
0000
0010
0000
1000
0000
0000
0000
1000
,  // measure 122
0000
0001
0000
0000
0000
0001
0000
0100
0000
0000
0000
0100
,  // measure 123
0000
0000
0010
0000
0000
0000
0000
0000
0000
0000
1000
0000
0000
0000
0100
0000
0000
0000
0010
0000
0000
0001
0000
0000
,  // measure 124
0000
0001
0010
0000
0100
1000
0000
1000
,  // measure 125
0100
0000
0010
0001
0000
0001
0010
0000
,  // measure 126
0100
1000
0000
1000
0100
0000
0010
1000
,  // measure 127
0010
1000
0010
0000
0100
0001
0100
0001
,  // measure 128
0100
0000
0100
0010
0000
0010
1000
0000
,  // measure 129
1000
0001
0000
0001
0100
0000
0100
0010
,  // measure 130
0000
0000
0100
0010
0000
0000
1000
0001
,  // measure 131
0000
0000
0100
0010
0000
0000
0001
1000
,  // measure 132
0001
1000
0001
0000
0100
0010
0100
0010
,  // measure 133
0100
0000
1000
0100
1000
0010
1000
0001
,  // measure 134
1000
0000
0001
0010
0000
0000
0100
1000
,  // measure 135
0000
0000
0010
0100
0000
0000
0001
0010
,  // measure 136
0001
0100
0001
0000
1000
0010
1000
0001
,  // measure 137
1000
0100
0000
0010
0001
0010
0100
1000
,  // measure 138
0001
1000
0100
1000
0010
1000
0001
0010
,  // measure 139
0100
1000
0100
0010
0001
0000
1000
0100
,  // measure 140
1000
0000
0010
0000
1000
0000
0001
0010
,  // measure 141
0001
0000
1000
0000
0100
0000
0010
0001
,  // measure 142
0010
0000
0100
0000
0010
0000
0001
1000
,  // measure 143
0001
0000
0010
0000
0100
0000
1000
0001
,  // measure 144
0100
0000
0001
0000
0010
0000
0001
1000
,  // measure 145
0001
0000
0010
0000
0100
0000
1000
0001
,  // measure 146
1000
0100
0010
0001
,  // measure 147
0100
0000
0010
0000
0011
0000
0100
1000
,  // measure 148
0100
0000
0001
0000
1000
0000
0100
0001
,  // measure 149
0100
0000
1000
0000
0001
0000
0010
0001
,  // measure 150
0100
0000
0010
0000
0100
0000
0001
1000
,  // measure 151
0100
0000
0010
0000
0001
0000
1000
0010
,  // measure 152
0100
0000
0001
0000
0010
0000
0100
1000
,  // measure 153
0010
0000
0100
0000
0001
0000
1000
0010
,  // measure 154
0100
0011
1100
0001
,  // measure 155
0100
0000
0000
0010
0000
0000
1000
0000
0000
0010
0000
0100
,  // measure 156
0000
0010
0000
0000
0000
0000
0000
0000
0000
1000
0000
0010
,  // measure 157
0000
1000
0000
0000
0000
0000
0000
0000
0000
0010
0000
0100
,  // measure 158
0000
0010
0000
0000
0000
0000
0000
0000
0000
1000
0000
0001
,  // measure 159
0000
1000
0000
0000
0000
0000
0000
0000
0000
1000
0000
0001
,  // measure 160
0000
0010
0000
0000
0000
0000
0000
0000
0000
0001
0000
1000
,  // measure 161
0000
0100
0000
0000
0000
0000
0000
0000
0000
0100
0000
0010
,  // measure 162
0000
0001
0000
0000
0000
0000
0000
0000
0000
0001
0000
0100
,  // measure 163
0000
0010
0000
0000
0000
0000
0000
0000
0000
1000
0000
0100
,  // measure 164
0000
1000
0000
0000
0000
0000
0000
0000
0000
0001
0000
0010
,  // measure 165
0000
0001
0000
0000
0000
0000
0000
0000
0000
1000
0000
0010
,  // measure 166
0000
1000
0000
0000
0000
0000
0000
0000
0000
0001
0000
0010
,  // measure 167
0000
0001
0000
0000
0000
0000
0000
0000
0000
1000
0000
1000
,  // measure 168
0000
1000
0000
0000
0000
0000
0000
0000
0000
0001
0000
0001
,  // measure 169
0000
0001
0000
0000
0000
0000
0000
0000
0000
0010
0000
0001
,  // measure 170
0000
0000
0000
0000
0000
0000
0000
0000
0000
0000
0000
0000
0000
0000
0000
0000
0010
0000
0000
0000
0000
0000
0000
0000
0000
0000
0000
0000
0000
0000
0000
0000
0000
0000
0000
0000
0000
0000
0000
0000
0000
0000
0000
0000
0000
0000
0000
0000
0100
0000
0000
0000
0000
0000
0000
0000
0000
0000
0000
0000
0000
0000
0000
0000
0000
0000
0000
0000
0000
0000
0000
0000
0000
0000
0000
0000
0000
0000
0000
0000
0100
0000
0000
0000
0000
0000
0000
0000
0000
0000
0000
0000
0000
0000
0000
0000
0000
0000
0000
0000
0000
0000
0000
0000
0000
0000
0000
0000
0000
0000
0000
0000
0100
0000
0000
0000
0000
0000
0000
0000
0000
0000
0000
0000
0000
0000
0000
0000
0000
0000
0000
0000
0000
0000
0000
0000
0000
0000
0000
0000
0000
0000
0000
0000
2002
3003
0000
0000
0000
0000
0000
0000
0000
0000
0000
0000
0000
0000
0000
0000
0000
0000
0000
0000
0000
0000
0000
0000
0000
0000
0000
0000
0000
0000
0000
0000
0000
0000
0000
0000
0000
0000
0000
0000
0000
0000
0000
0000
0000
0000
0000
0000
;

//---------------dance-single - ----------------
#NOTES:
     dance-single:
     :
     Easy:
     8:
     0.647,0.902,0.331,0.119,0.301,616.000,50.000,18.000,0.000,0.000:  // measure 1
0000
0000
0000
0000
,  // measure 2
0000
0000
0000
0000
,  // measure 3
0000
0000
0000
0000
,  // measure 4
0000
0000
0000
0000
,  // measure 5
1000
0100
0010
0000
,  // measure 6
0001
0010
0100
0000
,  // measure 7
2000
3010
0200
0301
,  // measure 8
0000
0000
0200
0310
,  // measure 9
1000
0010
0100
0001
,  // measure 10
0010
0100
1000
1100
,  // measure 11
0000
1000
0010
0100
,  // measure 12
0000
0001
0100
0010
,  // measure 13
0000
2000
3100
0020
,  // measure 14
0031
0000
0000
0002
,  // measure 15
1003
0010
0100
0001
,  // measure 16
0100
0010
1000
0100
,  // measure 17
0011
1000
0010
0100
,  // measure 18
0010
1000
0010
0000
,  // measure 19
0000
1000
0001
1000
,  // measure 20
0010
1000
0100
0010
,  // measure 21
0000
0001
1000
0001
,  // measure 22
0100
0001
0010
0000
,  // measure 23
0000
0010
0001
0010
,  // measure 24
0100
0010
0001
1000
,  // measure 25
0000
1000
0100
0010
,  // measure 26
0001
0010
0100
0000
,  // measure 27
0000
0010
0100
1000
,  // measure 28
0100
0010
0001
1000
,  // measure 29
0000
1000
0010
1000
,  // measure 30
0100
0010
0001
0000
,  // measure 31
0000
1000
0100
0010
,  // measure 32
0001
0000
1000
0010
1000
0000
0001
0000
,  // measure 33
0100
0010
1000
0010
,  // measure 34
1000
0001
0100
0001
,  // measure 35
0100
0010
0100
0001
,  // measure 36
0100
0010
1000
0001
,  // measure 37
0000
1000
0100
0010
,  // measure 38
0001
1000
0100
0010
,  // measure 39
0001
0100
0010
1000
,  // measure 40
0001
0010
0100
1000
,  // measure 41
0000
0001
0100
0010
,  // measure 42
1000
0100
0010
0001
,  // measure 43
1000
0001
0100
0010
,  // measure 44
0100
0001
1000
0100
,  // measure 45
0000
1000
0100
1000
,  // measure 46
0100
0010
0001
0010
,  // measure 47
0001
1000
0010
0100
,  // measure 48
0001
0010
0100
1000
,  // measure 49
0100
0011
0000
1100
,  // measure 50
0000
1000
0010
0000
,  // measure 51
1010
0000
0100
1000
,  // measure 52
0001
0010
0000
0011
,  // measure 53
0000
1001
0000
1010
,  // measure 54
0000
0100
0010
0000
,  // measure 55
1010
0000
0001
0010
,  // measure 56
0100
1000
0000
1001
,  // measure 57
0000
1000
0100
1000
,  // measure 58
0000
0000
0011
0000
,  // measure 59
0101
0000
0010
1000
,  // measure 60
0100
0010
0000
0011
,  // measure 61
0000
1000
0001
1000
,  // measure 62
0000
0000
1010
0000
,  // measure 63
0101
0000
0100
0010
,  // measure 64
1000
0010
0100
0001
,  // measure 65
1000
0001
0100
0010
,  // measure 66
0000
1000
0010
0100
,  // measure 67
0000
0010
0100
0001
,  // measure 68
0101
0000
0000
0011
,  // measure 69
0000
1000
0001
0100
,  // measure 70
0010
1000
0001
1000
,  // measure 71
0100
0010
0010
0100
,  // measure 72
1000
0100
0100
1000
,  // measure 73
0100
0010
0001
1000
,  // measure 74
0000
0010
0100
0001
,  // measure 75
0000
2000
3010
0100
,  // measure 76
0110
0000
0000
0101
,  // measure 77
0000
0100
0010
1000
,  // measure 78
0010
1000
0001
1000
,  // measure 79
1001
1000
0100
0000
,  // measure 80
0010
0001
0000
0001
0010
0000
0000
0000
,  // measure 81
0011
1000
0010
1000
,  // measure 82
0010
0100
0001
0100
,  // measure 83
0001
0010
0100
1000
,  // measure 84
0001
0010
0100
1000
,  // measure 85
0010
0100
0001
1000
,  // measure 86
0010
0100
0010
1000
,  // measure 87
0100
0010
0001
0010
,  // measure 88
0100
1000
0001
0010
,  // measure 89
0100
1000
0010
0100
,  // measure 90
0001
1000
0010
0100
,  // measure 91
0001
0100
0010
1000
,  // measure 92
0010
0100
0001
0010
,  // measure 93
0100
1000
0010
1000
,  // measure 94
0001
0100
0001
0100
,  // measure 95
0010
1000
0100
0010
,  // measure 96
0001
0000
1000
0010
1000
0000
0001
0000
,  // measure 97
0100
0101
0000
0000
,  // measure 98
0000
0000
0000
0000
0000
1010
0000
0000
,  // measure 99
1100
0000
0000
1001
0000
0000
0000
0000
0000
1000
0000
0001
,  // measure 100
0000
0100
0000
0010
0000
1000
0000
0010
0000
0100
0000
0001
,  // measure 101
0010
0000
0100
0000
1000
0000
0010
0000
0100
0000
0001
0000
,  // measure 102
0100
0000
0010
0000
0100
0000
0001
0000
0010
0000
0100
0000
,  // measure 103
1000
0000
0010
0000
0100
0000
0110
0000
0000
1000
0010
0100
,  // measure 104
0000
0001
0000
0010
0000
0100
1000
0100
0000
0010
0000
0001
,  // measure 105
0100
0000
0100
0010
0000
1000
0000
0010
0000
0100
0000
0010
,  // measure 106
0000
1000
0000
0100
0000
0010
0000
0001
0000
0010
0000
0100
,  // measure 107
0000
0010
0000
0001
0000
0100
0020
0000
0030
1000
0000
0100
,  // measure 108
0000
0010
0000
0000
0000
0001
0000
0000
0000
0010
0000
0000
,  // measure 109
0000
0001
0000
0100
0000
0010
0000
0000
0000
1000
0000
0010
,  // measure 110
0000
0100
0000
0001
0000
0000
0000
0001
0000
0100
0000
0000
,  // measure 111
0000
0100
0000
0010
0000
0000
0000
0010
0000
1000
0000
0000
,  // measure 112
0000
1000
0000
0000
0000
0001
0000
0000
0000
0100
0000
0000
,  // measure 113
0000
0010
0000
0000
0000
0100
0000
0000
0000
0001
0000
0010
,  // measure 114
0000
0100
0000
1000
0000
0010
0000
0100
0000
0001
0000
0100
,  // measure 115
0000
0000
0000
0100
0000
0010
0000
0000
0000
0010
0000
1000
,  // measure 116
0000
0010
0000
0100
0000
0000
0000
0100
0000
0001
0000
0000
,  // measure 117
0000
0001
0000
1000
0000
0000
0000
1000
0000
0010
0000
0100
,  // measure 118
0000
0001
0000
0100
0000
0000
0000
0001
0000
0000
0000
0010
,  // measure 119
0000
0000
0000
0100
0000
0000
0000
1000
0000
0001
0000
0100
,  // measure 120
0000
0010
0000
0000
0000
0100
0000
0000
0000
0001
0000
0000
,  // measure 121
0000
0100
0000
0000
0000
0010
0000
0000
0000
1000
0000
0010
,  // measure 122
0000
0100
0000
0001
0000
0010
0000
0100
0000
1000
0000
0200
,  // measure 123
0000
0000
0300
1000
,  // measure 124
0001
2000
3001
0100
,  // measure 125
0002
0013
0001
0020
,  // measure 126
0130
0000
1000
0000
0200
0000
0310
0001
,  // measure 127
0010
0000
0001
0010
0001
0010
0001
0000
,  // measure 128
1000
0002
1003
0010
,  // measure 129
2000
3100
0010
0200
,  // measure 130
0310
0000
0001
0000
0020
0000
0130
1000
,  // measure 131
0100
0000
0010
0001
0010
0001
0010
0000
,  // measure 132
0100
1000
0000
1000
0100
0000
0010
0000
,  // measure 133
0001
0100
0001
1000
,  // measure 134
0100
0010
0000
0010
0100
0000
0001
1000
,  // measure 135
0001
0000
1000
0001
1000
0000
0001
0000
,  // measure 136
1000
0010
0000
0010
1000
0000
0010
0000
,  // measure 137
0100
0001
0000
0001
0100
0000
0001
0100
,  // measure 138
0001
0100
0001
0000
1000
0010
1000
0010
,  // measure 139
1000
0010
1000
0000
0000
0000
1000
0000
,  // measure 140
0010
0100
0010
1000
,  // measure 141
0100
0010
0001
0100
,  // measure 142
0010
1000
0010
0100
,  // measure 143
0010
1000
0100
0010
,  // measure 144
0001
0010
0100
1000
,  // measure 145
0010
0100
0001
0010
,  // measure 146
0100
0010
0001
1000
,  // measure 147
0100
0001
0100
1000
,  // measure 148
0001
0100
0010
0100
,  // measure 149
0001
1000
0010
0100
,  // measure 150
0010
1000
0010
0100
,  // measure 151
0001
0010
0100
1000
,  // measure 152
0100
0010
0001
0100
,  // measure 153
0010
1000
0001
0010
,  // measure 154
0100
0010
0100
1000
,  // measure 155
0001
1000
0100
0011
,  // measure 156
0000
0011
0000
0000
0000
0000
0000
0000
0000
0101
0000
0000
,  // measure 157
0000
0101
0000
0000
0000
0000
0000
0000
0000
1001
0000
0000
,  // measure 158
0000
1001
0000
0000
0000
0000
0000
0000
0000
1010
0000
0000
,  // measure 159
0000
1010
0000
0000
0000
0000
0000
0000
0000
0011
0000
0000
,  // measure 160
0000
0011
0000
0000
0000
0000
0000
0000
0000
0101
0000
0000
,  // measure 161
0000
0101
0000
0000
0000
0000
0000
0000
0000
1001
0000
0000
,  // measure 162
0000
1001
0000
0000
0000
0000
0000
0000
0000
1010
0000
0000
,  // measure 163
0000
1010
0000
0000
0000
0000
0000
0000
0000
0011
0000
0000
,  // measure 164
0000
0011
0000
0000
0000
0000
0000
0000
0000
0101
0000
0000
,  // measure 165
0000
0101
0000
0000
0000
0000
0000
0000
0000
1001
0000
0000
,  // measure 166
0000
1001
0000
0000
0000
0000
0000
0000
0000
1010
0000
0000
,  // measure 167
0000
1010
0000
0000
0000
0000
0000
0000
0000
0001
0000
1000
,  // measure 168
0000
0001
0000
0000
0000
0000
0000
0000
0000
1000
0000
0010
,  // measure 169
0000
1000
0000
0000
0000
0000
0000
0000
0000
1000
0000
0010
,  // measure 170
0000
1000
0000
0010
0000
1000
0000
0010
0000
2000
0000
0000
,  // measure 171
0000
3000
0000
0000
;

//---------------dance-single - ----------------
#NOTES:
     dance-single:
     :
     Beginner:
     5:
     0.395,0.506,0.205,0.020,0.176,384.000,31.000,3.000,0.000,0.000:  // measure 1
0000
0000
0000
0000
,  // measure 2
0000
0000
0000
0000
,  // measure 3
0000
0000
0000
0000
,  // measure 4
0000
0000
0000
0000
,  // measure 5
1000
0000
0001
0000
,  // measure 6
1000
0000
0010
0000
,  // measure 7
1000
0100
0010
0001
,  // measure 8
0000
0000
0011
0000
,  // measure 9
0100
0000
0001
0000
,  // measure 10
0100
0000
0010
1000
,  // measure 11
0000
1000
0000
0010
,  // measure 12
0000
1000
0000
0001
,  // measure 13
0000
1000
0010
0100
,  // measure 14
0001
0000
0000
1010
,  // measure 15
0000
0010
0000
1000
,  // measure 16
0000
0010
0000
0100
,  // measure 17
0010
1000
0000
0100
,  // measure 18
0000
0010
0001
0000
,  // measure 19
0000
0100
0000
0010
,  // measure 20
0000
1000
0010
0000
,  // measure 21
0000
0100
0000
0001
,  // measure 22
0000
0100
0001
0000
,  // measure 23
0000
1000
0000
0100
,  // measure 24
0000
0010
0001
0000
,  // measure 25
0000
1000
0000
0010
,  // measure 26
0000
0100
0001
0000
,  // measure 27
0000
0100
0000
0001
,  // measure 28
0000
0100
0010
0100
,  // measure 29
0000
0001
0000
0010
,  // measure 30
0000
0100
1000
0000
,  // measure 31
0000
1000
0100
0010
,  // measure 32
0000
0001
0010
0100
,  // measure 33
1000
0001
0000
0100
,  // measure 34
0000
0001
0000
0010
,  // measure 35
0000
0001
0000
1000
,  // measure 36
0000
0100
0000
0010
,  // measure 37
0000
0100
0000
1000
,  // measure 38
0000
0001
0000
0010
,  // measure 39
0000
0100
0000
1000
,  // measure 40
0000
0010
0000
0100
,  // measure 41
0000
0001
0000
1000
,  // measure 42
0000
0010
0000
0100
,  // measure 43
0000
0010
0000
1000
,  // measure 44
0000
0001
0000
0010
,  // measure 45
0000
0100
0000
1000
,  // measure 46
0000
0010
0000
0100
,  // measure 47
0000
0001
0000
0010
,  // measure 48
0000
0100
0000
1000
,  // measure 49
0000
1001
0000
1010
,  // measure 50
0000
1000
0000
0010
,  // measure 51
0000
0100
0000
0001
,  // measure 52
0000
0010
0000
0100
,  // measure 53
0000
0110
0000
0101
,  // measure 54
0000
0100
0000
0001
,  // measure 55
0000
1000
0000
0010
,  // measure 56
0000
0100
0000
0001
,  // measure 57
0000
0101
0000
0110
,  // measure 58
0000
0100
0000
0010
,  // measure 59
0000
1000
0000
0010
,  // measure 60
0000
0100
0000
0001
,  // measure 61
0000
1010
0000
1001
,  // measure 62
0000
1000
0000
0001
,  // measure 63
0000
0100
0000
0001
,  // measure 64
0000
0010
0001
0100
,  // measure 65
0000
0001
0100
0010
,  // measure 66
0000
1000
0010
0100
,  // measure 67
0000
1000
0001
1000
,  // measure 68
0001
0000
0000
1001
,  // measure 69
0000
1000
0001
0100
,  // measure 70
0000
0001
1000
0100
,  // measure 71
0000
0010
0001
0010
,  // measure 72
0000
0100
1000
0100
,  // measure 73
0000
0010
0001
1000
,  // measure 74
0000
0010
0100
0001
,  // measure 75
0000
1000
0100
0010
,  // measure 76
0001
0000
0000
0011
,  // measure 77
0000
0001
0010
0100
,  // measure 78
0000
1000
0010
0100
,  // measure 79
0000
1000
0100
0000
,  // measure 80
0100
0010
0001
0000
,  // measure 81
0000
1001
0000
0100
,  // measure 82
0000
0010
0000
0100
,  // measure 83
0000
0001
0000
0010
,  // measure 84
0000
0100
0000
1000
,  // measure 85
0000
0110
0000
1000
,  // measure 86
0000
0100
0000
0001
,  // measure 87
0000
0100
0000
1000
,  // measure 88
0000
0010
0000
0100
,  // measure 89
0000
0011
0000
1000
,  // measure 90
0000
0100
0000
0010
,  // measure 91
0000
1000
0000
0010
,  // measure 92
0000
0100
0000
0001
,  // measure 93
0000
1010
0000
0100
,  // measure 94
0000
0001
0000
0010
,  // measure 95
0000
0100
0000
1000
,  // measure 96
0000
0100
0000
0010
,  // measure 97
0000
0011
0000
0000
,  // measure 98
0000
0000
0000
0000
0000
1001
0000
0000
,  // measure 99
0000
0000
2020
0000
0000
3030
1000
0000
,  // measure 100
0000
0100
0000
0000
0000
0010
0000
0000
0000
0001
0000
0000
,  // measure 101
0000
0100
0000
0000
0000
0010
0000
0000
0000
1000
0000
0000
,  // measure 102
0000
0010
0000
0000
0000
0100
0000
0000
0000
0001
0000
0000
,  // measure 103
0000
0010
0000
0000
0000
0100
0000
0000
0000
1000
0000
0000
,  // measure 104
0000
0010
0000
0000
0000
0100
0000
0000
0000
0001
0000
0000
,  // measure 105
0000
0010
0000
0000
0000
0001
0000
0000
0000
1000
0000
0000
,  // measure 106
0000
0001
0000
0000
0000
0100
0000
0000
0000
0001
0000
0000
,  // measure 107
0000
1000
0000
0000
0000
0100
0020
0000
0000
1030
0000
0000
,  // measure 108
0000
0100
0000
0000
0000
0010
0000
0000
0000
0001
0000
0000
,  // measure 109
0000
0100
0000
0000
0000
0010
0000
0000
0000
1000
0000
0000
,  // measure 110
0000
0010
0000
0000
0000
0100
0000
0000
0000
0001
0000
0000
,  // measure 111
0000
0100
0000
0000
0000
0010
0000
0000
0000
1000
0000
0000
,  // measure 112
0000
0100
0000
0000
0000
0010
0000
0000
0000
0001
0000
0000
,  // measure 113
0000
0100
0000
0000
0000
0010
0000
0000
0000
0100
0000
0000
,  // measure 114
0000
0001
0000
0000
0000
0100
0000
0000
0000
0010
0000
0000
,  // measure 115
0000
0100
0000
0000
0000
0001
0000
0000
0000
1000
0000
0000
,  // measure 116
0000
0010
0000
0000
0000
0100
0000
0000
0000
0001
0000
0000
,  // measure 117
0000
1000
0000
0000
0000
0100
0000
0000
0000
0010
0000
0000
,  // measure 118
0000
0001
0000
0000
0000
0100
0000
0000
0000
0010
0000
0000
,  // measure 119
0000
1000
0000
0000
0000
0010
0000
0000
0000
0100
0000
0000
,  // measure 120
0000
0001
0000
0000
0000
0010
0000
0000
0000
0100
0000
0000
,  // measure 121
0000
1000
0000
0000
0000
0100
0000
0000
0000
0010
0000
0000
,  // measure 122
0000
0001
0000
0000
0000
0100
0000
0000
0000
0001
0000
0000
,  // measure 123
0000
0100
0000
0000
0000
0010
0000
0100
0000
0001
0000
0000
,  // measure 124
0000
0100
0000
0001
,  // measure 125
0000
0010
0000
0001
,  // measure 126
0000
1000
0000
0100
,  // measure 127
0000
0010
0000
0001
,  // measure 128
0010
0100
1000
0000
,  // measure 129
0001
0100
0010
1000
,  // measure 130
0010
0000
1000
0010
,  // measure 131
1000
0100
0000
0100
,  // measure 132
0010
0000
0010
0001
,  // measure 133
0000
0001
1000
0001
,  // measure 134
1000
0001
0000
0001
,  // measure 135
0100
0000
0000
0010
,  // measure 136
0001
0010
0001
0010
,  // measure 137
0100
1000
0100
1000
,  // measure 138
0100
0010
0001
0010
,  // measure 139
0100
1000
0100
0010
,  // measure 140
0000
0001
0000
1000
,  // measure 141
0000
0010
0000
0100
,  // measure 142
0000
0001
0000
1000
,  // measure 143
0000
0010
0000
0100
,  // measure 144
0000
0001
0000
0010
,  // measure 145
0000
0100
0000
1000
,  // measure 146
0000
0100
0000
0001
,  // measure 147
0000
0100
0000
1000
,  // measure 148
0000
0010
0000
0100
,  // measure 149
0000
0001
0000
0100
,  // measure 150
0000
1000
0000
0010
,  // measure 151
0000
0100
0000
1000
,  // measure 152
0000
0100
0000
0010
,  // measure 153
0000
0001
0000
0100
,  // measure 154
0000
0010
0000
1000
,  // measure 155
0000
0010
0000
1100
,  // measure 156
0000
0000
0000
0011
,  // measure 157
0000
0000
0000
0101
,  // measure 158
0000
0000
0000
1010
,  // measure 159
0000
0000
0000
1100
,  // measure 160
0000
0000
0000
0011
,  // measure 161
0000
0000
0000
0101
,  // measure 162
0000
0000
0000
1010
,  // measure 163
0000
0000
0000
1100
,  // measure 164
0000
0000
0000
0110
,  // measure 165
0000
0000
0000
0011
,  // measure 166
0000
0000
0000
1001
,  // measure 167
0000
0000
0000
1000
,  // measure 168
0000
1000
0000
0000
0000
0000
0000
0000
0000
0001
0000
0000
,  // measure 169
0000
0001
0000
0000
0000
0000
0000
0000
0000
0010
0000
0000
,  // measure 170
0000
0010
0000
0100
0000
0000
0000
0100
0000
0001
0000
0000
;

//---------------dance-single - Challenge Edit----------------
#NOTES:
     dance-single:
     Challenge Edit:
     Edit:
     12:
     1.000,1.000,0.623,0.046,0.510,965.000,94.000,7.000,0.000,0.000:  // measure 1
0000
0000
0000
0000
,  // measure 2
0000
0000
0000
0000
,  // measure 3
0000
0000
0000
0000
,  // measure 4
0000
0000
0000
0000
,  // measure 5
0001
0010
0100
0010
0001
0000
0000
0000
,  // measure 6
1000
0100
0010
0100
1000
0000
0000
0000
,  // measure 7
1000
0010
1000
0000
0001
0100
0001
0000
,  // measure 8
0000
0000
0000
0000
0001
0010
0001
0000
,  // measure 9
0010
0100
1000
0000
0001
0100
0001
0000
,  // measure 10
1000
0010
1000
0100
0010
0000
0010
0000
,  // measure 11
0010
0001
1000
0100
1000
0010
0100
0000
,  // measure 12
0000
0000
0100
0001
1000
0100
0010
0000
,  // measure 13
0000
0000
0001
0010
0001
0000
0100
1000
,  // measure 14
0100
0000
0000
0000
0000
0000
0100
0001
,  // measure 15
0010
0000
1000
0010
0100
0000
0001
0100
,  // measure 16
0010
0000
1000
0100
0010
0001
0010
0000
,  // measure 17
1001
0000
1000
0100
1000
0001
0010
0000
,  // measure 18
1000
0100
1000
0100
0010
0000
1010
0000
,  // measure 19
0110
0000
0001
0010
0100
1000
0100
0000
,  // measure 20
0010
0100
1000
0100
0010
0001
0010
0000
,  // measure 21
0000
0000
1000
0010
0100
0001
0010
0000
,  // measure 22
1000
0001
0100
0010
0100
0000
0101
0000
,  // measure 23
0110
0000
1000
0001
0100
0010
1000
0000
,  // measure 24
0010
0100
0010
1000
0010
0100
0001
1000
,  // measure 25
0001
0100
0010
1000
0100
0010
0001
0000
,  // measure 26
1000
0100
1000
0010
0100
0000
1010
0000
,  // measure 27
0110
0000
0001
0010
0100
1000
0100
0000
,  // measure 28
0100
0010
0001
0010
0100
1000
0100
0000
,  // measure 29
0000
0000
0010
0001
0010
0100
0010
0000
,  // measure 30
0001
0010
0100
1000
0100
0000
1100
0000
,  // measure 31
0011
0000
1000
0100
1000
0100
0010
0001
,  // measure 32
0010
0001
1000
0100
0010
0001
0100
0010
,  // measure 33
1000
0010
0100
0010
0000
0100
0010
0000
,  // measure 34
1000
0001
0010
0100
1000
0010
0100
0000
,  // measure 35
1010
0000
0001
0010
0000
0100
1000
0000
,  // measure 36
1000
0010
0100
0001
1000
0100
0010
0000
,  // measure 37
1001
0000
1000
0010
0000
0100
0001
0000
,  // measure 38
1000
0001
0100
0010
0100
0001
1000
0000
,  // measure 39
1100
0000
0010
0001
0010
0100
1000
0000
,  // measure 40
0100
0010
0001
0010
0100
1000
0001
0000
,  // measure 41
1010
0000
1000
0010
0100
0000
0001
0100
,  // measure 42
0010
0000
1000
0100
0010
0001
0010
0100
,  // measure 43
1000
0000
0100
0001
0010
0000
0001
1000
,  // measure 44
0100
0000
1000
0010
0100
0001
0010
0100
,  // measure 45
1000
0000
0100
0010
0001
0000
0010
0100
,  // measure 46
1000
0000
1000
0010
0100
0001
0100
0010
,  // measure 47
1000
0001
1000
0100
0010
0001
0100
0010
,  // measure 48
1000
0010
0100
0001
0010
0100
0010
0001
,  // measure 49
1010
0000
1001
0000
0001
1000
0100
0000
,  // measure 50
0000
0000
0100
0000
1000
0001
0100
0000
,  // measure 51
0110
0000
0000
0000
0010
1000
0010
0000
,  // measure 52
1001
1100
0000
0011
,  // measure 53
0000
0000
0110
0000
0010
0100
0001
0000
,  // measure 54
0000
0000
0001
0000
0100
0010
1000
0000
,  // measure 55
1001
0000
0000
0000
1000
0100
1000
0000
,  // measure 56
0110
0101
0000
1010
,  // measure 57
0000
0000
1001
0000
1000
0001
0010
0000
,  // measure 58
0000
0000
0010
0000
0001
1000
0010
0000
,  // measure 59
0110
0000
0000
0000
0100
0001
0100
0000
,  // measure 60
1001
0011
0000
1100
,  // measure 61
0000
0000
0110
0000
0010
0100
0001
0000
,  // measure 62
0000
0000
1000
0000
0000
0000
1000
0010
,  // measure 63
1000
0001
1000
0010
1000
0001
1000
0010
,  // measure 64
1000
0001
1000
0010
1000
0001
0100
0001
,  // measure 65
0010
0100
1001
0100
0010
0000
1010
0000
,  // measure 66
0000
0000
1000
0100
0010
0001
0010
0000
,  // measure 67
0000
0000
0010
0001
0010
0000
0100
0001
,  // measure 68
0100
0000
0000
0000
0000
0000
1000
0100
,  // measure 69
1000
0000
0010
0100
0010
0000
1000
0100
,  // measure 70
0010
0000
0001
0100
0010
1000
0010
0000
,  // measure 71
1001
0000
0100
1000
0100
1000
0100
0000
,  // measure 72
0100
0010
0001
1000
0001
1000
0001
0000
,  // measure 73
0110
0000
1000
0100
0010
0100
1000
0000
,  // measure 74
0000
0000
1000
0100
1000
0001
0010
0000
,  // measure 75
0000
0000
1000
0100
1000
0000
0010
0100
,  // measure 76
0010
0000
0000
0000
0000
0000
0100
0001
,  // measure 77
1000
0000
0100
1000
0001
0000
0100
0010
,  // measure 78
1000
0000
0010
1000
0100
0010
0001
0000
,  // measure 79
1001
0000
0100
0001
0100
0001
0100
0000
,  // measure 80
0100
0010
0000
0010
1000
0000
0000
0000
,  // measure 81
1001
0000
1000
0100
0000
0010
0001
0000
,  // measure 82
0001
0100
0000
0010
1000
0000
1001
0000
,  // measure 83
0101
0000
1000
0010
0000
0100
0001
0000
,  // measure 84
0001
1000
0000
1000
0010
0000
1100
0000
,  // measure 85
0011
0000
1000
0100
0000
0100
0010
0000
,  // measure 86
0001
1000
0000
1000
0100
0000
1001
0000
,  // measure 87
0110
0000
1000
0001
0000
0100
0001
0000
,  // measure 88
0010
0100
0000
0001
0100
0000
1001
0000
,  // measure 89
0110
0000
0100
0001
0000
0001
0100
0000
,  // measure 90
1000
0010
0000
0010
1000
0000
0101
0000
,  // measure 91
0110
0000
1000
0001
0000
0001
1000
0000
,  // measure 92
0100
0010
0000
0010
0100
0000
1001
0000
,  // measure 93
0110
0000
1000
0100
0000
1000
0100
0000
,  // measure 94
0100
0010
0000
0010
0001
0000
1100
0000
,  // measure 95
0011
0000
0001
0100
0000
0001
0100
0000
,  // measure 96
0010
0100
0000
0010
1000
0000
0101
0000
,  // measure 97
0011
0000
0000
0000
1001
0000
0000
0000
1000
0100
0000
0100
0010
0000
0010
0001
,  // measure 98
0000
0001
0100
0000
0000
0000
0100
0001
0000
0001
1000
0000
1000
0010
0000
0010
,  // measure 99
0100
0000
0000
0000
0000
0000
0100
0000
0000
0010
0000
0000
2002
0000
0000
0000
0000
0000
0000
0000
0000
0000
0000
0000
0000
0000
0000
0000
0000
0000
0000
0000
0000
3003
0000
0000
0010
0000
0000
0000
0100
0000
0000
0000
0010
0000
0000
0000
,  // measure 100
0001
1000
0010
0100
0001
0010
0001
0100
0010
0100
0010
1000
,  // measure 101
1000
0000
0001
0010
0100
1000
0010
1000
0001
0100
0010
1000
,  // measure 102
0100
0010
0001
0010
0100
0010
0001
1000
0001
0100
0010
1000
,  // measure 103
0010
0100
0001
0100
0010
1000
0200
0000
0000
0301
1000
0010
,  // measure 104
0100
0010
1000
0100
0010
0100
1000
0010
0100
0010
1000
0001
,  // measure 105
0001
0000
1000
0001
0010
0001
0100
0001
0010
0100
0010
0001
,  // measure 106
1000
0100
0010
0001
1000
0010
0100
0001
0010
0001
0100
0001
,  // measure 107
0010
0100
0010
0001
1000
0001
0020
0000
0030
0001
0000
0010
,  // measure 108
0000
1000
0000
0010
0000
0001
0000
0000
0000
1000
0000
0100
,  // measure 109
0000
0010
0000
0001
0000
0000
0000
1000
0000
0010
0000
0100
,  // measure 110
0000
0001
0000
0000
0000
0001
0000
0010
0000
0000
0000
0010
,  // measure 111
0000
0100
0000
1000
0000
0001
0000
1000
0000
0100
0000
0000
,  // measure 112
0000
0100
0000
0010
0000
0000
0000
0010
0000
0001
0000
1000
,  // measure 113
0000
0010
0000
0100
0000
0001
0000
0010
0000
0100
0000
0010
,  // measure 114
0000
0001
0000
0010
0000
0001
0000
0100
0000
0001
0000
0010
,  // measure 115
0000
0100
0000
0000
0000
0100
0000
0010
0000
0001
0000
0010
,  // measure 116
0000
0100
0000
1000
0000
0000
0000
1000
0000
0010
0000
0100
,  // measure 117
0000
0001
0000
0000
0000
0001
0000
0010
0000
0100
0000
1000
,  // measure 118
0000
0100
0000
0010
0000
0000
0000
0010
0000
0001
0000
0000
,  // measure 119
0000
0001
0000
1000
0000
0000
0000
1000
0000
0001
0000
0100
,  // measure 120
0000
0010
0000
1000
0000
0000
0000
1000
0000
0100
0000
0000
,  // measure 121
0000
0100
0000
0010
0000
0000
0000
0010
0000
0001
0000
1000
,  // measure 122
0000
0100
0000
0010
0000
0100
0000
1000
0000
0001
0000
0100
,  // measure 123
0000
0000
0020
0000
0000
0000
0000
0000
0000
0000
0000
0000
0000
0000
0000
0000
0030
0000
1000
0000
0000
0100
0000
0000
,  // measure 124
0010
0001
0010
0000
0010
0100
0010
0001
,  // measure 125
0100
0000
0010
0100
0010
0001
1000
0000
,  // measure 126
1000
0100
0010
0100
1000
0000
0100
1000
,  // measure 127
0100
0010
0001
0000
0001
0010
0100
1000
,  // measure 128
0100
0000
1000
0100
0010
0001
1000
0000
,  // measure 129
0100
0010
0001
0010
0100
0000
1000
0100
,  // measure 130
1000
0000
0001
0010
0001
0000
0010
0001
,  // measure 131
0100
0000
0010
1000
0001
0000
1000
0001
,  // measure 132
0010
0100
1000
0000
1000
0100
0010
0100
,  // measure 133
1000
0000
1000
0100
1000
0001
0010
0100
,  // measure 134
0010
0000
0001
1000
0100
0000
1000
0001
,  // measure 135
0010
0000
0100
1000
0010
0000
0100
0010
,  // measure 136
1000
0100
1000
0010
0100
0010
1000
0010
,  // measure 137
0100
0001
0000
1000
0100
1000
0010
0100
,  // measure 138
0010
0100
0010
1000
0100
0010
0001
0010
,  // measure 139
0100
0010
0001
0010
0001
0000
1001
0000
,  // measure 140
1000
0100
0000
1000
0100
0000
1010
0000
,  // measure 141
0001
0010
0000
0001
0010
0000
1010
0000
,  // measure 142
0100
0010
0000
0100
0010
0000
1001
0000
,  // measure 143
0010
1000
0000
0010
1000
0000
1001
0000
,  // measure 144
1000
0010
0100
0000
0001
0010
1100
0000
,  // measure 145
1000
0001
0100
0000
0100
0010
1100
0000
,  // measure 146
0001
0100
0010
0000
0100
0010
1100
0000
,  // measure 147
0000
1010
0000
0000
0101
0000
1001
0000
,  // measure 148
0010
0100
0001
0010
0100
1000
0011
0000
,  // measure 149
1000
0100
1000
0001
1000
0010
1001
0000
,  // measure 150
0010
0100
0010
1000
0100
1000
0011
0000
,  // measure 151
0010
0001
0010
0100
1000
0010
1100
0000
,  // measure 152
1000
0010
0100
0001
1000
0010
1100
0010
,  // measure 153
0100
0010
1000
0001
1000
0001
0110
1000
,  // measure 154
0100
1000
0100
0010
0100
0010
1001
0100
,  // measure 155
0001
0000
0000
0100
0000
0000
0010
0000
0000
0100
0000
0000
0001
0000
0000
1000
0000
0000
0001
0000
0000
0000
0001
0000
,  // measure 156
0000
0001
0000
0000
0000
0000
0110
0000
0000
1000
0000
1000
,  // measure 157
0000
1000
0000
0000
0000
0000
0101
0000
0000
0100
0000
0100
,  // measure 158
0000
0100
0000
0000
0000
0000
1100
0000
0000
0010
0000
0001
,  // measure 159
0000
0010
0000
0100
0000
1000
0000
0100
0000
0001
0000
0001
,  // measure 160
0000
0001
0000
0000
0000
0000
0110
0000
0000
1000
0000
1000
,  // measure 161
0000
1000
0000
0000
0000
0000
1001
0000
0000
0100
0000
0100
,  // measure 162
0000
0100
0000
0000
0000
0000
1100
0000
0000
0010
0000
0010
,  // measure 163
0000
0010
0000
0000
0000
0000
0000
0000
0000
0001
0000
0001
,  // measure 164
0000
0001
0000
0000
0000
0000
0101
0000
0000
1000
0000
1000
,  // measure 165
0000
1000
0000
0000
0000
0000
1010
0000
0000
0100
0000
0100
,  // measure 166
0000
0100
0000
0000
0000
0000
1100
0000
0000
0010
0000
0001
,  // measure 167
0000
0010
0000
0100
0000
1000
0000
0100
0000
0011
0000
0011
,  // measure 168
0000
0011
0000
0000
0000
0000
0000
0000
0000
1100
0000
1100
,  // measure 169
0000
1100
0000
0000
0000
0000
0000
0000
0000
1001
0000
1001
,  // measure 170
0000
1001
0000
0110
0000
0110
0000
0110
0000
2020
0000
0000
,  // measure 171
0000
0000
0000
3030
;
