#TITLE:THE MEDLEY OF KIRBY SSDX (Remake);
#SUBTITLE:[KIRBY MEDLEY];
#ARTIST:hapi⇒;
#TITLETRANSLIT:;
#SUBTITLETRANSLIT:;
#ARTISTTRANSLIT:;
#CREDIT:Owem;
#BANNER:;
#BACKGROUND:;
#LYRICSPATH:;
#CDTITLE:;
#MUSIC:ReTHE MEDLEY OF KIRBY SSDX.ogg;
#OFFSET:0.200;
#SAMPLESTART:392.958;
#SAMPLELENGTH:24.000;
#SELECTABLE:YES;
#DISPLAYBPM:*;
#BPMS:0.000=190.000,1121.000=95.000,1179.000=190.000,1551.000=95.000,1583.000=190.000,2251.000=95.000,2311.000=94.000,2311.063=93.000,2311.167=92.000,2311.250=91.000,2311.313=90.000,2311.417=89.000,2311.438=88.000,2311.500=87.000,2311.563=86.000,2311.625=85.000,2311.688=84.000,2311.750=83.000,2311.813=82.000,2311.875=81.000,2311.938=80.000,2312.000=79.000,2312.063=78.000,2312.125=77.000,2312.188=76.000,2312.250=75.000,2312.313=74.000,2312.375=73.000,2312.438=72.000,2312.500=71.000,2312.563=70.000,2312.625=69.000,2312.688=68.000,2312.750=67.000,2312.813=66.000,2312.875=65.000,2312.938=64.000,2313.000=63.000,2313.042=62.000,2313.063=61.000,2313.125=60.000,2313.167=59.000,2313.188=58.000,2313.250=57.000,2313.292=56.000,2313.313=55.000,2313.375=54.000,2313.417=53.000,2313.438=52.000,2313.500=51.000,2313.542=50.000,2313.563=49.000,2313.625=48.000,2313.667=47.000,2313.688=46.000,2313.750=45.000,2313.792=44.000,2313.813=43.000,2313.875=42.000,2313.917=41.000,2313.938=40.000,2314.000=58.300,2316.000=190.000,2348.000=191.000,2350.000=190.000,2658.000=191.000,2662.000=192.000,2666.000=193.000,2670.000=194.000,2674.000=195.000,3328.500=194.000,3329.000=192.000,3329.500=191.000,3330.000=190.000,3330.500=189.000,3331.000=188.000,3331.500=187.000,3332.000=186.000,3332.500=185.000,3333.000=184.000,3333.500=183.000,3334.000=182.000,3335.000=183.000,3336.000=185.000,3336.250=186.000,3336.500=187.000,3336.750=188.000,3337.000=189.000,3337.500=190.000,3338.000=191.000,3338.500=192.000,3339.000=193.000,3339.500=194.000,3340.000=195.000,3340.500=196.000,3341.000=197.000,3341.500=198.000,3342.000=199.000,3342.500=200.000,3343.000=201.000,3343.500=202.000,3344.000=203.000,3344.500=204.000,3345.000=205.000,3346.000=206.000,3347.000=207.000,3348.000=208.000,3349.000=210.000,3544.000=209.000,3544.500=208.000,3545.000=207.000,3545.500=206.000,3546.000=205.000,3546.500=204.000,3547.000=203.000,3547.500=202.000,3548.000=201.000,3548.500=200.000,3549.000=199.000,3549.500=198.000,3550.000=197.000,3550.500=196.000,3551.000=195.000,3551.500=194.000,3552.000=193.000,3553.000=192.000,3557.000=190.000,3620.875=205.000,4181.000=200.000,4181.500=199.000,4182.000=198.000,4182.500=197.000,4183.000=196.000,4183.500=195.000,4184.000=194.000,4184.313=193.000,4184.667=192.000,4185.000=191.000,4185.313=190.000,4185.667=189.000,4186.000=188.000,4186.250=187.000,4186.500=186.000,4186.750=185.000,4187.000=184.000,4187.250=183.000,4187.500=182.000,4187.750=181.000,4188.000=180.000,4188.250=179.000,4188.500=178.000,4188.750=177.000,4189.000=180.000,4839.500=90.000,4840.000=180.000,5173.000=135.000,5175.000=127.500,5177.000=115.000,5179.000=120.000,5182.000=160.000,5185.000=165.000,5189.000=190.000;
#STOPS:;
#BGCHANGES:;
// cache tags:
#FIRSTBEAT:9.000;
#LASTBEAT:737.000;
#SONGFILENAME:Songs/Owem's Simfiles 08 - 1.2/Re THE MEDLEY OF KIRBY SSDX - [O/ReTHE MEDLEY OF KIRBY SSDX.sm;
#HASMUSIC:1;
#HASBANNER:0;
#MUSICLENGTH:1698.089;
// end cache tags

//---------------dance-single - ----------------
#NOTES:
     dance-single:
     :
     Challenge:
     1:
     0.161,0.201,0.008,0.040,0.235,1831.000,13.000,68.000,13.000,0.000:
0000
0000
0000
0000
,
0000
0000
0000
0000
,
0000
0000
2000
0000
3100
0010
0002
0000
,
2003
0000
3020
0000
0130
0001
2000
0000
,
3200
0000
0320
0000
0031
1000
0002
0000
,
0203
0000
0320
0000
1030
0100
2000
0000
,
3100
0000
0010
0000
0001
0000
1000
0010
1000
0000
0001
0100
0001
0000
1000
0010
,
1000
0010
1000
0000
0001
0000
1000
0100
1000
0000
0010
0100
0010
0000
0100
0001
,
0100
0001
0100
0001
1000
0000
0010
0100
0010
0000
0100
0001
0100
0000
0001
1000
,
0001
1000
0001
0000
0100
0000
0010
1000
0010
0000
1000
0100
4000
0000
0000
0000
,
3001
0100
0001
1000
0010
0000
0100
0001
0100
0000
0010
1000
0010
0000
1000
0001
,
1000
0001
1000
0000
0100
0000
0010
0001
0010
0000
0001
0100
0001
0000
1000
0010
,
1000
0010
1000
0010
0100
0000
0001
1000
0001
0000
1000
0100
1000
0000
0010
0100
,
0010
0100
0010
0000
1000
0000
0001
0100
0001
0000
1000
0001
4000
0000
0000
0000
,
3010
0000
0100
0000
0001
0000
1000
0100
1000
0000
0010
1000
0010
0000
0100
0001
,
0100
0001
0100
0000
0010
0000
1000
0001
1000
0000
0100
1000
0100
0000
0010
0001
,
0010
0001
0010
0001
0100
0000
0010
1000
0010
0000
0100
0001
0100
0000
0001
1000
,
0001
1000
0001
0000
0020
0000
0000
0000
0130
0000
1000
0000
0002
0000
0000
0000
,
0000
0003
0000
0000
2MM1
0000
0000
0000
3200
0000
0320
0000
0030
0000
0002
0000
,
2003
3020
0000
0000
0000
0000
0000
0000
,
0030
0000
0200
0000
0302
2003
3000
0002
,
0203
0320
1000
0000
1000
0000
1000
0000
,
1000
0030
2000
0000
3200
0320
0030
0002
,
0203
0302
1000
0000
1000
0000
1000
0000
,
1000
0003
1000
0100
0010
0001
1000
0001
,
0100
0000
0010
0000
1000
0001
1000
0010
0100
0001
0100
0010
4000
0000
0000
0000
,
0000
0000
3001
1000
0001
0010
0100
1000
0001
1000
0010
1000
0001
0100
0001
1000
,
0100
1000
0010
1000
0001
0100
0010
1000
0100
1000
0001
0100
0010
0000
1000
0000
,
0001
0000
1000
0100
0010
0001
1000
0001
0100
0010
0100
0001
1000
0010
1000
0001
,
0100
0010
0100
0001
0010
0001
1000
0100
0010
0001
1000
0001
0200
0000
0300
0000
,
0020
0000
0000
0000
1030
0001
0100
0001
1000
0010
0100
0001
0100
0010
1000
0001
,
0010
0001
1000
0100
0010
0001
1000
0100
1000
0001
1000
0010
0100
0001
0100
0010
,
1000
0001
0100
0001
0100
0010
1000
0001
0010
0001
1000
0100
0010
0001
1000
0001
,
0100
0010
0100
0001
0100
0010
1000
0010
0100
0001
1000
0100
0010
0000
0001
0000
,
1000
0000
0001
0100
0010
1000
0001
0100
0001
1000
0100
0010
0001
1000
0001
0100
,
0010
0100
0001
1000
0010
1000
0100
0010
0001
1000
0001
0100
0010
0000
1000
0001
,
1000
0000
0100
0010
0001
1000
0001
0100
0010
0100
0001
0100
0010
1000
0001
0100
,
0001
1000
0100
0010
0001
1000
0001
0100
0010
1000
0001
1000
0020
0000
0030
0000
,
0400
0000
0000
0000
0301
0010
0100
1000
0001
1000
0010
0100
0001
1000
0010
1000
,
0100
0010
0001
1000
0100
1000
0001
0100
0001
0010
0100
1000
0001
0010
0001
1000
,
0010
0100
0010
0100
0001
1000
0010
0100
0001
0100
0010
1000
0001
0100
0001
0010
,
0001
0100
0010
1000
0001
0100
0001
0100
0010
1000
0010
1000
0001
0010
0100
1000
,
0100
0010
0001
1000
0001
0100
0010
1000
0001
0100
0001
1000
0100
0010
0001
1000
,
0010
1000
0001
0100
0010
1000
0001
0100
0001
0010
0100
1000
0001
0010
0001
1000
,
0001
0100
0010
0100
0001
0100
0010
1000
0001
1000
0100
0010
0100
1000
0001
1000
,
0010
0100
0001
0100
0010
1000
0001
0100
0001
0010
0100
1000
0001
0010
0001
1000
,
0001
0100
0010
1000
0001
0100
0001
1000
0100
0010
0001
1000
0010
1000
0001
0100
,
0001
1000
0100
0010
0001
1000
0010
0100
0001
0100
0010
1000
0001
0010
0001
1000
,
0100
0010
0001
1000
0100
1000
0001
0100
0001
1000
0010
0100
0001
0100
0010
1000
,
0001
0010
0001
1000
0001
0100
0010
0100
0001
1000
0100
0010
0001
0000
0000
0000
,
4000
0000
0000
0000
3001
0100
0010
0100
0001
1000
0010
1000
0100
0010
0001
1000
,
0100
1000
0001
0010
0001
0100
0010
1000
0001
0100
0001
1000
0010
0100
0010
1000
,
0001
0100
0001
0100
0010
1000
0001
1000
0100
0010
0100
1000
0001
0010
0001
0100
,
0010
1000
0001
0100
0001
1000
0100
0010
0001
0000
1000
0010
0100
0001
0100
0001
,
1000
0010
1000
0010
0100
0001
1000
0100
0010
0001
1000
0100
1000
0001
0010
0001
,
0100
0010
1000
0001
0100
0001
0010
0100
1000
0001
0010
0001
1000
0010
1000
0001
,
0100
0010
0100
0001
1000
0100
0010
0001
1000
0100
1000
0001
0010
0001
0100
0010
,
1000
0010
0100
0001
1000
0100
0010
0001
1000
0001
0100
0010
1000
0000
0001
0000
,
1000
0000
0100
0000
M010
0001
0100
0001
1000
0010
1000
0001
0100
0010
1000
0001
,
0100
0001
1000
0100
0010
0001
1000
0100
1000
0001
0010
0001
1000
0010
0100
0001
,
0100
0010
1000
0001
0010
0001
1000
0010
1000
0001
0100
0010
0100
0001
0100
0010
,
1000
0001
0010
0001
1000
0100
1000
0001
1000
0010
0100
0001
1000
0100
1000
0001
,
0010
0100
1000
0001
1000
0100
0010
0001
1000
0010
1000
0001
1000
0010
0100
0001
,
0100
0010
1000
0100
1000
0001
0010
0001
1000
0010
1000
0001
0100
0010
1000
0010
,
0100
0001
1000
0100
0010
0001
0010
0001
1000
0010
1000
0001
0100
0001
0010
0100
,
1000
0001
1000
0010
0100
0001
0100
0010
1000
0001
0010
0001
1000
0100
1000
0001
,
0100
0010
1000
0001
01M0
0000
0010
0000
1000
0000
0001
0000
0000
0000
1000
0000
,
0100
0010
0000
0001
0100
0001
1000
1M1M
,
0000
M11M
0100
0001
1000
0001
0000
1000
,
0100
1000
0000
0010
0100
0001
1000
0100
,
0010
0001
1MM1
1000
0100
0010
0001
1000
,
0010
0100
M1M1
0001
1000
0100
0010
0001
,
1000
0010
100M
0100
0010
0001
1000
0010
,
0100
0000
0001
0000
1000
0010
1000
0001
0100
0010
0100
0001
1000
0000
0010
0000
,
0100
0000
0001
0000
1000
0100
0010
0001
1000
0001
0100
0010
0100
0001
0100
0010
,
1000
0001
0100
0001
0100
0010
1000
0001
0010
0001
1000
0100
1000
0001
0100
0010
,
1000
0001
0100
0001
1000
0100
0010
0001
0100
0001
1000
0100
1000
0001
0010
0100
,
1000
0001
1000
0010
1000
0001
0100
0001
0010
0100
1000
0001
1000
0100
1000
0001
,
0100
0001
0010
0100
1000
0001
0100
0010
1000
0001
0100
0001
1000
0010
1000
0001
,
0010
0001
0100
0001
1000
0010
1000
0100
0010
0001
1000
0001
0100
0010
1000
0001
,
0010
0001
1000
0100
0010
0001
1000
0010
0100
0001
0100
0010
1000
0001
0010
0100
,
1000
0001
0100
0010
1000
0000
0001
0000
0100
0000
0040
0000
0030
0000
2000
0000
,
3002
0003
2000
3200
0300
0020
0030
0002
,
0203
0310
2000
3002
1003
0200
0300
0010
,
0001
0100
0001
0000
1000
0000
0100
0000
0000
0000
1000
0000
0000
0000
0020
0000
,
0230
0302
1003
0100
0010
0001
0000
1000
,
0010
0100
0001
1000
0002
0000
0203
0000
0300
0000
0020
0000
0030
0000
2000
0000
,
3002
0000
0000
0003
1000
0000
0200
0000
0000
0300
0020
0000
0030
0000
0001
0000
,
1000
0100
0010
0001
2000
0000
3002
0000
0103
0000
0020
0000
1030
0000
0200
0000
,
0310
0001
1000
0001
0100
0000
0040
0000
0030
0000
4000
0000
3100
0000
0010
0000
,
0001
1000
0001
1000
0100
0010
0001
1000
0001
0100
0010
1000
0001
0100
0001
1000
,
0100
0010
0001
1000
0010
1000
0001
0100
0001
1000
0010
0100
0001
0100
0010
1000
,
0001
0010
0001
1000
0100
0010
0001
1000
0100
1000
0001
0100
0001
1000
0100
0010
,
0001
1000
0001
0100
0010
0100
0001
1000
0010
1000
0001
0100
0010
0100
0001
1000
,
0100
1000
0001
0010
0001
1000
0100
0010
0001
0100
0001
1000
0010
1000
0100
0010
,
0001
1000
0100
1000
0001
0100
0001
1000
0010
0100
0001
0100
0010
1000
0001
0010
,
0001
1000
0100
0010
0001
1000
0010
1000
0001
0010
0100
1000
0001
1000
0100
0010
,
0001
1000
0010
1000
0001
0100
0001
1000
0100
1000
0001
0100
0010
1000
0010
1000
,
0001
0100
0001
0100
0010
1000
0100
1000
0001
0100
0010
1000
0001
0100
0001
1000
,
0100
0010
0001
1000
0100
1000
0001
0010
0001
0100
0010
1000
0001
0100
0001
1000
,
0100
1000
0001
0100
0010
1000
0001
0010
0001
1000
0100
0010
0100
1000
0001
1000
,
0010
0100
0001
0100
0010
1000
0100
1000
0001
0100
0001
1000
0100
0010
0001
1000
,
0001
0100
0010
0100
0001
0010
0001
1000
0100
0010
0100
1000
0001
0010
0001
1000
,
0001
0100
0010
1000
0001
0100
0001
1000
0100
0010
0001
1000
0010
0100
0001
0100
,
0010
1000
0100
1000
0001
0010
0001
0100
0010
1000
0001
0100
0001
1000
0100
0010
,
0001
1000
0010
0100
0001
1000
0001
0100
0010
0000
1000
0000
0100
0000
0010
0000
,
0001
0100
0001
1000
0100
0010
0001
1000
0001
0100
0010
0100
0001
1000
0010
1000
,
0100
0010
0001
1000
0100
1000
0001
0010
0001
1000
0100
0010
0001
0000
1000
0000
,
0020
0000
0130
0001
1000
0100
1000
0001
0100
0010
1000
0001
0100
0001
1000
0100
,
0010
0001
1000
0001
0100
0010
0100
0001
1000
0010
1000
0001
0100
0000
0010
1000
,
0004
0000
1003
0100
1000
0010
0100
0001
1000
0100
1000
0001
0100
0001
0010
0100
,
1000
0001
0010
0001
0100
0010
1000
0001
0100
0001
1000
0010
1000
0100
0010
0001
,
0010
0100
1000
0001
1000
0010
0100
0001
0100
0010
1000
0001
0010
0001
1000
0100
,
0010
0001
1000
0001
0100
0000
0010
1000
0001
0000
1000
0100
0010
0000
0001
0000
,
2000
3020
0230
0302
1003
0010
1000
0001
0100
0001
0010
0100
1000
0001
0010
0001
,
1000
0010
0100
0001
0100
0010
1000
0001
0010
0001
1000
0100
1000
0000
0010
0000
,
0400
0304
0403
0340
1030
0001
1000
0100
0010
0001
0100
0001
1000
0010
0100
0001
,
1000
0100
1000
0001
0010
0001
0100
0010
1000
0001
0100
0001
1000
0000
0100
0010
,
0001
0000
1000
0010
0100
0001
1000
0001
0100
0010
0100
0001
1000
0100
0010
0100
,
1000
0001
0100
0001
0010
0100
1000
0001
1000
0010
0100
0001
0100
0010
1000
0100
,
1000
0001
1000
0010
0100
0001
1000
0100
1000
0100
0010
0001
1000
0100
1000
0001
,
0100
0010
1000
0001
0100
0010
0100
0010
1000
0001
1000
0001
0010
0100
1000
0001
,
1000
0010
0100
0001
0100
0010
1000
0001
0100
0001
1000
0100
0010
0001
1000
0010
,
1000
0001
0100
0001
1000
0100
0010
0001
1000
0001
0100
0010
1000
0001
0100
0001
,
0010
0100
1000
0001
0010
0001
0100
0010
1000
0001
0100
0001
1000
0010
0100
0001
,
1000
0100
1000
0010
0100
0001
0100
0010
1000
0001
0010
0001
1000
0100
0010
0001
,
1000
0001
0100
0001
0010
0100
1000
0001
0010
0001
1000
0010
1000
0001
0100
0010
,
1000
0001
0100
0001
1000
0100
0010
0001
1000
0001
0010
0100
1000
0100
1000
0001
,
0100
0001
0010
0100
1000
0001
1000
0010
0100
0001
1000
0010
1000
0001
0100
0001
,
1000
0100
1000
0001
0100
0010
1000
0001
1000
0100
0010
0001
1000
0000
0000
0000
,
0020
0230
0302
2003
3010
0100
0001
1000
0100
1000
0001
0010
0100
1000
0001
0010
,
0001
0100
0010
1000
0001
0100
0001
1000
0100
0010
0001
1000
0100
1000
0001
0010
,
0001
0100
0010
1000
0001
0100
0001
1000
0010
0100
0001
0100
0010
1000
0100
1000
,
0001
0010
0001
1000
0001
0100
0010
0100
0001
1000
0100
0010
0001
1000
0010
0100
,
0002
0000
0003
0000
1000
0100
0010
0001
1000
0001
0100
0010
0100
0001
1000
0010
,
1000
0100
0010
0001
1000
0100
1000
0001
0010
0001
0100
0010
1000
0001
0100
0001
,
1000
0010
0100
0001
0100
0010
1000
0001
0010
0001
1000
0100
0010
0001
1000
0001
,
0100
0010
0100
0001
1000
0100
0010
0100
1000
0001
0010
0001
1000
0010
0100
0001
,
0100
0010
1000
0001
0010
0001
1000
0100
0010
0001
0100
0001
1000
0100
1000
0001
,
0100
0010
1000
0001
0100
0001
1000
0100
0010
0001
1000
0010
0100
0001
1000
0100
,
1000
0001
0100
0001
0010
0100
1000
0001
0010
0001
0100
0010
1000
0000
0000
0000
,
0000
0000
0000
0000
,
0000
0000
0000
0000
,
0000
0000
0000
1000
,
0000
1000
0000
0000
,
0000
0000
0000
0000
,
0000
0000
0000
0000
,
0000
0000
0000
0000
,
0000
0000
0000
0000
,
0000
0000
0000
0000
,
0000
0000
0000
0000
,
0000
0000
0000
0000
,
0000
0000
0000
0000
,
0000
0000
0000
0000
,
0000
0000
0000
0000
,
0000
0000
0000
0000
,
0000
0000
0000
0000
,
0000
0000
0000
0000
,
0000
0000
0000
0000
,
0000
0000
0000
0000
,
0000
0000
0000
0000
,
0000
0000
0000
0000
,
0000
0000
0000
0000
,
0000
0000
0000
0000
,
0000
0000
0000
0000
,
0000
0000
0000
0000
,
0000
0000
0000
0000
,
0000
0000
0000
0000
,
0000
0000
0000
0000
,
0000
0000
0000
0000
,
0000
0000
0000
0000
,
0000
0000
0000
0000
,
0000
0000
0000
0000
,
0000
0000
0000
0000
,
0000
0000
0000
0000
,
0000
0000
0000
0000
,
1000
0001
0000
0000
,
0000
0000
0000
0000
,
0000
0000
0000
0000
,
0000
0000
0000
0000
,
0000
0000
0000
0000
,
0000
0000
0000
0000
,
0000
0000
0000
0000
,
0000
1000
0000
0000
,
0000
1000
0000
0000
;
