#TITLE:Sweet;
#SUBTITLE:;
#ARTIST:DJ Evil;
#TITLETRANSLIT:;
#SUBTITLETRANSLIT:;
#ARTISTTRANSLIT:;
#CREDIT:;
#BANNER:BN.png;
#BACKGROUND:BG.png;
#LYRICSPATH:;
#CDTITLE:KOMBO.png;
#MUSIC:Sweet.mp3;
#OFFSET:1.400;
#SAMPLESTART:90.554;
#SAMPLELENGTH:16.000;
#SELECTABLE:YES;
#BPMS:0.000=171.440;
#STOPS:260.000=1.020
;
#BGCHANGES:;
// cache tags:
#FIRSTBEAT:4.000;
#LASTBEAT:325.250;
#SONGFILENAME:Songs/Definitive Keyboard Megapack/Sweet [KOMBO]/sweet.sm;
#HASMUSIC:1;
#HASBANNER:1;
#MUSICLENGTH:114.974;
// end cache tags

//---------------dance-single - KOMBO----------------
#NOTES:
     dance-single:
     KOMBO:
     Challenge:
     13:
     1.000,1.000,1.000,0.200,1.000,1104.000,365.000,23.000,0.000,7.000:

0000
0000
0000
0000
,
1010
0100
0001
0100
1000
0000
1000
0010
0001
0010
1000
0010
0001
0010
1000
0000
,
0001
0010
1000
0010
0001
0000
1000
0100
0001
0010
0100
1000
0002
0003
0000
0000
,
0100
0001
0010
0001
0100
0000
0100
1000
0010
1000
0100
1000
0010
1000
0100
0000
,
0010
1000
0100
1000
0010
0000
0100
0001
0010
1000
0001
0100
0020
0030
0000
0000
,
1000
0001
0010
0001
1000
0000
1000
0100
0010
0100
1000
0100
0010
0100
1000
0000
,
0010
0100
1000
0100
0010
0000
1000
0001
0010
0100
0001
1000
0020
0030
0000
0000
,
1000
0100
0001
0100
1000
0001
1000
0010
0001
0010
1000
0010
0001
0010
1000
0100
,
0010
0001
1000
0001
0100
0010
1000
0100
0001
0010
0100
1000
0002
1003
0100
0010
,
1001
0100
0001
0100
0001
1000
0010
1000
0010
1000
0010
0100
0001
0100
0001
0100
,
0001
0100
0010
1000
0010
1000
0100
0010
0001
0100
0010
1000
0100
0010
0001
0100
,
1000
0010
1000
0010
1000
0001
0100
0001
0100
0001
0100
0010
1000
0010
1000
0010
,
1000
0010
0100
0001
0100
0001
0010
0100
1000
0010
0100
0001
0010
0100
1000
0100
,
0010
0001
0010
0001
0010
1000
0100
1000
0100
1000
0100
0001
0010
0001
0010
0001
,
0010
0001
0100
1000
0100
1000
0001
0100
0010
0001
0100
1000
0001
0100
0010
0001
,
0010
1000
0010
1000
0010
0100
0001
0100
0001
0100
0001
1000
0010
1000
0010
1000
,
0111
0000
0010
0000
,
1010
0100
1010
0100
1010
0001
0110
0001
0110
0001
0110
1000
0011
1000
0011
0100
,
1010
0100
0011
1000
0110
1000
0011
0100
1010
0100
1001
0010
1100
0010
0101
1000
,
0011
1000
0011
1000
0011
0100
1001
0100
1001
0100
1001
0010
0101
0010
0101
0010
,
0101
1000
0011
1000
0110
0001
1100
0010
1001
0100
0011
1000
0110
0001
1100
0010
,
1001
0010
1001
0010
1001
0100
0011
0100
0011
0100
0011
1000
0110
1000
0110
1000
,
0110
0001
1100
0010
1001
0100
0011
0100
1001
0010
0101
1000
0110
1000
0011
0100
,
1010
0100
1010
0100
1010
0001
0110
0001
0110
0001
0110
1000
0011
1000
0011
1000
,
0011
0100
1001
0010
1100
0001
0110
1000
0011
0100
1010
0100
0011
1000
0011
1000
,
0111
1000
0110
1000
0110
0001
1100
0001
1100
0001
1100
0010
1001
0100
1001
0100
,
1001
0010
1100
0001
0110
0001
1100
0010
0101
0010
1001
0100
0011
0100
1010
0001
,
1100
0001
1100
0001
1100
0010
1001
0010
1001
0010
1001
0100
1010
0100
1010
0100
,
1010
0001
1100
0001
0110
1000
0011
0100
1001
0010
1100
0001
0110
1000
0011
0100
,
1001
0100
1001
0100
1001
0010
1100
0010
1100
0010
1100
0001
0110
0001
0110
0001
,
0110
1000
0011
0100
1001
0010
1100
0010
1001
0100
1010
0001
0110
0001
1100
0010
,
0101
0010
0101
0010
0101
1000
0110
1000
0110
1000
0110
0001
1100
0001
1100
0001
,
1100
0010
1001
0100
0011
1000
0110
0001
1100
0010
0101
0010
1100
0001
1100
0001
,
1110
0001
0110
0001
1100
0010
0101
0010
1000
0100
1001
0010
0101
0010
1000
0010
,
0100
0010
1100
0010
0101
0010
1001
0010
1000
0100
1010
0001
0110
1000
0010
0100
,
0010
1000
0011
1000
0110
0001
1010
0001
0010
0100
1010
0001
0110
0001
1000
0010
,
0100
0010
1001
0010
0101
0010
1100
0001
0100
1000
0011
0100
1010
0001
0100
0010
,
1000
0100
0011
0100
1001
0010
0101
0010
1000
0001
1100
0010
0101
0010
1000
0010
,
0001
0010
1001
0010
0101
0010
1100
0010
1000
0001
1010
0100
0011
1000
0010
0001
,
0010
1000
0110
1000
0011
0100
1010
0100
0010
0001
1010
0100
0011
0100
1000
0010
,
0001
0010
1100
0010
0101
0010
1001
0100
0001
1000
0100
1000
0010
0100
0010
1000
,
0011
0000
0010
0000
0010
0000
1100
0000
0010
0000
1000
0000
0010
0000
0000
0100
0000
0000
0010
0000
0000
0000
0000
0000
,
2000
0001
0010
0001
3000
0000
1000
0010
0001
0000
0001
0100
1000
0000
0000
0000
,
1001
0000
0001
0000
0001
0000
1100
0000
0010
0000
0100
0000
0010
0000
0000
0100
0000
0000
0001
0000
0000
0000
0000
0000
,
0002
0100
0010
0100
0003
0000
1000
0100
0001
0000
0001
0010
1000
0000
0000
0000
,
1000
0000
0010
0000
1000
0000
0100
0000
0001
0000
0100
0000
1000
0000
0000
0010
0000
0000
1000
0000
0000
0000
0000
0000
,
0002
1000
0100
1000
0003
0000
0010
0100
0001
0000
0100
0010
1000
0000
0000
0000
,
0010
0000
0010
0000
0010
0000
0100
0000
0010
0000
1000
0000
0100
0000
0000
0010
0000
0000
0100
0000
0000
0000
0000
0000
,
2000
0101
3020
0000
0000
0000
0000
0030
,
1100
0000
0010
0000
0110
0000
0011
0100
1010
0001
0110
0000
0101
0000
0010
0000
,
2001
0000
0010
0000
3001
0000
1010
0100
0011
0100
1010
0000
0011
0000
1000
0000
,
1010
0000
0001
0000
1001
0000
0101
1000
0011
0100
1001
0000
1100
0000
0001
0000
,
0120
0000
0001
0000
0130
0000
0011
1000
0101
1000
0011
0000
0101
0000
0000
0000
,
0011
0000
0100
0000
0101
0000
1100
0001
0110
1000
0101
0000
1001
0000
0100
0000
,
1020
0000
0100
0000
1030
0000
0110
0001
1100
0001
0110
0000
1100
0000
0000
0000
,
0011
0000
0100
0000
0110
0000
1100
0010
0101
1000
0110
0000
1010
0000
0100
0000
,
2002
3000
0000
0000
0100
0000
0000
0000
2003
3000
0000
0000
0101
0000
0010
0000
2002
3003
0010
0000
1100
0000
0000
0000
2002
3003
0000
0000
0000
0000
0000
0000
,
1000
0000
1000
0000
0100
0000
0010
0000
1000
0000
1000
0000
0100
0000
0000
0100
0000
0000
0100
0000
0000
0000
0000
0000
,
0010
0010
0010
0100
1000
0000
0001
0010
0100
0000
0001
1000
0010
0000
0000
0000
,
1000
0000
0100
0000
0100
0000
0001
0000
0010
0000
0010
0000
1000
0000
0000
0001
0000
0000
0100
0000
0000
0000
0000
0000
,
0100
0100
0100
0010
0100
0000
0100
0010
1000
0000
0010
1000
0100
0000
0000
0000
,
0010
0000
0100
0000
1000
0000
1000
0000
0010
0000
0001
0000
0001
0000
0000
0100
0000
0000
1000
0000
0000
0000
0000
0000
,
0010
0010
0010
1000
0001
0000
1000
0100
0010
0000
0001
0010
0100
0000
0000
0000
,
1000
0100
1000
0100
2000
3010
0100
0010
0100
0010
0100
0010
0100
0010
0100
1000
,
0011
1100
0011
1100
0011
1100
0011
1100
0011
1100
0011
1100
0011
1100
0011
1100
,
1111
0000
0000
0000
1010
0100
1010
0100
1010
0001
0110
0001
0110
0001
0110
1000
,
0011
1000
0011
0100
1010
0100
0011
1000
0110
1000
0011
0100
1010
0100
1001
0010
,
1100
0010
0101
1000
0011
1000
0011
1000
0011
0100
1001
0100
1001
0100
1001
0010
,
0101
0010
0101
0010
0101
1000
0011
1000
0110
0001
1100
0010
1001
0100
0011
1000
,
0110
0001
1100
0010
1001
0010
1001
0010
1001
0100
0011
0100
0011
0100
0011
1000
,
0110
1000
0110
1000
0110
0001
1100
0010
1001
0100
0011
0100
1001
0010
0101
1000
,
0110
1000
0011
0100
1010
0100
1010
0100
1010
0001
0110
0001
0110
0001
0110
1000
,
0011
1000
0011
1000
0011
0100
1001
0010
1100
0001
0110
1000
0011
0100
1010
0100
,
0011
1000
0011
1000
0111
1000
0110
1000
0110
0001
1100
0001
1100
0001
1100
0010
,
1001
0100
1001
0100
1001
0010
1100
0001
0110
0001
1100
0010
0101
0010
1001
0100
,
0011
0100
1010
0001
1100
0001
1100
0001
1100
0010
1001
0010
1001
0010
1001
0100
,
1010
0100
1010
0100
1010
0001
1100
0001
0110
1000
0011
0100
1001
0010
1100
0001
,
0110
1000
0011
0100
1001
0100
1001
0100
1001
0010
1100
0010
1100
0010
1100
0001
,
0110
0001
0110
0001
0110
1000
0011
0100
1001
0010
1100
0010
1001
0100
1010
0001
,
0110
0001
1100
0010
0101
0010
0101
0010
0101
1000
0110
1000
0110
1000
0110
0001
,
1100
0001
1100
0001
1100
0010
1001
0100
0011
1000
0110
0001
1100
0010
0101
0010
,
1100
0001
1100
0001
2220
3330
0000
0000
0000
0000
0000
0000
0000
0000
0000
0000
;
