#TITLE:RISLIM;
#SUBTITLE:;
#ARTIST:ric;
#TITLETRANSLIT:;
#SUBTITLETRANSLIT:;
#ARTISTTRANSLIT:;
#CREDIT:;
#BANNER:Rislim-BN.png;
#BACKGROUND:Rislim-BG.png;
#LYRICSPATH:;
#CDTITLE:!ensytherTitle.png;
#MUSIC:Rislim.mp3;
#OFFSET:-4.120;
#SAMPLESTART:29.874;
#SAMPLELENGTH:14.000;
#SELECTABLE:YES;
#BPMS:0.000=130.000;
#STOPS:211.875=2.280
;
#BGCHANGES:;
// cache tags:
#FIRSTBEAT:4.000;
#LASTBEAT:227.750;
#SONGFILENAME:Songs/Essential Sim Collection/(Ensyther) rislim/Rislim.sm;
#HASMUSIC:1;
#HASBANNER:1;
#MUSICLENGTH:113.691;
// end cache tags

//---------------dance-single - ----------------
#NOTES:
     dance-single:
     :
     Easy:
     3:
     0.239,0.324,0.237,0.053,0.000,157.000,27.000,6.000,0.000,0.000:  // measure 1
0000
0000
0000
0000
,  // measure 2
0000
0000
0000
0000
,  // measure 3
1100
0000
0100
0010
,  // measure 4
0110
0000
0001
0100
,  // measure 5
0101
0000
1000
0010
,  // measure 6
1010
0000
1000
0001
,  // measure 7
0200
0000
0000
0000
,  // measure 8
0320
0000
0000
0000
,  // measure 9
2030
0000
0000
0000
,  // measure 10
3002
0000
0000
0000
,  // measure 11
1003
0000
1000
1000
,  // measure 12
0100
0000
0001
0001
,  // measure 13
0100
0100
0010
0010
,  // measure 14
1000
0001
0100
0010
,  // measure 15
1000
0000
0100
0100
,  // measure 16
0010
0000
0001
0001
,  // measure 17
1000
0001
1000
0001
,  // measure 18
0100
0010
1000
0100
,  // measure 19
0010
0000
0001
0001
,  // measure 20
0100
0000
1000
1000
,  // measure 21
0100
0010
0100
0010
,  // measure 22
0001
1000
0100
0010
,  // measure 23
0001
0000
0000
0000
,  // measure 24
0000
0000
0000
0000
,  // measure 25
1000
0100
0010
0011
,  // measure 26
0001
0100
0010
1010
,  // measure 27
0101
0000
0001
0001
,  // measure 28
1100
0000
1000
1000
,  // measure 29
0011
1100
0010
0100
,  // measure 30
1000
0001
0100
0100
,  // measure 31
0101
0000
0100
0100
,  // measure 32
1001
0000
0010
1000
,  // measure 33
0101
0001
0010
0100
,  // measure 34
1100
0101
0010
0100
,  // measure 35
1001
0000
0001
0000
,  // measure 36
0100
0000
0100
0000
,  // measure 37
1010
0000
0010
0000
,  // measure 38
1000
0000
1000
0000
,  // measure 39
0200
0000
0000
0300
,  // measure 40
0020
0000
0000
0030
,  // measure 41
0100
0000
0001
0000
,  // measure 42
1001
0000
0000
0000
,  // measure 43
1000
0100
0101
1000
,  // measure 44
0001
0100
0011
0000
,  // measure 45
0001
0100
1000
0100
,  // measure 46
1000
0100
0001
0100
,  // measure 47
1000
1000
0101
0100
,  // measure 48
1010
0001
0101
0000
,  // measure 49
1000
0010
0001
0010
,  // measure 50
0001
0010
1000
0001
,  // measure 51
1001
0000
1000
0100
,  // measure 52
0101
0000
0001
0100
,  // measure 53
1001
0000
0000
0000
,  // measure 54
0010
0010
0000
0010
,  // measure 55
0100
0100
0000
0100
,  // measure 56
0001
0001
0000
0001
,  // measure 57
1000
1000
0000
1001
;

//---------------dance-single - ----------------
#NOTES:
     dance-single:
     :
     Medium:
     6:
     0.452,0.450,0.352,0.132,0.119,305.000,40.000,15.000,0.000,0.000:  // measure 1
0000
0000
0000
0000
,  // measure 2
0000
0000
0000
0000
0000
0000
0001
1000
,  // measure 3
1001
0000
0100
0000
1000
0000
0001
0001
,  // measure 4
0001
0000
0101
0000
0100
0000
0010
0010
,  // measure 5
0010
0000
1010
0000
0100
0000
0001
0001
,  // measure 6
0001
0100
1100
0101
,  // measure 7
0001
0010
0100
0000
0100
0000
0100
1000
,  // measure 8
0001
0000
0100
0000
0010
0000
1000
0010
,  // measure 9
0100
0000
0100
0000
0001
0000
0010
0100
,  // measure 10
0010
0001
1000
1100
,  // measure 11
0110
0000
0000
0010
0001
0000
0000
0001
0100
0000
0000
0100
0010
0000
0000
0010
,  // measure 12
1000
0000
0000
1000
0001
0000
0000
0001
0010
0000
0000
0010
0100
0000
0000
0100
,  // measure 13
1000
0000
0000
1000
0001
0000
0000
0001
0100
0000
0000
0100
0010
0000
0000
0010
,  // measure 14
1000
0000
0000
1000
0100
0000
0000
0100
0010
0000
0000
0010
0001
0000
0000
0001
,  // measure 15
1000
0000
0000
0000
0000
0000
0000
0000
0000
0000
0000
0001
0000
0000
0000
0000
0000
0000
0000
0000
0000
0000
0000
0100
0000
0000
0000
0000
0000
0000
0000
0000
,  // measure 16
0101
0000
0000
0000
0000
0001
0000
0000
0000
0000
0000
1000
0000
0000
0000
0000
,  // measure 17
2100
3001
0021
0130
,  // measure 18
1020
0130
0012
1003
,  // measure 19
1100
0000
0000
0000
0000
0000
0000
0000
0000
0000
0000
0101
0000
0000
0000
0000
0000
0000
0000
0000
0000
0000
0000
0110
0000
0000
0000
0000
0000
0000
0000
0000
,  // measure 20
1001
0000
0000
0000
0000
0000
0000
0000
0000
0000
0000
1010
0000
0000
0000
0000
0000
0000
0000
0000
0000
0000
0000
0101
0000
0000
0000
0000
0000
0000
0000
0000
,  // measure 21
2001
3100
1002
0103
,  // measure 22
0120
1030
0210
0301
,  // measure 23
2002
0000
0000
3003
,  // measure 24
0100
0100
0100
0100
,  // measure 25
0101
0000
1000
0100
1000
0010
0100
0001
,  // measure 26
0010
0000
0001
0010
0100
1000
0001
0100
,  // measure 27
0110
0000
1001
0000
1000
0010
0100
0001
,  // measure 28
0100
0000
0010
1000
0001
0000
1001
0000
,  // measure 29
1000
0100
1000
0000
0010
1000
0010
0000
,  // measure 30
0001
0010
0001
0000
0010
0100
0010
0000
,  // measure 31
1000
0001
0100
0001
1000
0100
1000
0000
,  // measure 32
0001
1000
0001
0010
0100
0010
0001
0000
,  // measure 33
1001
0001
1000
0000
1010
0010
1000
0000
,  // measure 34
0001
0101
0001
0000
1000
1100
1000
0000
,  // measure 35
1000
0000
0100
0100
0000
0010
0010
0001
,  // measure 36
0100
0000
0010
0010
1000
1000
0100
0000
,  // measure 37
1001
0000
0001
1000
0000
1000
0100
1000
,  // measure 38
0010
0000
0000
0000
0010
0000
0100
0000
0000
0000
0100
0000
0001
0100
0001
0000
,  // measure 39
1000
0000
0001
0100
0000
0100
0001
1000
,  // measure 40
0100
1000
0010
0100
0000
0010
1000
0001
,  // measure 41
0100
0010
1000
0100
0000
0010
0001
0000
,  // measure 42
2002
0003
3100
0000
,  // measure 43
1000
1000
1000
0100
0100
0000
0010
0010
,  // measure 44
0001
0100
0010
1000
0010
0000
1001
0001
,  // measure 45
1000
0100
0010
0001
0010
0100
1000
0001
,  // measure 46
0001
0100
0010
1000
0010
0100
0001
1000
,  // measure 47
0100
0100
0010
0010
0010
0000
0001
0001
,  // measure 48
1000
1000
0001
0000
1001
0000
0110
0000
,  // measure 49
1000
0000
0010
0100
0001
0000
0001
0100
,  // measure 50
0010
0000
0010
1000
0100
0000
0100
0001
,  // measure 51
0100
1000
0001
0100
,  // measure 52
0101
0000
0000
0000
0000
0000
0000
0000
0000
0000
0000
1010
0000
0000
0000
0000
0000
0000
0000
0000
0000
0000
0000
0101
0000
0000
0000
0000
0000
0000
0000
0000
,  // measure 53
2002
0000
0000
0000
0000
0000
0000
0000
0000
0000
0000
0000
0000
0000
0000
3003
,  // measure 54
0100
1000
0100
0010
0001
0100
0010
0000
,  // measure 55
1000
0010
0100
0001
0010
0100
0010
0000
,  // measure 56
0001
1000
0100
0001
0100
1000
0010
0000
,  // measure 57
0010
0000
0000
0000
0100
0000
0000
0000
0001
0000
0000
0000
1000
0000
0000
0000
0100
0000
0000
0000
0001
0000
0000
0000
0200
0000
0000
0000
0000
0300
0000
0000
;

//---------------dance-single - ----------------
#NOTES:
     dance-single:
     :
     Hard:
     9:
     0.642,0.676,0.290,0.176,0.317,458.000,33.000,20.000,0.000,0.000:  // measure 1
0000
0000
0000
0000
,  // measure 2
0000
0000
0000
0000
0000
0000
0000
0000
1000
0100
0000
0000
0001
0100
0001
0000
,  // measure 3
1000
0000
0100
0000
0010
0001
0010
0000
0100
0000
1000
0000
0010
0001
0010
0000
,  // measure 4
1000
0000
0100
0000
0001
0100
0001
0000
0100
0000
1000
0000
0010
0000
0100
0000
,  // measure 5
0001
0000
0100
0000
0010
1000
0010
0000
0100
0000
0001
0000
0100
0001
1000
0000
,  // measure 6
0100
0000
0010
0000
1000
0010
1000
0000
0010
0000
0001
0000
0100
1000
0100
0000
,  // measure 7
0001
1000
1100
0001
0101
0010
1000
0001
,  // measure 8
0000
0001
0101
0100
0110
0010
1010
0100
,  // measure 9
0000
0000
0100
0000
0010
0001
0010
0000
0001
0100
0001
0000
0100
1000
0100
0000
,  // measure 10
0000
0000
0100
0000
0010
1000
0100
0000
0010
0001
0100
0000
0010
1000
0100
0000
,  // measure 11
0010
0000
0001
0000
0100
0000
0010
1000
0000
0000
0010
0000
0100
0000
0001
0000
,  // measure 12
1000
0000
0100
0000
0010
0000
0001
0010
0000
0000
0100
0000
1000
0000
0001
0000
,  // measure 13
0100
0000
0010
0000
1000
0000
0010
1000
0000
0010
0100
0000
0010
0000
1000
0000
,  // measure 14
0100
0000
0010
0000
0001
0000
0100
0000
0010
1000
0010
0000
0100
0010
0100
0000
,  // measure 15
2001
0000
0100
3100
0000
0001
0101
0100
,  // measure 16
0120
0000
1000
1030
0000
1000
1100
0000
,  // measure 17
1000
0000
0100
0000
0001
0100
0001
0000
0100
0000
1000
0000
0010
0001
0010
0000
,  // measure 18
1000
0000
0100
0000
0010
0001
0010
0000
0100
0000
1000
0000
0010
1000
0010
0000
,  // measure 19
1020
0000
0100
0130
0000
0001
0101
1000
,  // measure 20
2100
0000
0001
3001
0000
0010
0110
0100
,  // measure 21
0001
0000
0010
0000
1000
0010
1000
0000
0010
0000
0001
0000
0100
0010
0100
0000
,  // measure 22
0010
0000
1000
0000
0100
1000
0001
0000
0100
0000
0001
0000
0010
0001
1000
0000
,  // measure 23
2002
0000
0000
3003
,  // measure 24
0200
0001
1000
0310
,  // measure 25
1000
0100
0010
0001
1000
0100
0010
0001
,  // measure 26
0001
0100
0010
1000
0001
0100
0010
1000
,  // measure 27
1002
0000
0100
0103
0001
0100
0101
1000
,  // measure 28
2001
0000
0001
3001
0100
1000
1100
0100
,  // measure 29
0010
0000
0001
0000
0010
0100
0010
0000
0100
0000
1000
0000
0010
0100
0010
0000
,  // measure 30
0100
0000
0001
0000
0100
0010
1000
0000
0010
0000
0100
0000
0001
0100
0010
0000
,  // measure 31
0120
0000
0100
0130
0010
1000
1100
0100
,  // measure 32
0210
0000
0010
0310
0001
0100
0101
0100
,  // measure 33
0010
1000
0100
0000
0010
0000
0001
0000
0100
0010
1000
0000
0100
0000
0001
0000
,  // measure 34
0100
0010
0001
0000
0100
0000
1000
0000
0100
0010
1000
0000
0100
0000
0010
0000
,  // measure 35
0120
0000
0031
0001
0100
0010
1000
0100
,  // measure 36
0010
0001
0000
0001
0010
0000
0010
0100
0000
0100
1000
0000
0001
0000
0100
0000
,  // measure 37
0102
0000
1003
1000
0100
0010
0001
0010
,  // measure 38
0100
0010
0000
0010
0100
0000
1000
0001
0000
0001
1000
0000
0010
0100
0010
0000
,  // measure 39
0100
0001
0001
0100
0020
1000
1000
1030
,  // measure 40
0010
0100
0001
1000
0200
0010
0010
0310
,  // measure 41
0110
0000
0001
0101
0000
1000
1100
0000
,  // measure 42
2002
0000
0000
0000
0000
0000
0000
0000
3003
0000
0000
0000
0001
1000
0001
0000
,  // measure 43
0100
0000
0100
0000
0001
0000
1000
0100
0000
0100
1000
0000
0010
0000
0010
0000
,  // measure 44
0100
0000
0001
0000
1000
0001
1000
0000
1001
0000
0000
0000
0100
0000
0010
0000
,  // measure 45
0001
0100
0010
1000
0010
0001
0010
0100
,  // measure 46
0010
0000
1000
0000
0100
0000
0010
0000
0001
0010
0001
0000
1000
0100
1000
0000
,  // measure 47
0001
0000
0001
0000
1000
0000
0100
0020
0000
0000
0000
0000
0130
0000
0100
0000
,  // measure 48
1000
0000
0010
0000
0100
0010
0100
0000
1001
0000
0000
0000
0001
0000
0100
0000
,  // measure 49
0001
1000
0100
0010
0001
0010
1000
0010
,  // measure 50
0002
0000
0100
0103
0000
0010
1000
0100
,  // measure 51
2100
0000
0001
3001
0000
0100
0100
0000
,  // measure 52
0110
0000
1000
0001
1000
0000
1001
0000
,  // measure 53
1000
0010
1000
0010
0100
0001
0100
0001
1000
0100
1000
0100
0010
0001
0010
0001
,  // measure 54
1000
0000
0010
0000
0100
0001
0100
0000
0010
0000
1000
0000
0100
0010
0100
0000
,  // measure 55
0010
0000
0001
0000
0100
1000
0100
0000
0001
0000
0010
0000
1000
0010
1000
0000
,  // measure 56
0010
0000
0001
0000
0100
0010
1000
0000
0010
0000
0100
0000
0001
0100
0010
0000
,  // measure 57
0010
0000
1000
0000
0001
0100
0001
0000
1000
0100
1000
0000
0001
0010
0100
1000
;

//---------------dance-single - ----------------
#NOTES:
     dance-single:
     :
     Challenge:
     10:
     1.000,1.000,0.686,0.035,1.000,732.000,78.000,4.000,0.000,0.000:  // measure 1
0000
0000
0000
0000
,  // measure 2
1000
0100
1000
0100
0000
0010
0000
0001
0000
0100
0010
0000
1000
0100
0010
0001
,  // measure 3
0100
0010
1000
0000
0010
0100
0001
0010
0100
1000
0100
0000
0010
0001
0100
0010
,  // measure 4
1000
0100
0010
0000
0001
0010
0100
1000
0100
0010
0001
0000
0001
0100
0010
1000
,  // measure 5
0100
0010
0001
0000
0001
0100
0010
1000
0100
0010
0000
0000
0010
0100
1000
0010
,  // measure 6
0100
0001
0100
0001
0100
0001
0100
0010
0100
0010
0100
0010
1000
0010
1000
0010
1000
0010
1000
0100
1000
0100
1000
0100
,  // measure 7
0010
0001
0100
0000
0010
1000
0100
0010
0110
0000
1001
0000
0010
0100
0001
1000
,  // measure 8
1100
0000
0101
0000
0001
0100
0010
1000
1010
0000
0011
0000
0010
1000
0100
0010
,  // measure 9
0011
0000
1100
0000
0010
0001
0100
0010
0110
0000
0101
0000
0010
1000
0100
0010
,  // measure 10
0011
0000
0100
1000
0001
0100
0010
1000
0010
0010
0010
0010
0100
0100
0100
0100
,  // measure 11
0110
0000
0010
1000
0100
0000
0010
0001
0100
0010
1000
0010
0100
0001
0100
0010
,  // measure 12
1001
0000
1000
0100
0010
0001
0010
1000
0010
0001
0100
0010
0100
0001
1000
0100
,  // measure 13
0110
0000
0010
0001
0100
1000
0100
0001
0010
0100
0010
0001
0100
0010
0100
0000
,  // measure 14
0010
1000
0010
1000
0010
1000
0001
0100
0001
0100
0001
0100
0001
0010
0001
0010
0001
0010
0100
1000
0100
1000
0100
1000
,  // measure 15
0100
0000
0011
0000
1100
0000
0010
0001
0100
0000
0101
0000
1000
0000
1100
0000
,  // measure 16
1001
0110
0101
1010
1001
0011
1100
1001
,  // measure 17
1000
0010
0100
0001
0100
0010
1000
0100
0001
0100
1000
0010
0100
0001
0010
0001
,  // measure 18
0100
0010
1000
0010
0100
0001
1000
0100
0010
0001
0100
1000
0100
0001
0010
0100
,  // measure 19
1001
0000
0101
0000
1010
0000
0100
0010
1000
0000
1100
0000
0011
0000
0100
0000
,  // measure 20
1001
0000
0001
0010
0100
1000
0100
0010
0011
0000
1100
0000
0110
0000
0001
0000
,  // measure 21
1100
0000
0001
0100
0010
0000
1010
0000
0101
0000
0001
0010
0100
0000
1100
0000
,  // measure 22
0011
0000
1000
0001
0100
0000
0110
0000
1001
0000
0010
0100
0001
0000
0101
0000
,  // measure 23
2002
0000
0000
0000
0000
0000
0000
3003
,  // measure 24
1000
0100
0010
0000
0001
0000
0001
0000
0001
0100
0010
0000
1000
0010
0100
0010
,  // measure 25
1000
0100
0000
0010
0001
0000
0001
0100
0000
0010
1000
0000
1001
0000
0110
0000
,  // measure 26
0001
1000
0000
0010
0100
0000
1000
0001
0000
0100
0010
0000
0010
1000
0100
0010
,  // measure 27
0001
0010
0100
0000
1100
0000
1000
0001
0100
0000
0110
0000
1001
0000
0101
0000
,  // measure 28
1010
0000
0010
1000
0100
0000
1100
0000
0011
0000
0101
0000
1010
0000
1000
0010
,  // measure 29
0100
0001
0100
0010
1000
0100
0010
0100
1000
0010
0100
0010
0001
0010
1000
0100
,  // measure 30
0010
0001
0010
0100
0010
1000
0010
0100
0010
0001
0100
0010
0100
1000
0100
0001
,  // measure 31
0011
0000
1100
0000
1001
0000
0001
0010
0100
0000
1000
0100
0010
0000
0001
1000
,  // measure 32
0100
0000
1100
0000
0101
0000
0001
0100
1000
0000
1100
0000
0101
0000
0011
0000
,  // measure 33
1000
0010
0001
0100
1000
0100
0010
0100
0001
0010
0100
0010
0001
0100
0010
1000
,  // measure 34
0100
0010
0001
0100
0010
1000
0100
0010
0100
0001
0100
1000
0010
0001
0010
1000
,  // measure 35
0100
0001
0000
0001
0100
0000
1000
0010
0000
0010
1000
0000
1010
0000
1010
0000
,  // measure 36
0010
0001
0000
0001
0010
0000
1000
0100
0000
0100
1000
0000
0001
0100
0001
1000
,  // measure 37
0100
0010
0000
0001
1000
0000
0010
0100
0000
1000
0001
0000
0110
0000
1001
0000
,  // measure 38
1000
0100
0000
0010
0001
0000
1000
0010
0000
0100
0001
0000
1010
0000
0101
0000
,  // measure 39
1000
0010
0100
0001
0100
0000
0010
0000
0100
0010
1000
0100
0010
0000
0001
0000
,  // measure 40
0010
0100
1000
0100
0001
0000
0100
0000
1000
0010
0001
0010
0100
0000
0010
0000
,  // measure 41
1000
0100
0010
0001
0100
0010
1000
0010
0100
0001
1000
0100
0010
0001
0100
0010
,  // measure 42
2002
0000
3003
0000
,  // measure 43
1000
0001
0100
0010
1000
0000
0100
0001
0000
0001
0100
0010
1000
0100
0010
0001
,  // measure 44
0100
0010
1000
0100
0010
0001
0011
0000
1100
0000
0101
0000
0001
1000
0100
0000
,  // measure 45
0010
0001
0100
0010
1000
0010
0100
0001
1000
0100
1000
0001
0100
0010
1000
0001
,  // measure 46
0010
0001
1000
0010
0100
0001
1000
0100
0001
0100
1000
0010
0100
0010
1000
0010
,  // measure 47
0100
0001
1000
0100
0010
0001
0010
0001
0000
1000
0100
0000
0010
0001
0100
0010
,  // measure 48
1000
0010
0100
0001
1000
0010
0100
0001
1001
0000
0100
0000
1001
0000
0010
0000
,  // measure 49
1001
0000
1000
0100
1000
0000
0001
0100
0001
1000
0100
0010
0001
0010
0100
1000
,  // measure 50
0010
0000
0001
0100
0001
0000
1000
0010
0100
0001
1000
0100
0010
0001
0100
0010
,  // measure 51
0110
0000
0000
0100
1000
0000
0100
1000
0000
0100
1000
0000
0100
0000
0010
0000
,  // measure 52
1001
0000
0000
0001
0100
0000
0001
0100
0000
0001
0100
0000
0100
0000
0010
0000
,  // measure 53
1000
0100
0010
0001
0100
0010
1000
0100
0010
0001
0100
0010
1000
0100
0010
0001
0100
0010
1000
0100
0010
0001
0100
0010
,  // measure 54
1000
0010
0100
0001
0010
0100
0010
0001
0100
0010
1000
0100
1000
0100
1000
0010
,  // measure 55
0100
0001
1000
0100
0010
0001
0100
0001
0010
0001
0100
0010
1000
0100
0010
0001
,  // measure 56
0100
0010
1000
0010
0100
0010
0100
0010
1000
0001
0100
0010
1000
0100
0010
0001
,  // measure 57
0100
0010
1000
0010
0100
0001
0100
0010
1000
0010
0100
0001
0100
0010
1000
0010
0100
0001
0100
0010
1000
0010
0100
0000
;
