#TITLE:Unknown Soldier;
#SUBTITLE:;
#ARTIST:Warmen;
#TITLETRANSLIT:;
#SUBTITLETRANSLIT:;
#ARTISTTRANSLIT:;
#CREDIT:;
#BANNER:soldier.png;
#BACKGROUND:soldier-bg.png;
#LYRICSPATH:;
#CDTITLE:rad.png;
#MUSIC:soldier.mp3;
#OFFSET:3.960;
#SAMPLESTART:39.900;
#SAMPLELENGTH:12.000;
#SELECTABLE:YES;
#BPMS:0.000=174.000;
#STOPS:;
#BGCHANGES:;
// cache tags:
#FIRSTBEAT:12.000;
#LASTBEAT:579.667;
#SONGFILENAME:Songs/Essential Sim Collection/(Radical J) Unknown Soldier/soldier.sm;
#HASMUSIC:1;
#HASBANNER:1;
#MUSICLENGTH:198.199;
// end cache tags

//---------------dance-single - ----------------
#NOTES:
     dance-single:
     :
     Hard:
     11:
     1.000,1.000,1.000,0.091,1.000,1453.000,281.000,18.000,0.000,1.000:  // measure 1
0000
0000
0000
0000
,  // measure 2
0000
0000
0000
0000
,  // measure 3
0000
0000
0000
0000
,  // measure 4
1001
0100
1000
0100
1000
0100
1000
0100
0010
0001
0010
0100
1000
0010
0100
0001
,  // measure 5
0010
0001
0010
0100
1000
0100
0010
0001
0100
0001
0100
0010
0100
1000
0011
1000
,  // measure 6
0011
1000
0100
0010
0001
0010
0100
1000
0001
0010
0100
1000
0010
0100
0001
0010
,  // measure 7
0001
0010
0100
1000
0100
1000
0010
0100
0001
0100
0001
0010
0100
1000
0100
1000
,  // measure 8
0011
1000
0100
1000
0011
1000
0100
0010
0001
0100
0010
1000
0100
0010
0001
0100
,  // measure 9
0010
0100
0010
1000
0100
1000
0010
0100
0001
0100
0010
1000
0100
0010
0100
1000
,  // measure 10
0011
1000
0100
1000
0011
1000
0100
1000
0011
1000
0100
1000
0011
1000
0100
1000
,  // measure 11
0001
0010
0100
1000
0100
0010
0001
0010
0100
1000
0100
0010
0001
0010
0100
1000
,  // measure 12
0022
0000
0000
0000
,  // measure 13
0033
0000
1100
0000
0110
0101
0011
1010
,  // measure 14
1001
0000
0110
0000
1010
1001
0011
0101
,  // measure 15
1100
0000
0011
0000
1010
0110
0011
1001
,  // measure 16
1100
0001
0010
0100
1000
0001
0010
0100
1000
0001
0010
0100
1000
0001
0010
0100
,  // measure 17
1000
0001
0010
0100
1000
0001
0010
0100
1000
0001
0010
0100
1000
0001
0010
0100
,  // measure 18
1001
0000
0110
0000
0011
0110
1100
1001
,  // measure 19
0101
0000
1010
0000
1001
0011
1010
1100
,  // measure 20
0101
0000
1010
0000
1001
0011
0110
1100
,  // measure 21
0101
1000
0100
0010
0001
1000
0100
0010
0001
1000
0100
0010
0001
1000
0100
0010
,  // measure 22
0001
1000
0100
0010
0001
1000
0100
0010
0001
1000
0100
0010
0001
1000
0100
0010
,  // measure 23
2002
0000
0000
0000
3100
0103
0110
0011
,  // measure 24
1001
0000
0110
0000
1100
1010
0011
1001
,  // measure 25
0101
0000
1010
0000
0011
1100
0101
1001
,  // measure 26
1010
0001
0100
0010
1000
0001
0100
0010
1000
0001
0100
0010
1000
0001
0100
0010
,  // measure 27
1000
0001
0100
0010
1000
0001
0100
0010
1000
0001
0100
0010
1000
0001
0100
0010
,  // measure 28
1001
0000
1010
0000
0110
0011
1001
1100
,  // measure 29
0110
0000
1001
0000
1100
0011
0110
1010
,  // measure 30
0101
0000
1010
0000
1001
0011
1001
1010
,  // measure 31
0011
1000
0010
0100
0001
1000
0010
0100
0001
1000
0010
0100
0001
1000
0010
0100
,  // measure 32
0001
1000
0010
0100
0001
1000
0010
0100
0001
1000
0010
0100
0001
1000
0010
0100
,  // measure 33
1001
0100
1000
0100
1000
0100
1000
0100
1000
0100
1000
0100
1000
0100
1000
0100
,  // measure 34
1100
0010
0001
0010
0001
0010
0001
0010
0001
0010
0001
0010
0001
0010
0001
0010
,  // measure 35
0011
0100
0010
0100
0010
0100
0010
0100
0010
0100
0010
0100
0010
0100
0010
0100
,  // measure 36
0110
0000
0001
1000
0001
1000
0001
1000
0001
1000
0001
1000
0001
1000
0001
1000
,  // measure 37
1001
0100
0001
0100
0001
0100
0001
0100
0001
0100
0001
0100
0001
0100
0001
0100
,  // measure 38
0101
0010
1000
0010
1000
0010
1000
0010
1000
0010
1000
0010
1000
0010
1000
0010
,  // measure 39
1010
0100
1000
0100
1000
0100
1000
0100
1000
0100
1000
0100
1000
0100
1000
0100
,  // measure 40
1100
0001
1000
0001
1000
0001
1000
0001
1000
0001
1000
0001
1000
0001
1000
0001
,  // measure 41
1001
0100
0010
0001
1000
0100
0010
0001
1000
0100
0010
0001
1000
0100
0010
0001
,  // measure 42
0100
0010
1000
0001
0100
0010
1000
0001
0100
0010
1000
0001
0100
0010
1000
0001
,  // measure 43
0010
0100
1000
0001
0010
0100
1000
0001
0010
0100
1000
0001
0010
0100
1000
0010
,  // measure 44
0100
0001
1000
0010
0100
0001
1000
0010
0100
0001
1000
0010
0100
0001
1000
0010
,  // measure 45
0100
0001
0010
0100
1000
0100
0010
0001
0010
0100
1000
0100
0010
0001
0010
0100
,  // measure 46
1000
0010
0100
0001
0100
0010
1000
0010
0100
0001
0100
0010
1000
0010
0100
0001
,  // measure 47
0100
0010
1000
0100
0010
0001
0100
0010
1000
0100
0010
0001
0100
0010
1000
0100
,  // measure 48
0010
0001
0010
0100
1000
0010
0100
0001
0010
0100
1000
0010
0100
0001
0010
0100
,  // measure 49
1001
0000
0110
0000
0011
0110
1010
0101
,  // measure 50
1001
0000
0011
0000
1100
0101
0011
1010
,  // measure 51
1001
0000
0101
0000
1010
0110
0011
1001
,  // measure 52
1100
0010
0001
0010
0100
1000
0100
0010
0001
0010
0100
1000
0100
0010
0001
0010
,  // measure 53
0100
1000
0100
0010
0001
0010
0100
1000
0100
0010
0001
0010
0100
1000
0100
0010
,  // measure 54
0101
0000
1010
0000
0101
1010
1100
0011
,  // measure 55
1001
0000
0110
0000
1100
0101
0011
1010
,  // measure 56
0110
0000
1001
0000
0011
1100
0101
1010
,  // measure 57
1001
0100
0001
0100
0010
1000
0010
0100
0001
0100
0010
1000
0010
0100
0001
0100
,  // measure 58
0010
1000
0010
0100
0001
0100
0010
1000
0010
0100
0001
0100
0010
1000
0010
0100
,  // measure 59
1001
0000
0101
0000
0110
1100
0101
1001
,  // measure 60
1010
0000
0110
0000
0011
1010
1100
1010
,  // measure 61
0011
0000
1100
0000
0110
0011
1010
0101
,  // measure 62
1001
0010
0100
1000
0010
0100
0001
0010
0100
1000
0010
0100
0001
0010
0100
1000
,  // measure 63
0010
0100
0001
0010
0100
1000
0010
0100
0001
0010
0100
1000
0010
0100
0001
0010
,  // measure 64
1100
0000
0011
0000
1100
0110
0011
1001
,  // measure 65
1010
0000
0101
0000
1100
0011
1100
1001
,  // measure 66
0101
0000
1001
0000
1100
0110
0101
1010
,  // measure 67
0110
0001
0100
1000
0100
0001
0010
1000
0010
0001
0100
0010
0100
1000
0010
0001
,  // measure 68
0010
1000
0100
0010
0100
1000
0001
0100
1000
0100
0001
0010
1000
0010
0001
0100
,  // measure 69
2002
0000
0000
0000
,  // measure 70
3003
0010
0010
0000
0011
0010
0000
0000
,  // measure 71
0110
0000
0000
0010
0110
0000
0010
0000
,  // measure 72
0000
1000
1000
0000
1010
0010
0000
0000
,  // measure 73
1001
0000
0000
1000
1001
0000
0001
0000
,  // measure 74
0000
0001
0001
0000
0101
0001
0000
0000
,  // measure 75
1100
0000
0000
0100
1100
0000
0100
0000
,  // measure 76
0011
0011
0011
0001
0001
0001
0001
0001
,  // measure 77
1001
0000
0000
0001
1001
0000
0001
0000
,  // measure 78
0000
1000
1000
0000
1010
1000
0000
0000
,  // measure 79
0110
0000
0000
0010
0110
0000
0010
0000
,  // measure 80
0000
0100
0100
0000
1100
0100
0000
0000
,  // measure 81
0101
0000
0000
0100
0101
0000
0100
0000
,  // measure 82
0000
0001
0001
0000
1001
0001
0000
0000
,  // measure 83
1100
0000
0000
1000
1100
0000
1000
0000
,  // measure 84
0001
0010
0001
0010
0001
0000
1000
0100
1000
0000
0001
0100
0001
0100
0001
0000
,  // measure 85
0011
0000
0000
0001
0011
0000
0001
0000
,  // measure 86
0000
0010
0010
0000
1010
0010
0000
0000
,  // measure 87
1100
0000
0000
1000
1100
0000
1000
0000
,  // measure 88
0000
0010
0010
0000
0110
0010
0000
0000
,  // measure 89
0101
0000
0000
0100
0101
0000
0100
0000
,  // measure 90
0000
0001
0001
0000
1001
0001
0000
0000
,  // measure 91
1100
1000
0000
1100
1000
0000
1100
1000
,  // measure 92
1100
0100
0100
0100
0101
0100
0100
0100
,  // measure 93
0110
0000
0000
0010
0110
0000
0010
0000
,  // measure 94
0000
1000
1000
0000
1010
0010
0000
0000
,  // measure 95
1001
0000
0000
1000
1001
0000
0001
0000
,  // measure 96
0000
0001
0001
0000
0101
0001
0000
0000
,  // measure 97
1100
0000
0000
0100
1100
0000
0100
0000
,  // measure 98
0000
1000
1000
0000
1001
1000
0000
0000
,  // measure 99
0001
0010
0001
0000
1000
0100
1000
0000
0001
0100
0001
0000
1000
0010
1000
0000
,  // measure 100
0001
0010
0100
1000
0001
0010
0100
1000
0001
0010
0100
1000
0001
0010
0100
1000
,  // measure 101
0000
0000
0000
0000
0000
0000
0000
0000
0000
0000
0000
0000
0001
0010
0001
0100
,  // measure 102
0020
0000
0000
0000
0000
0000
0000
0000
1030
0100
1000
0010
0100
0001
0010
0001
,  // measure 103
0100
0010
1000
0100
1000
0010
0100
0001
0010
0001
0100
0010
2000
0000
0000
0000
,  // measure 104
0000
0000
0000
0000
0000
0000
3100
0010
,  // measure 105
0002
0000
0000
0000
1003
0100
0010
0001
0010
0100
1000
0100
0010
0001
0010
0100
,  // measure 106
1000
0100
0010
0001
0010
0100
1000
0100
0010
0001
0010
0100
1000
0100
0020
0000
,  // measure 107
0000
0000
0000
0000
0000
0000
0030
0000
0100
1000
0001
0010
0100
1000
0001
0100
,  // measure 108
0010
1000
0001
0010
0100
1000
0001
0010
0100
1000
0001
0100
0010
1000
0001
0010
,  // measure 109
0100
1000
0001
0010
0100
1000
0100
0010
0001
1000
0100
0010
0001
1000
0100
0010
,  // measure 110
0002
0000
0000
0000
0000
0000
0000
0000
0003
0000
0010
2000
0000
0000
0000
0000
,  // measure 111
0000
0000
0000
0000
3100
0010
0001
0010
0001
0010
0100
1000
0010
0100
0001
0010
,  // measure 112
0100
0010
0001
1000
0100
0010
0001
0010
0100
1000
0010
0100
0001
0100
0001
0010
,  // measure 113
1000
0100
1000
0100
1000
0100
0010
0001
0100
1000
0100
0001
0010
1000
0010
0001
,  // measure 114
0200
0000
0000
0010
0001
0010
0001
0010
,  // measure 115
1300
0000
0000
0000
1000
0100
1000
0100
0010
0100
0001
0010
0100
1000
0010
0100
,  // measure 116
0010
0001
0010
0100
1000
0010
1000
0100
0001
0010
0100
1000
0100
0010
0100
0001
,  // measure 117
0020
0000
0000
0000
1030
0200
0000
0000
0000
0000
0000
0000
0000
0000
0000
0000
,  // measure 118
0000
0000
1300
0100
1000
0100
1000
0100
,  // measure 119
1000
0000
0000
0000
0010
0001
0010
0001
0010
0002
0000
0000
0000
0000
0000
0000
,  // measure 120
1003
0100
0010
0001
0100
0010
1000
0100
1000
0100
1000
0100
0010
0001
0100
0010
,  // measure 121
1000
0100
0010
0001
0010
0100
1000
0010
0100
0001
0100
0010
0100
0010
0100
1000
,  // measure 122
0101
0000
1010
0000
0011
1100
1010
0101
,  // measure 123
1001
0000
0110
0000
0101
1100
1010
0101
,  // measure 124
0110
0000
0011
0000
1100
0101
0110
0011
,  // measure 125
1001
0100
1000
0100
1000
0100
0010
0001
0100
0010
1000
0100
0010
0001
1000
0100
,  // measure 126
0010
0001
1000
0100
1000
0100
0001
0100
1000
0010
0100
0001
0010
0100
0010
0100
,  // measure 127
1001
0000
0011
0000
1100
0110
0101
1010
,  // measure 128
1001
0000
0011
0000
1100
0101
1010
1100
,  // measure 129
1001
0000
0110
0000
1100
0011
1010
0101
,  // measure 130
0110
1000
0001
1000
0010
0100
0001
0010
0100
1000
0100
1000
0010
0100
0001
0010
,  // measure 131
0100
0010
0100
0010
0001
0100
1000
0010
0100
0001
0010
0100
0010
0001
1000
0100
,  // measure 132
0011
0000
0110
0000
1100
0110
0011
1001
,  // measure 133
0110
0000
0101
0000
1100
0101
0011
1100
,  // measure 134
1001
0000
0110
0000
0101
0110
1010
1001
,  // measure 135
0011
0100
1000
0100
0010
0001
0010
0100
1000
0010
0100
0001
0010
0100
1000
0010
,  // measure 136
0100
0001
0010
0100
0010
0001
1000
0100
0010
0001
0010
0100
0010
0100
0010
0100
,  // measure 137
1001
0010
0100
1000
0100
1000
0100
0010
0001
0100
0010
1000
0100
0001
0100
1000
,  // measure 138
0010
0001
0010
0001
0100
0010
1000
0100
0010
0001
0100
0010
0100
1000
0011
1000
,  // measure 139
0011
1000
0100
0010
0001
0010
0100
1000
0010
0100
0001
0010
0100
0010
0100
1000
,  // measure 140
0010
0100
0001
0010
0001
1000
0100
1000
0001
0100
0001
0010
1000
0010
0100
1000
,  // measure 141
0011
0100
1000
0100
0011
0100
1000
0100
0010
0001
0010
0100
1000
0010
0100
0001
,  // measure 142
0010
0100
1000
0100
0001
0100
1000
0010
0001
0010
0100
0010
1000
0100
0010
0100
,  // measure 143
0011
1000
0100
1000
0011
1000
0100
1000
0011
1000
0100
1000
0011
1000
0100
1000
,  // measure 144
0001
0010
0100
1000
0100
0010
0001
0010
0100
1000
0100
0010
0001
0010
0100
1000
,  // measure 145
0202
0000
0000
0000
0000
0000
0000
0000
0000
0000
0000
0000
0000
0000
0000
0000
0000
0000
0303
0000
0000
0001
0010
0000
;
