#TITLE:MAX XNOR;
#SUBTITLE:;
#ARTIST:毀壊;
#TITLETRANSLIT:;
#SUBTITLETRANSLIT:;
#ARTISTTRANSLIT:;
#CREDIT:;
#BANNER:banner.png;
#BACKGROUND:bg.png;
#LYRICSPATH:;
#CDTITLE:cdtitle.png;
#MUSIC:max_xnor.mp3;
#OFFSET:-0.200;
#SAMPLESTART:11.163;
#SAMPLELENGTH:12.000;
#SELECTABLE:YES;
#DISPLAYBPM:10.000;
#BPMS:0.000=350.000,320.000=340.000,321.000=320.000,322.000=300.001,323.000=250.001,324.000=200.001,325.000=175.001,326.250=145.001,326.500=100.001,326.750=50.001,327.000=30.001,327.125=20.001,327.250=10.001,327.333=400.000,329.000=350.000,585.000=70.000;
#STOPS:327.333=2.700
;
#BGCHANGES:;
// cache tags:
#FIRSTBEAT:32.000;
#LASTBEAT:587.000;
#SONGFILENAME:Songs/Japanese Collaboration Mix/max_xnor/max_xnor.sm;
#HASMUSIC:1;
#HASBANNER:1;
#MUSICLENGTH:110.381;
// end cache tags

//---------------dance-single - ----------------
#NOTES:
     dance-single:
     :
     Challenge:
     10:
     0.914,1.000,0.317,0.054,0.000,665.000,35.000,6.000,0.000,0.000:
0000
0000
0000
0000
,
0000
0000
0000
0000
,
0000
0000
0000
0000
,
0000
0000
0000
0000
,
0000
0000
0000
0000
,
0000
0000
0000
0000
,
0000
0000
0000
0000
,
0000
0000
0000
0000
,
1000
0100
0010
0100
,
1000
0001
0100
0001
,
0010
0001
0010
0100
,
1000
0000
0100
0010
0100
0000
0010
0100
,
0010
0001
1000
0010
,
0100
0001
0010
0100
,
1000
0100
1000
0001
,
0010
0100
1000
0000
1001
0000
0000
0000
,
1000
0000
0100
0000
1000
0010
0000
0010
,
0100
0000
0010
0000
1000
0100
0000
0100
,
0010
0000
0001
0000
0010
0100
0000
0100
,
0010
0001
0010
0100
,
1000
0000
0100
0000
0010
0001
0000
0001
,
0100
0000
0010
0000
0100
0010
0000
0010
,
1000
0000
0100
0000
1000
0001
0000
0001
,
0100
0010
1000
0001
,
1010
0000
0100
0001
,
0100
0010
0100
0000
,
0010
1000
0010
0100
,
0010
0000
1000
0010
1000
0000
0001
0100
,
0001
0000
1000
0100
,
0001
0100
1000
0010
,
0100
0000
0001
1000
,
0001
0000
1000
0000
0001
0100
1000
0000
,
0000
0001
0100
0001
,
0100
0010
1000
0000
0001
0000
1000
0000
,
0000
0000
0100
0000
1000
0100
0010
0000
,
0001
0100
0010
1000
,
0010
0100
0010
0000
1000
0000
0001
0000
,
0100
0000
0010
0000
0010
0000
1000
0100
,
0010
0001
0010
0001
,
0010
0010
0100
0100
,
0001
1000
0010
1000
,
0010
0100
0001
0000
1000
0000
0001
0000
,
0000
0000
0010
0000
0001
0010
0100
0000
,
1000
0010
0100
0001
,
0100
0010
0100
0000
0001
0000
1000
0000
,
0010
0000
0100
0000
0100
0000
0001
0010
,
0100
1000
0100
1000
,
0100
0010
0100
1000
,
1001
0000
0000
0110
0000
0000
1001
0000
,
0100
0100
0010
0010
,
1100
0000
0000
0101
0000
0000
1100
0000
,
0010
0100
0010
0000
0100
1000
0100
0000
,
1010
0000
0000
0101
0000
0000
1010
0000
,
1000
0100
0001
0100
,
0110
0000
0000
0011
0000
0000
0110
0000
,
1000
0010
0100
0000
1000
0001
1000
0001
,
0100
0000
0001
0100
0000
0001
0100
0000
,
0001
0010
0100
0000
1000
0000
1000
0000
,
0010
0000
0100
0010
0000
0100
0010
0000
,
0100
0001
0010
0000
0001
0000
0010
0000
,
0100
0000
1000
0100
0000
1000
0100
0000
,
1000
0010
0100
0000
0001
0010
0100
0000
,
1000
0000
0001
1000
0000
0001
1000
0000
,
1001
0110
1001
0000
,
1000
1100
1000
0010
,
0100
0001
0100
0000
0100
0000
0010
0000
,
0100
0101
0001
0010
,
0100
1000
0100
0010
0001
0000
0000
0000
,
0001
0011
0001
0100
,
0010
1000
0010
0000
0010
0000
0100
0000
,
0010
1010
1000
0100
,
0010
0001
0010
0100
1000
0000
0000
0000
,
1001
0000
1000
0001
1000
0000
0110
0000
,
1000
0001
0100
0100
,
0110
0000
1000
0001
0100
0000
0110
0000
,
1000
1000
0001
0001
,
1000
0000
0010
0000
0100
0010
1000
0000
,
0001
0000
0100
0000
0010
0100
0001
0000
,
1000
0100
0010
0000
0001
0010
0100
0000
,
1000
0001
0100
0010
1000
0100
0010
0002
,
2000
0000
0000
0000
,
0000
0000
0000
0000
0000
0000
0000
0000
0000
0000
0000
0000
0000
0000
0000
0000
0000
0000
0000
0000
0000
0000
0000
0000
0000
0000
0000
0000
0000
0000
0000
0000
0000
0000
0000
0000
0000
0000
0000
0000
0000
0000
0000
0000
0000
0000
0000
0000
0000
0000
0000
0000
0000
0000
0000
3003
0000
0000
0000
0000
0000
0000
0000
0000
,
0000
0000
1000
0000
0001
0010
0100
0000
,
1000
0000
1000
0000
0001
0010
0100
0000
,
1000
0000
1000
0000
0001
0010
0100
0000
,
1000
0100
0010
0000
0100
1000
0100
0000
,
0010
0000
0001
0000
1000
0001
1000
0000
,
0100
0000
0010
0000
0001
1000
0001
0000
,
0010
0000
0100
0000
1000
0001
1000
0000
,
0100
0000
0001
1000
0100
0000
1000
0100
,
1000
0100
0010
0000
1000
0100
0001
0000
,
0100
0000
0010
0000
0100
1000
0010
0000
,
0100
0000
0001
0000
1000
0100
0001
0000
,
0100
0000
1000
0010
1000
0000
0001
0100
,
0001
1000
0001
1001
,
0000
0001
1000
1001
,
0000
0100
0010
0100
,
0010
0000
1000
0100
0010
0001
1000
0000
,
0000
0000
0001
0000
0010
0000
0100
1000
,
0000
1000
0100
0000
0010
0000
0100
0010
,
0000
0010
0100
0000
1000
0000
0001
1000
,
0001
1000
0001
0000
0100
0000
0110
0000
,
0101
0000
1000
0000
0100
0000
0010
0001
,
0000
0001
0010
0000
0100
0000
0010
0100
,
0000
0100
0010
0000
0001
0000
1000
0001
,
1000
0001
1000
0000
0010
0000
0110
0000
,
1010
0000
0100
0000
0001
0000
0100
0010
,
0000
0010
0100
0000
0001
0000
1000
0100
,
0000
0100
1000
0000
0001
0000
0100
0010
,
0100
0010
0100
0000
0001
0000
1001
0000
,
1010
0000
0010
0000
1000
0000
0010
0100
,
0000
0100
0010
0000
1000
0000
0001
0010
,
0000
0010
0001
0000
1000
0000
0010
0100
,
0010
0100
0010
0000
1000
0000
2002
0000
,
3003
0000
0001
0000
0010
0000
0001
0100
,
0000
0100
0010
0000
0100
0000
0001
0010
,
0000
0010
0100
0000
1000
0000
0100
0010
,
0000
0010
0100
0000
1000
0000
0100
0000
,
0010
0000
0001
0000
0010
0000
0100
1000
,
0000
1000
0010
0000
0100
0000
0010
0100
,
0000
0100
0001
0000
0010
0000
0001
1000
,
0000
1000
0010
0000
0100
0000
0001
0000
,
1000
0000
0100
0000
1000
0000
0100
0010
,
0000
0010
0001
0000
0010
0000
0100
1000
,
0000
1000
0010
0000
0100
0000
0010
1000
,
0000
1000
0010
0000
0100
0000
0001
0000
,
0010
0000
0100
0000
1000
0000
0100
0010
,
0000
0010
0100
0000
0010
0000
0001
0010
,
0000
0010
0100
0000
1000
0000
0010
0100
,
0000
0100
0010
0000
0100
0000
1001
0000
,
0000
0000
1000
0100
0010
0100
1000
0000
,
0001
0010
0100
0010
0001
0000
1000
0001
,
1000
0001
1000
0000
0010
0100
0010
0100
,
0010
0000
1000
0100
0010
0001
0010
0000
,
0001
0010
0100
1000
0100
0000
0010
0001
,
0010
0001
0010
0000
0100
1000
0100
1000
,
0100
0000
1000
0001
0100
0010
1000
0000
,
0001
1000
0010
0100
0001
0000
0100
0010
,
0100
0010
1000
0100
1000
0000
0001
0010
,
0001
0000
1000
0100
0010
0000
0001
0010
,
0100
0000
1000
0100
0001
0000
0100
0010
,
0100
0000
0001
0100
1000
0000
1000
0010
,
0100
0000
0001
0010
0100
1000
0100
0010
,
0001
0000
1000
0100
0010
0001
0010
0100
,
1000
0000
0001
1000
0010
0100
0001
1000
,
0100
0010
0100
1000
0001
0100
0010
0100
,
0001
2000
0002
0000
0000
0000
3003
0000
;
