#TITLE:9,000 Miles;
#SUBTITLE:;
#ARTIST:Pendulum;
#TITLETRANSLIT:;
#SUBTITLETRANSLIT:;
#ARTISTTRANSLIT:;
#CREDIT:;
#BANNER:9000milesbn.png;
#BACKGROUND:9000milesbg.png;
#LYRICSPATH:;
#CDTITLE:;
#MUSIC:9000miles.ogg;
#OFFSET:1.387;
#SAMPLESTART:88.275;
#SAMPLELENGTH:22.070;
#SELECTABLE:YES;
#BPMS:0.000=174.000;
#STOPS:;
#BGCHANGES:;
// cache tags:
#FIRSTBEAT:4.000;
#LASTBEAT:514.500;
#SONGFILENAME:Songs/Pendulum/9,000 Miles/9000miles.sm;
#HASMUSIC:1;
#HASBANNER:1;
#MUSICLENGTH:182.000;
// end cache tags

//---------------dance-single - I. Pyles----------------
#NOTES:
     dance-single:
     I. Pyles:
     Beginner:
     1:
     0.025,0.034,0.000,0.000,0.000,32.000,0.000,0.000,0.000,0.000:
0000
0000
0000
0000
,
1000
0000
0000
0000
,
0000
0000
0000
0000
,
0000
0000
0000
0000
,
0000
0000
0000
0000
,
0001
0000
0000
0000
,
0000
0000
0000
0000
,
0000
0000
0000
0000
,
0000
0000
0000
0000
,
0010
0000
0000
0000
,
0000
0000
0000
0000
,
0000
0000
0000
0000
,
0000
0000
0000
0000
,
0100
0000
0000
0000
,
0000
0000
0000
0000
,
0000
0000
0000
0000
,
0000
0000
0000
0000
,
0010
0000
0000
0000
,
0000
0000
0000
0000
,
0000
0000
0000
0000
,
0000
0000
0000
0000
,
0001
0000
0000
0000
,
0000
0000
0000
0000
,
0000
0000
0000
0000
,
0000
0000
0000
0000
,
1000
0000
0000
0000
,
0000
0000
0000
0000
,
0000
0000
0000
0000
,
0000
0000
0000
0000
,
0010
0000
0000
0000
,
0000
0000
0000
0000
,
0000
0000
0000
0000
,
0000
0000
0000
0000
,
0001
0000
0000
0000
,
0000
0000
0000
0000
,
0000
0000
0000
0000
,
0000
0000
0000
0000
,
1000
0000
0000
0000
,
0000
0000
0000
0000
,
0000
0000
0000
0000
,
0000
0000
0000
0000
,
0001
0000
0000
0000
,
0000
0000
0000
0000
,
0000
0000
0000
0000
,
0000
0000
0000
0000
,
1000
0000
0000
0000
,
0000
0000
0000
0000
,
0000
0000
0000
0000
,
0000
0000
0000
0000
,
0001
0000
0000
0000
,
0000
0000
0000
0000
,
0000
0000
0000
0000
,
0000
0000
0000
0000
,
0100
0000
0000
0000
,
0000
0000
0000
0000
,
0000
0000
0000
0000
,
0000
0000
0000
0000
,
0010
0000
0000
0000
,
0000
0000
0000
0000
,
0000
0000
0000
0000
,
0000
0000
0000
0000
,
1000
0000
0000
0000
,
0000
0000
0000
0000
,
0000
0000
0000
0000
,
0000
0000
0000
0000
,
0001
0000
0000
0000
,
0000
0000
0000
0000
,
0000
0000
0000
0000
,
0000
0000
0000
0000
,
1000
0000
0000
0000
,
0000
0000
0000
0000
,
0000
0000
0000
0000
,
0000
0000
0000
0000
,
0010
0000
0000
0000
,
0000
0000
0000
0000
,
0000
0000
0000
0000
,
0000
0000
0000
0000
,
0100
0000
0000
0000
,
0000
0000
0000
0000
,
0000
0000
0000
0000
,
0000
0000
0000
0000
,
0100
0000
0000
0000
,
0000
0000
0000
0000
,
0000
0000
0000
0000
,
0000
0000
0000
0000
,
0001
0000
0000
0000
,
0000
0000
0000
0000
,
0000
0000
0000
0000
,
0000
0000
0000
0000
,
1000
0000
0000
0000
,
0000
0000
0000
0000
,
0000
0000
0000
0000
,
0000
0000
0000
0000
,
0010
0000
0000
0000
,
0000
0000
0000
0000
,
0000
0000
0000
0000
,
0000
0000
0000
0000
,
0001
0000
0000
0000
,
0000
0000
0000
0000
,
0000
0000
0000
0000
,
0000
0000
0000
0000
,
1000
0000
0000
0000
,
0000
0000
0000
0000
,
0000
0000
0000
0000
,
0000
0000
0000
0000
,
0010
0000
0000
0000
,
0000
0000
0000
0000
,
0000
0000
0000
0000
,
0000
0000
0000
0000
,
0001
0000
0000
0000
,
0000
0000
0000
0000
,
0000
0000
0000
0000
,
0000
0000
0000
0000
,
1000
0000
0000
0000
,
0000
0000
0000
0000
,
0000
0000
0000
0000
,
0000
0000
0000
0000
,
0001
0000
0000
0000
,
0000
0000
0000
0000
,
0000
0000
0000
0000
,
0000
0000
0000
0000
,
1000
0000
0000
0000
,
0000
0000
0000
0000
,
0000
0000
0000
0000
,
0000
0000
0000
0000
,
0001
0000
0000
0000
;

//---------------dance-single - I. Pyles----------------
#NOTES:
     dance-single:
     I. Pyles:
     Easy:
     9:
     0.547,0.707,0.093,0.857,0.060,524.000,17.000,156.000,28.000,0.000:
0000
0000
0000
0000
,
1000
0100
0000
1000
0100
0010
0001
0000
,
0100
0000
0001
0000
0000
0000
0100
0000
0001
0000
1000
0000
0200
0300
0010
0000
,
0001
0100
0000
0001
0100
0010
1000
0000
,
0100
0000
0000
0000
1000
0000
0000
0000
0020
0000
0000
0030
0010
0000
0000
0000
0100
0000
0000
0000
0002
0000
0000
0003
0001
0000
0000
0000
0010
0000
0000
0000
,
0100
1000
0000
0100
1000
0001
0010
0000
,
0001
0000
0100
0000
0000
0000
0001
0000
0100
0000
0010
0000
2000
3000
0100
0000
,
0010
0001
0000
0010
0001
1000
0100
0000
,
1000
0000
0010
0000
0000
0000
1000
0000
0010
0000
0100
0001
0020
0030
0100
1000
,
0001
2000
0000
0000
3020
0000
0000
0000
,
1030
0002
0000
0000
0023
0000
0000
0000
,
0031
0200
0000
0000
0320
0000
0000
0000
,
1030
0200
0000
0000
0320
0000
0000
0000
,
0130
2000
0000
0000
3020
0000
0000
0000
,
0130
0002
0000
0000
0023
0000
0000
0000
,
0130
2000
0000
0000
3020
0000
0000
0000
,
0000
0000
0000
0000
0000
0000
0000
0030
,
1000
0000
0000
1000
0000
0000
1000
0000
,
0000
1000
0000
0000
1000
0000
0010
0000
,
0100
0000
0000
0100
0000
0100
0001
0010
,
0000
0000
0010
0000
0001
0010
0000
0000
,
0100
0000
0000
0100
0000
0000
0100
0000
,
0000
0100
0000
0000
0100
1000
0000
0000
,
0100
0000
0000
0100
0000
0000
0100
0000
,
0000
0100
0000
0000
0100
0000
0010
0000
,
0001
0000
0000
0001
0000
0000
0001
0000
,
0000
0001
0000
0000
0001
0000
0000
0100
,
0010
0000
0000
0010
0000
0000
1000
0001
,
0000
0000
0001
0000
0010
0001
0000
0000
,
0100
0000
0000
0100
0000
0000
0100
0000
,
0000
0100
0000
0000
0100
0010
0000
0000
,
0100
0000
0000
0100
0000
0000
0100
0000
,
0000
0000
0000
0000
,
1MM2
1003
0100
0020
0000
0031
0010
0200
,
0000
0310
0001
0100
0100
0000
0100
0000
,
0100
0001
0100
0020
0000
1030
0010
0200
,
0000
0000
0310
0000
1000
0000
0001
0000
1000
0001
1000
0001
1000
0000
0000
0000
,
2MM1
3001
0100
0020
0000
1030
0010
0200
,
0000
0310
1000
0100
0100
0000
0100
0000
,
0100
1000
0100
0020
0000
0031
0010
0200
,
0000
0000
0310
0000
0001
0000
1000
0000
0001
1000
0001
1000
0001
0000
0000
0000
,
2MM1
3001
0010
0200
0000
1300
0100
0020
,
0000
0031
1000
0200
0000
0310
0001
2000
,
0000
3001
0100
0020
0000
1030
0010
0200
,
0000
0000
0301
0000
1000
0000
0010
0000
1000
0001
1000
0001
1000
0000
0000
0000
,
1MM2
1003
0010
0200
0000
0301
0100
0020
,
0000
1030
0001
0200
0000
0310
1000
0002
,
0000
0003
0010
0200
0000
1300
0100
0020
,
0000
0031
1000
0200
0000
0310
0001
1000
,
1MM1
2000
3001
0200
0000
0301
0100
0020
,
0000
1030
0001
0020
0000
0200
0000
0330
,
1000
0002
1003
0200
0000
1300
0100
0020
,
0000
0000
0031
0000
1000
0000
0001
0000
1000
0001
1000
0001
1000
0000
0000
0000
,
1MM1
2000
3001
0200
0000
0301
0100
0020
,
0000
1030
0001
0020
0000
0200
0030
0310
,
0010
0001
1000
0100
1000
0010
0100
0001
,
1000
0000
0000
0000
0001
0000
0000
0000
0010
0000
0000
0000
0001
0000
0000
0000
0200
0300
0000
0000
0020
0000
0030
0000
2000
0000
0000
0000
3000
0000
0000
0000
,
1MM1
0002
1003
0020
0000
1030
0010
0200
,
0000
0301
1000
0200
0000
0020
0000
0330
,
0001
2000
3001
0020
0000
0031
0010
0200
,
0000
0000
1300
0000
0001
0000
1000
0000
0001
1000
0001
1000
0001
0000
0000
0000
,
1MM1
0002
1003
0020
0000
1030
0100
0020
,
0000
0031
1000
0020
0000
0200
0030
0302
,
0100
0000
1000
0000
0000
0100
1000
0003
,
0101
0000
00M0
0000
M000
0000
00M0
0000
0000
M000
0000
0000
,
1MM1
2000
3001
0200
0000
0301
0100
0010
,
0000
1000
0001
0020
0000
0200
0000
0330
,
1000
0002
1003
0200
0000
1300
0100
0020
,
0000
0000
0031
0000
1000
0000
0001
0000
1000
0001
1000
0001
1000
0000
0000
0000
,
1MM1
2000
3001
0200
0000
0301
0100
0020
,
0000
1030
0001
0200
0000
0320
0000
2030
,
0100
0000
0001
0000
0000
0100
3001
0000
,
1100
0000
0000
0000
1001
0000
0000
0000
1000
0001
1000
0001
1000
0000
0020
0000
,
0000
0000
0000
0000
0000
0000
1030
0200
,
0000
0000
0320
0000
0000
0000
0031
0200
,
0000
0000
0000
0000
0000
0000
0301
0200
,
0000
0000
0000
0000
0000
0310
1000
0200
,
0000
0000
0000
0000
0000
0000
0310
0002
,
0000
0000
2003
0000
0000
0000
3010
0200
,
0000
0000
0000
0000
,
0000
0000
0000
0000
0000
0300
0001
0020
,
0000
0000
0000
0000
0000
0030
0001
2000
,
0000
0000
3200
0000
0000
0000
1300
0020
,
0000
0000
0000
0000
0000
0000
1030
0020
,
0000
0000
0000
0000
0000
0130
0001
0020
,
0000
0000
0230
0000
0000
0000
0310
0002
,
0000
0000
2003
0000
0000
0000
3010
0200
,
0000
0000
0000
0000
,
0000
0000
0000
0000
0000
0000
0000
0300
,
1MM1
2000
3001
0200
0000
0301
0100
0020
,
0000
1030
0001
0020
0000
0200
0000
0330
,
1000
0002
1003
0200
0000
1300
0100
0020
,
0000
0000
0031
0000
1000
0000
0001
0000
1000
0001
1000
0001
1000
0000
0000
0000
,
1MM1
2000
3001
0200
0000
0301
0100
0020
,
0000
1030
0001
0200
0000
0320
0000
2030
,
0100
0000
0001
0000
0000
0100
3001
0000
,
1100
0000
0000
0000
1001
0000
0000
0000
0001
1000
0001
1000
0001
0000
0200
0000
,
0000
0000
0000
0000
0000
0000
0301
0020
,
0000
0000
0230
0000
0000
0000
1300
0020
,
0000
0000
0000
0000
0000
0000
1030
0020
,
0000
0000
0000
0000
0000
0130
0001
0020
,
0000
0000
0000
0000
0000
0000
0130
2000
,
0000
0000
3002
0000
0000
0000
0103
0020
,
0000
0000
0000
0000
,
0000
0000
0000
0000
0000
0030
1000
0200
,
0000
0000
0000
0000
0000
0000
1300
0002
,
0000
0000
0023
0000
0000
0000
0031
0200
,
0000
0000
0000
0000
0000
0000
0301
0200
,
0000
0000
0000
0000
0000
0310
1000
0200
,
0000
0000
0000
0000
0000
0000
0310
0002
,
0000
0000
2003
0000
0000
0000
3010
0200
,
0000
0000
0000
0000
,
0000
0000
0000
0000
0000
0300
0001
0020
,
0000
0000
0000
0000
0000
0000
0031
2000
,
0000
0000
3200
0000
0000
0000
1300
0020
,
0000
0000
0000
0000
0000
0000
1030
0020
,
0000
0000
0000
0000
0000
0130
0001
0020
,
0000
0000
0000
0000
0000
0000
0130
2000
,
0000
0000
3002
0000
0000
0000
0103
0020
,
0000
0000
0000
0000
,
0000
0000
0000
0000
0000
0030
1000
0200
,
0000
0000
0000
0000
0000
0000
1300
0020
,
0000
0000
0230
0000
0000
0000
0301
0020
,
0000
0000
0000
0000
0000
0000
0031
0020
,
0000
0000
0000
0000
0000
0130
1000
0020
,
0000
0000
0000
0000
0000
0000
0130
0002
,
0000
0000
2003
0000
0000
0000
3100
0020
,
0000
0000
0000
0000
,
0000
0000
0000
0000
0000
0030
0000
0000
;

//---------------dance-single - I. Pyles----------------
#NOTES:
     dance-single:
     I. Pyles:
     Medium:
     10:
     0.589,0.777,0.214,0.731,0.113,578.000,39.000,133.000,26.000,0.000:
0000
0000
0000
0000
,
1000
0100
0000
1000
0100
0010
0001
0000
,
0100
0000
0001
0000
0000
0000
0100
0000
0001
0000
1000
0000
0200
0300
0010
0000
,
0001
0100
0000
0001
0100
0010
1000
0000
,
0100
0000
0000
0000
1000
0000
0000
0000
0020
0000
0000
0030
0010
0000
0000
0000
0100
0000
0000
0000
0002
0000
0000
0003
0001
0000
0000
0000
0010
0000
0000
0000
,
0100
1000
0000
0100
1000
0001
0010
0000
,
0001
0000
0100
0000
0000
0000
0001
0000
0100
0000
0010
0000
2000
3000
0100
0000
,
0010
0001
0000
0010
0001
1000
0100
0000
,
1000
0000
0010
0000
0000
0000
1000
0000
0010
0000
0100
0001
0020
0030
0100
1000
,
0001
2000
0000
0000
3020
0000
0000
0000
,
1030
0002
0000
0000
0023
0000
0000
0000
,
0031
0200
0000
0000
0320
0000
0000
0000
,
1030
0200
0000
0000
0320
0000
0000
0000
,
0130
2000
0000
0000
3020
0000
0000
0000
,
0130
0002
0000
0000
0023
0000
0000
0000
,
0130
2000
0000
0000
3020
0000
0000
0000
,
0000
0000
0000
0000
0000
0000
0000
0030
,
1000
0000
0000
1000
0000
0000
1000
0000
,
0000
1000
0000
0000
1000
0000
0010
0000
,
0100
0000
0000
0100
0000
0100
0001
0010
,
0000
0000
0010
0000
0001
0010
0000
0000
,
0100
0000
0000
0100
0000
0000
0100
0000
,
0000
0100
0000
0000
0100
1000
0000
0000
,
0100
0000
0000
0100
0000
0000
0100
0000
,
0000
0100
0000
0000
0100
0000
0010
0000
,
0001
0000
0000
0001
0000
0000
0001
0000
,
0000
0001
0000
0000
0001
0000
0000
0100
,
0010
0000
0000
0010
0000
0000
1000
0001
,
0000
0000
0001
0000
0010
0001
0000
0000
,
0100
0000
0000
0100
0000
0000
0100
0000
,
0000
0100
0000
0000
0100
0010
0000
0000
,
0100
0000
0000
0100
0000
0000
0100
0000
,
0000
0000
0000
0000
,
1MM2
1003
0100
0020
0000
0031
0010
0200
,
0000
0310
0001
0100
0100
0000
0100
0000
,
0100
0001
0100
0020
0000
1030
0010
0200
,
0000
0000
0310
0000
1000
0000
0001
0000
0010
0100
1000
0001
1000
0000
0000
0000
,
2MM1
3001
0100
0020
0000
1030
0010
0200
,
0000
0310
1000
0100
0100
0000
0100
0000
,
0100
1000
0100
0020
0000
0031
0010
0200
,
0000
0000
0310
0000
0001
0000
1000
0000
0010
0100
0001
1000
0001
0000
0000
0000
,
2MM1
3001
0010
0200
0000
1300
0100
0010
,
0011
0000
0001
0020
0000
0130
1000
0001
,
1001
1000
0010
0200
0000
0301
0100
0010
,
1010
0000
0000
0000
1000
0000
0001
0000
0010
0100
1000
0001
1000
0000
0000
0000
,
1MM2
1003
0010
0200
0000
0301
0100
0010
,
1010
0000
1000
0020
0000
0130
0001
1000
,
1001
0001
0010
0200
0000
1300
0100
0010
,
0011
0000
0001
0020
0000
0130
1000
0001
,
1MM1
2000
3001
0200
0000
0301
0100
0010
,
1010
1000
0001
0020
0000
0200
0000
0330
,
1001
0002
1003
0200
0000
1300
0100
0010
,
0011
0000
0001
0000
1000
0000
0001
0000
0100
0010
1000
0001
1000
0000
0000
0000
,
1MM1
2000
3001
0200
0000
0301
0100
0010
,
1010
1000
0001
0020
0000
0200
0030
0310
,
0011
0001
1000
0100
1000
0010
0100
0001
,
1000
0000
0000
0000
0001
0000
0000
0000
0010
0000
0000
0000
0001
0000
0000
0000
0200
0300
0000
0000
0020
0000
0030
0000
2000
0000
0000
0000
3000
0000
0000
0000
,
1MM1
0002
1003
0020
0000
1030
0010
0100
,
0101
0001
1000
0200
0000
0020
0000
0330
,
1001
2000
3001
0020
0000
0031
0010
0100
,
1100
0000
1000
0000
0001
0000
1000
0000
0010
0100
0001
1000
0001
0000
0000
0000
,
1MM1
0002
1003
0020
0000
1030
0100
0010
,
0011
0001
1000
0020
0000
0200
0030
0302
,
0100
0000
1000
0000
0000
0100
1000
0003
,
0101
0000
00M0
0000
M000
0000
00M0
0000
0000
M000
0000
0000
,
1MM1
0000
2000
0000
3001
0000
0010
0100
0010
0000
0001
0000
0100
0000
0010
0000
,
1010
0000
1000
0000
0001
0000
0010
0100
0010
0100
0010
0000
0001
0000
0000
0000
,
1001
0002
0103
0020
0000
1030
0100
0010
,
0011
0000
0001
0000
1000
0000
0010
0100
0010
0100
0010
0000
1000
0000
0000
0000
,
1MM1
2000
3100
0020
0000
0031
0010
0100
,
1100
1000
0001
0200
0000
0320
0000
2030
,
0100
0000
0001
0000
0000
0100
3001
0000
,
1100
0000
0000
0000
1001
0000
0000
0000
1000
0010
1000
0001
1000
0000
0020
0000
,
0000
0000
0000
0000
0000
0000
1030
0200
,
0000
0000
0320
0000
0000
0000
0031
0200
,
0000
0000
0000
0000
0000
0000
0301
0200
,
0000
0000
0000
0000
0000
0310
1000
0200
,
0000
0000
0000
0000
0000
0000
0310
0002
,
0000
0000
2003
0000
0000
0000
3010
0200
,
0000
0000
0000
0000
,
0000
0000
0000
0000
0300
0000
0001
1000
0001
1000
0001
1000
0001
0000
0200
0000
,
0000
0000
0000
0000
0000
0000
0301
0020
,
0000
0000
0230
0000
0000
0000
1300
0020
,
0000
0000
0000
0000
0000
0000
1030
0020
,
0000
0000
0000
0000
0000
0130
0001
0020
,
0000
0000
0230
0000
0000
0000
0310
0002
,
0000
0000
2003
0000
0000
0000
3010
0200
,
0000
0000
0000
0000
,
0000
0000
0000
0000
0300
0000
0001
1000
0001
1000
0001
1000
0001
1000
0001
1000
,
0001
0000
2000
0000
3001
0000
0010
0100
0010
0000
0001
0000
0100
0000
0010
0000
,
1010
0000
1000
0000
0001
0000
0010
0100
0010
0100
0010
0000
0001
0000
0000
0000
,
1001
0002
0103
0020
0000
1030
0100
0010
,
0011
0000
0001
0000
1000
0000
0010
0100
0010
0100
0010
0000
1000
0000
0000
0000
,
1MM1
2000
3100
0020
0000
0031
0010
0100
,
1100
1000
0001
0200
0000
0320
0000
2030
,
0100
0000
0001
0000
0000
0100
3001
0000
,
1100
0000
0000
0000
1001
0000
0000
0000
0001
0100
0001
1000
0001
0000
0200
0000
,
0000
0000
0000
0000
0000
0000
0301
0020
,
0000
0000
0230
0000
0000
0000
1300
0020
,
0000
0000
0000
0000
0000
0000
1030
0020
,
0000
0000
0000
0000
0000
0130
0001
0020
,
0000
0000
0000
0000
0000
0000
0130
2000
,
0000
0000
3002
0000
0000
0000
0103
0020
,
0000
0000
0000
0000
,
0000
0000
0000
0000
0030
0000
1000
0001
1000
0001
1000
0001
1000
0000
0020
0000
,
0000
0000
0000
0000
0000
0000
1030
0200
,
0000
0000
0320
0000
0000
0000
0031
0200
,
0000
0000
0000
0000
0000
0000
0301
0200
,
0000
0000
0000
0000
0000
0310
1000
0200
,
0000
0000
0000
0000
0000
0000
0310
0002
,
0000
0000
2003
0000
0000
0000
3010
0200
,
0000
0000
0000
0000
,
0000
0000
0000
0000
0300
0000
0001
1000
0001
1000
0001
0000
1000
0000
0020
0000
,
0000
0000
0000
0000
0000
0000
1030
0200
,
0000
0000
0320
0000
0000
0000
0031
0200
,
0000
0000
0000
0000
0000
0000
0301
0200
,
0000
0000
0000
0000
0000
0310
1000
0200
,
0000
0000
0000
0000
0000
0000
0310
0002
,
0000
0000
2003
0000
0000
0000
3010
0200
,
0000
0000
0000
0000
,
0000
0000
0000
0000
0000
0300
0001
0020
,
0000
0000
0000
0000
0000
0000
0031
0200
,
0000
0000
0320
0000
0000
0000
1030
0200
,
0000
0000
0000
0000
0000
0000
1300
0200
,
0000
0000
0000
0000
0000
0310
0001
0200
,
0000
0000
0000
0000
0000
0000
0310
2000
,
0000
0000
3002
0000
0000
0000
0013
0200
,
0000
0000
0000
0000
,
0000
0000
0000
0000
0000
0300
0000
0000
;

//---------------dance-single - I. Pyles----------------
#NOTES:
     dance-single:
     I. Pyles:
     Hard:
     12:
     0.739,1.000,0.214,0.626,0.451,788.000,39.000,114.000,26.000,0.000:
0000
0000
0000
0000
,
1000
0100
0000
1000
0100
0010
0001
0000
,
0100
0000
0001
0000
0000
0000
0100
0000
0001
0000
1000
0000
0200
0300
0010
0000
,
0001
0100
0000
0001
0100
0010
1000
0000
,
0100
0000
0000
0000
1000
0000
0000
0000
0020
0000
0000
0030
0010
0000
0000
0000
0100
0000
0000
0000
0002
0000
0000
0003
0001
0000
0000
0000
0010
0000
0000
0000
,
0100
1000
0000
0100
1000
0001
0010
0000
,
0001
0000
0100
0000
0000
0000
0001
0000
0100
0000
0010
0000
2000
3000
0100
0000
,
0010
0001
0000
0010
0001
1000
0100
0000
,
1000
0000
0010
0000
0000
0000
1000
0000
0010
0000
0100
0001
0020
0030
0100
1000
,
0001
2000
0000
0000
3020
0000
0000
0000
,
1030
0002
0000
0000
0023
0000
0000
0000
,
0031
0200
0000
0000
0320
0000
0000
0000
,
1030
0200
0000
0000
0320
0000
0000
0000
,
0130
2000
0000
0000
3020
0000
0000
0000
,
0130
0002
0000
0000
0023
0000
0000
0000
,
0130
2000
0000
0000
3020
0000
0000
0000
,
0000
0000
0000
0000
0000
0000
0000
0030
,
1000
0000
0000
1000
0000
0000
1000
0000
,
0000
1000
0000
0000
1000
0000
0010
0000
,
0100
0000
0000
0100
0000
0100
0001
0010
,
0000
0000
0010
0000
0001
0010
0000
0000
,
0100
0000
0000
0100
0000
0000
0100
0000
,
0000
0100
0000
0000
0100
1000
0000
0000
,
0100
0000
0000
0100
0000
0000
0100
0000
,
0000
0100
0000
0000
0100
0000
0010
0000
,
0001
0000
0000
0001
0000
0000
0001
0000
,
0000
0001
0000
0000
0001
0000
0000
0100
,
0010
0000
0000
0010
0000
0000
1000
0001
,
0000
0000
0001
0000
0010
0001
0000
0000
,
0100
0000
0000
0100
0000
0000
0100
0000
,
0000
0100
0000
0000
0100
0010
0000
0000
,
0100
0000
0000
0100
0000
0000
0100
0000
,
0000
0000
0000
0000
,
1MM2
1003
0100
0020
0000
0031
0010
0200
,
0000
0310
0001
0100
0100
0000
0100
0000
,
0100
0001
0100
0020
0000
1030
0010
0200
,
0000
0000
0310
0000
1000
0000
0001
0000
0010
0100
1000
0001
1000
0000
0000
0000
,
2MM1
3001
0100
0020
0000
1030
0010
0200
,
0000
0310
1000
0100
0100
0000
0100
0000
,
0100
1000
0100
0020
0000
0031
0010
0200
,
0000
0000
0310
0000
0001
0000
1000
0000
0010
0100
0001
1000
0001
0000
0000
0000
,
2MM1
3001
0010
0200
0000
1300
0100
0010
,
0011
0000
0001
0020
0000
0130
1000
0001
,
1001
1000
0010
0200
0000
0301
0100
0010
,
1010
0000
0000
0000
1000
0000
0001
0000
0010
0100
1000
0001
1000
0000
0000
0000
,
1MM2
1003
0010
0200
0000
0301
0100
0010
,
1010
0000
1000
0020
0000
0130
0001
1000
,
1001
0001
0010
0200
0000
1300
0100
0010
,
0011
0000
0001
0020
0000
0130
1000
0001
,
1MM1
2000
3001
0200
0000
0301
0100
0010
,
1010
1000
0001
0020
0000
0200
0000
0330
,
1001
0002
1003
0200
0000
1300
0100
0010
,
0011
0000
0001
0000
1000
0000
0001
0000
0100
0010
1000
0001
1000
0000
0000
0000
,
1MM1
2000
3001
0200
0000
0301
0100
0010
,
1010
1000
0001
0020
0000
0200
0030
0310
,
0011
0001
1000
0100
1000
0010
0100
0001
,
1000
0000
0000
0000
0001
0000
0000
0000
0010
0000
0000
0000
0001
0000
0000
0000
0200
0300
0000
0000
0020
0000
0030
0000
2000
0000
0000
0000
3000
0000
0000
0000
,
1MM1
0002
1003
0020
0000
1030
0010
0100
,
0101
0001
1000
0200
0000
0020
0000
0330
,
1001
2000
3001
0020
0000
0031
0010
0100
,
1100
0000
1000
0000
0001
0000
1000
0000
0010
0100
0001
1000
0001
0000
0000
0000
,
1MM1
0002
1003
0020
0000
1030
0100
0010
,
0011
0001
1000
0020
0000
0200
0030
0302
,
0100
0000
1000
0000
0000
0100
1000
0003
,
0101
0000
00M0
0000
M000
0000
00M0
0000
0000
M000
0000
0000
,
1MM1
0000
2000
0000
3001
0000
0010
0100
0010
0000
0001
0000
0100
0000
0010
0000
,
1010
0000
1000
0000
0001
0000
0010
0100
0010
0100
0010
0000
0001
0000
0000
0000
,
1001
0002
0103
0020
0000
1030
0100
0010
,
0011
0000
0001
0000
1000
0000
0010
0100
0010
0100
0010
0000
1000
0000
0000
0000
,
1MM1
2000
3100
0020
0000
0031
0010
0100
,
1100
1000
0001
0200
0000
0320
0000
2030
,
0100
0000
0001
0000
0000
0100
3001
0000
,
1100
0000
0000
0000
1001
0000
0000
0000
1000
0010
1000
0001
1000
0000
0020
0000
,
0000
0000
0000
0000
0000
0000
1030
0200
,
0000
0000
0320
0000
0000
0000
0031
0200
,
0000
0000
0000
0000
0000
0000
0301
0200
,
0000
0000
0000
0000
0000
0310
1000
0200
,
0000
0000
0000
0000
0000
0000
0310
0002
,
0000
0000
2003
0000
0000
0000
3010
0200
,
0000
0000
0000
0000
,
0000
0000
0000
0000
0300
0000
0001
0100
0010
1000
0100
1000
0001
1000
0010
0100
,
0001
0100
0010
1000
0001
0100
0010
1000
0001
0100
0010
1000
0001
1000
0100
0010
,
0001
0010
0100
1000
0001
0100
0010
1000
0001
0100
0010
1000
0001
1000
0100
0010
,
0001
0010
0100
1000
0001
0010
0100
1000
0001
0010
0100
1000
0001
1000
0010
0100
,
0001
0100
0010
1000
0001
0100
0010
1000
0001
0010
0100
1000
0100
0010
0001
1000
,
0010
0100
0001
1000
0100
0010
0001
1000
0100
0010
0001
1000
0010
0100
0001
1000
,
0001
1000
0100
0010
0001
1000
0010
0100
0001
1000
0010
0100
0001
1000
0100
0010
,
0001
0010
0100
1000
0001
0010
0001
1000
0100
0010
0001
1000
0001
0010
0100
1000
,
0001
0010
0001
1000
0100
0010
0001
0100
0010
1000
0100
1000
0001
1000
0010
0100
,
0001
0000
2000
0000
3001
0000
0010
0100
0010
0000
0001
0000
0100
0000
0010
0000
,
1010
0000
1000
0000
0001
0000
0010
0100
0010
0100
0010
0000
0001
0000
0000
0000
,
1001
0002
0103
0020
0000
1030
0100
0010
,
0011
0000
0001
0000
1000
0000
0010
0100
0010
0100
0010
0000
1000
0000
0000
0000
,
1MM1
2000
3100
0020
0000
0031
0010
0100
,
1100
1000
0001
0200
0000
0320
0000
2030
,
0100
0000
0001
0000
0000
0100
3001
0000
,
1100
0000
0000
0000
1001
0000
0000
0000
0001
0100
0001
1000
0001
0000
0200
0000
,
0000
0000
0000
0000
0000
0000
0301
0020
,
0000
0000
0230
0000
0000
0000
1300
0020
,
0000
0000
0000
0000
0000
0000
1030
0020
,
0000
0000
0000
0000
0000
0130
0001
0020
,
0000
0000
0000
0000
0000
0000
0130
2000
,
0000
0000
3002
0000
0000
0000
0103
0020
,
0000
0000
0000
0000
,
0000
0000
0000
0000
0030
0000
1000
0010
0100
0001
0010
0001
1000
0001
0100
0010
,
1000
0010
0100
0001
1000
0010
0100
0001
1000
0010
0100
0001
1000
0001
0010
0100
,
1000
0100
0010
0001
1000
0010
0100
0001
1000
0010
0100
0001
1000
0001
0010
0100
,
1000
0100
0010
0001
1000
0100
0010
0001
1000
0100
0010
0001
1000
0001
0100
0010
,
1000
0010
1000
0001
1000
0010
0100
0001
1000
0100
0010
0001
0010
0100
1000
0001
,
0100
0010
1000
0001
0100
0010
1000
0001
0100
0010
1000
0001
0010
0100
1000
0001
,
1000
0001
0010
0100
1000
0001
0100
0010
1000
0001
0100
0010
1000
0001
0010
0100
,
1000
0100
0010
0001
1000
0100
1000
0001
0010
0100
1000
0001
1000
0100
0010
0001
,
1000
0100
1000
0001
0010
0100
1000
0010
0100
0001
0010
0001
1000
0000
0020
0000
,
0000
0000
0000
0000
0000
0000
1030
0200
,
0000
0000
0320
0000
0000
0000
0031
0200
,
0000
0000
0000
0000
0000
0000
0301
0200
,
0000
0000
0000
0000
0000
0310
1000
0200
,
0000
0000
0000
0000
0000
0000
0310
0002
,
0000
0000
2003
0000
0000
0000
3010
0200
,
0000
0000
0000
0000
,
0000
0000
0000
0000
0000
0300
0001
0020
,
0000
0000
0000
0000
0000
0000
0031
0200
,
0000
0000
0320
0000
0000
0000
1030
0200
,
0000
0000
0000
0000
0000
0000
1300
0200
,
0000
0000
0000
0000
0000
0310
0001
0200
,
0000
0000
0000
0000
0000
0000
0310
2000
,
0000
0000
3002
0000
0000
0000
0013
0200
,
0000
0000
0000
0000
,
0000
0000
0000
0000
0000
0300
0000
0000
;

//---------------dance-single - I. Pyles----------------
#NOTES:
     dance-single:
     I. Pyles:
     Challenge:
     13:
     0.889,1.000,0.214,0.527,0.786,998.000,39.000,96.000,26.000,0.000:

0000
0000
0000
0000
,
1000
0100
0000
1000
0100
0010
0001
0000
,
0100
0000
0001
0000
0000
0000
0100
0000
0001
0000
1000
0000
0200
0300
0010
0000
,
0001
0100
0000
0001
0100
0010
1000
0000
,
0100
0000
0000
0000
1000
0000
0000
0000
0020
0000
0000
0030
0010
0000
0000
0000
0100
0000
0000
0000
0002
0000
0000
0003
0001
0000
0000
0000
0010
0000
0000
0000
,
0100
1000
0000
0100
1000
0001
0010
0000
,
0001
0000
0100
0000
0000
0000
0001
0000
0100
0000
0010
0000
2000
3000
0100
0000
,
0010
0001
0000
0010
0001
1000
0100
0000
,
1000
0000
0010
0000
0000
0000
1000
0000
0010
0000
0100
0001
0020
0030
0100
1000
,
0001
2000
0000
0000
3020
0000
0000
0000
,
1030
0002
0000
0000
0023
0000
0000
0000
,
0031
0200
0000
0000
0320
0000
0000
0000
,
1030
0200
0000
0000
0320
0000
0000
0000
,
0130
2000
0000
0000
3020
0000
0000
0000
,
0130
0002
0000
0000
0023
0000
0000
0000
,
0130
2000
0000
0000
3020
0000
0000
0000
,
0000
0000
0000
0000
0000
0000
0000
0030
,
1000
0000
0000
1000
0000
0000
1000
0000
,
0000
1000
0000
0000
1000
0000
0010
0000
,
0100
0000
0000
0100
0000
0100
0001
0010
,
0000
0000
0010
0000
0001
0010
0000
0000
,
0100
0000
0000
0100
0000
0000
0100
0000
,
0000
0100
0000
0000
0100
1000
0000
0000
,
0100
0000
0000
0100
0000
0000
0100
0000
,
0000
0100
0000
0000
0100
0000
0010
0000
,
0001
0000
0000
0001
0000
0000
0001
0000
,
0000
0001
0000
0000
0001
0000
0000
0100
,
0010
0000
0000
0010
0000
0000
1000
0001
,
0000
0000
0001
0000
0010
0001
0000
0000
,
0100
0000
0000
0100
0000
0000
0100
0000
,
0000
0100
0000
0000
0100
0010
0000
0000
,
0100
0000
0000
0100
0000
0000
0100
0000
,
0000
0000
0000
0000
,
1MM2
1003
0100
0020
0000
0031
0010
0200
,
0000
0310
0001
0100
0100
0000
0100
0000
,
0100
0001
0100
0020
0000
1030
0010
0200
,
0000
0000
0310
0000
1000
0000
0001
0000
0010
0100
1000
0001
1000
0000
0000
0000
,
2MM1
3001
0100
0020
0000
1030
0010
0200
,
0000
0310
1000
0100
0100
0000
0100
0000
,
0100
1000
0100
0020
0000
0031
0010
0200
,
0000
0000
0310
0000
0001
0000
1000
0000
0010
0100
0001
1000
0001
0000
0000
0000
,
2MM1
3001
0010
0200
0000
1300
0100
0010
,
0011
0000
0001
0020
0000
0130
1000
0001
,
1001
1000
0010
0200
0000
0301
0100
0010
,
1010
0000
0000
0000
1000
0000
0001
0000
0010
0100
1000
0001
1000
0000
0000
0000
,
1MM2
1003
0010
0200
0000
0301
0100
0010
,
1010
0000
1000
0020
0000
0130
0001
1000
,
1001
0001
0010
0200
0000
1300
0100
0010
,
0011
0000
0001
0020
0000
0130
1000
0001
,
1MM1
2000
3001
0200
0000
0301
0100
0010
,
1010
1000
0001
0020
0000
0200
0000
0330
,
1001
0002
1003
0200
0000
1300
0100
0010
,
0011
0000
0001
0000
1000
0000
0001
0000
0100
0010
1000
0001
1000
0000
0000
0000
,
1MM1
2000
3001
0200
0000
0301
0100
0010
,
1010
1000
0001
0020
0000
0200
0030
0310
,
0011
0001
1000
0100
1000
0010
0100
0001
,
1000
0000
0000
0000
0001
0000
0000
0000
0010
0000
0000
0000
0001
0000
0000
0000
0200
0300
0000
0000
0020
0000
0030
0000
2000
0000
0000
0000
3000
0000
0000
0000
,
1MM1
0002
1003
0020
0000
1030
0010
0100
,
0101
0001
1000
0200
0000
0020
0000
0330
,
1001
2000
3001
0020
0000
0031
0010
0100
,
1100
0000
1000
0000
0001
0000
1000
0000
0010
0100
0001
1000
0001
0000
0000
0000
,
1MM1
0002
1003
0020
0000
1030
0100
0010
,
0011
0001
1000
0020
0000
0200
0030
0302
,
0100
0000
1000
0000
0000
0100
1000
0003
,
0101
0000
00M0
0000
M000
0000
00M0
0000
0000
M000
0000
0000
,
1MM1
0000
2000
0000
3001
0000
0010
0100
0010
0000
0001
0000
0100
0000
0010
0000
,
1010
0000
1000
0000
0001
0000
0010
0100
0010
0100
0010
0000
0001
0000
0000
0000
,
1001
0002
0103
0020
0000
1030
0100
0010
,
0011
0000
0001
0000
1000
0000
0010
0100
0010
0100
0010
0000
1000
0000
0000
0000
,
1MM1
2000
3100
0020
0000
0031
0010
0100
,
1100
1000
0001
0200
0000
0320
0000
2030
,
0100
0000
0001
0000
0000
0100
3001
0000
,
1100
0000
0000
0000
1001
0000
0000
0000
1000
0010
1000
0001
0010
0100
1000
0001
,
1000
0100
0010
0001
1000
0100
0010
0001
1000
0100
0010
0001
1000
0001
0100
0010
,
1000
0010
0100
0001
1000
0100
0010
0001
1000
0100
0010
0001
1000
0001
0100
0010
,
1000
0010
0100
0001
1000
0010
0100
0001
1000
0010
0100
0001
1000
0001
0010
0100
,
1000
0100
1000
0001
1000
0100
0010
0001
1000
0010
0100
0001
0100
0010
1000
0001
,
0010
0100
1000
0001
0010
0100
1000
0001
0010
0100
1000
0001
0100
0010
1000
0001
,
1000
0001
0100
0010
1000
0001
0010
0100
1000
0001
0010
0100
1000
0001
0100
0010
,
1000
0010
0100
0001
1000
0010
1000
0001
0100
0010
1000
0001
1000
0010
0100
0001
,
1000
0010
1000
0001
0100
0010
1000
0100
0010
0001
0100
0001
1000
0001
0010
0100
,
1000
0010
0100
0001
1000
0010
0100
0001
1000
0010
0100
0001
1000
0001
0010
0100
,
1000
0100
0010
0001
1000
0010
0100
0001
1000
0010
0100
0001
1000
0001
0010
0100
,
1000
0100
0010
0001
1000
0100
0010
0001
1000
0100
0010
0001
1000
0001
0100
0010
,
1000
0010
0100
0001
1000
0010
0100
0001
1000
0100
0010
0001
0010
0100
1000
0001
,
0100
0010
1000
0001
0010
0100
1000
0001
0010
0100
1000
0001
0100
0010
1000
0001
,
1000
0001
0010
0100
1000
0001
0100
0010
1000
0001
0100
0010
1000
0001
0010
0100
,
1000
0100
0010
0001
1000
0100
1000
0001
0010
0100
1000
0001
1000
0100
0010
0001
,
1000
0100
1000
0001
0010
0100
1000
0010
0100
0001
0010
0001
1000
0001
0100
0010
,
1000
0000
0002
0000
1003
0000
0100
0010
0100
0000
1000
0000
0010
0000
0100
0000
,
0101
0000
0001
0000
1000
0000
0100
0010
0100
0010
0100
0000
1000
0000
0000
0000
,
1001
2000
3010
0200
0000
0301
0010
0100
,
1100
0000
1000
0000
0001
0000
0100
0010
0100
0010
0100
0000
0001
0000
0000
0000
,
1MM1
0002
0013
0200
0000
1300
0100
0010
,
0011
0001
1000
0020
0000
0230
0000
0302
,
0010
0000
1000
0000
0000
0010
1003
0000
,
0011
0000
0000
0000
1001
0000
0000
0000
0001
0100
0001
1000
0100
0010
0001
1000
,
0001
0010
0100
1000
0001
0010
0100
1000
0001
0010
0100
1000
0001
1000
0010
0100
,
0001
0100
0010
1000
0001
0010
0100
1000
0001
0010
0100
1000
0001
1000
0010
0100
,
0001
0100
0010
1000
0001
0100
0010
1000
0001
0100
0010
1000
0001
1000
0100
0010
,
0001
0010
0001
1000
0001
0010
0100
1000
0001
0100
0010
1000
0010
0100
0001
1000
,
0100
0010
0001
1000
0100
0010
0001
1000
0100
0010
0001
1000
0010
0100
0001
1000
,
0001
1000
0010
0100
0001
1000
0100
0010
0001
1000
0100
0010
0001
1000
0010
0100
,
0001
0100
0010
1000
0001
0100
0001
1000
0010
0100
0001
1000
0001
0100
0010
1000
,
0001
0100
0001
1000
0010
0100
0001
0010
0100
1000
0010
1000
0001
1000
0100
0010
,
0001
0100
0010
1000
0001
0100
0010
1000
0001
0100
0010
1000
0001
1000
0100
0010
,
0001
0010
0100
1000
0001
0100
0010
1000
0001
0100
0010
1000
0001
1000
0100
0010
,
0001
0010
0100
1000
0001
0010
0100
1000
0001
0010
0100
1000
0001
1000
0010
0100
,
0001
0100
0001
1000
0001
0100
0010
1000
0001
0010
0100
1000
0100
0010
0001
1000
,
0010
0100
0001
1000
0010
0100
0001
1000
0010
0100
0001
1000
0100
0010
0001
1000
,
0001
1000
0100
0010
0001
1000
0010
0100
0001
1000
0010
0100
0001
1000
0100
0010
,
0001
0010
0100
1000
0001
0010
0001
1000
0100
0010
0001
1000
0001
0010
0100
1000
,
0001
0010
0001
1000
0100
0010
0001
0100
0010
1000
0100
1000
0001
0000
0200
0000
,
0000
0000
0000
0000
0000
0000
0301
0020
,
0000
0000
0230
0000
0000
0000
1300
0020
,
0000
0000
0000
0000
0000
0000
1030
0020
,
0000
0000
0000
0000
0000
0130
0001
0020
,
0000
0000
0000
0000
0000
0000
0130
2000
,
0000
0000
3002
0000
0000
0000
0103
0020
,
0000
0000
0000
0000
,
0000
0000
0000
0000
0000
0030
1000
0200
,
0000
0000
0000
0000
0000
0000
1300
0020
,
0000
0000
0230
0000
0000
0000
0301
0020
,
0000
0000
0000
0000
0000
0000
0031
0020
,
0000
0000
0000
0000
0000
0130
1000
0020
,
0000
0000
0000
0000
0000
0000
0130
0002
,
0000
0000
2003
0000
0000
0000
3100
0020
,
0000
0000
0000
0000
,
0000
0000
0000
0000
0000
0030
0000
0000
;
