#TITLE:Rolling in the Deep;
#SUBTITLE:Sexuality Violation;
#ARTIST:Adele;
#TITLETRANSLIT:;
#SUBTITLETRANSLIT:;
#ARTISTTRANSLIT:;
#CREDIT:;
#BANNER:Rolling in the Deep-bn.png;
#BACKGROUND:Rolling in the Deep-bg.png;
#LYRICSPATH:;
#CDTITLE:GazeboCD.png;
#MUSIC:Rolling in the Deep.ogg;
#OFFSET:-2.093;
#SAMPLESTART:60.096;
#SAMPLELENGTH:19.700;
#SELECTABLE:YES;
#BPMS:0.000=210.000;
#STOPS:;
#BGCHANGES:;
// cache tags:
#FIRSTBEAT:16.000;
#LASTBEAT:788.000;
#SONGFILENAME:Songs/Sexuality Violation 2/Rolling in the Deep - [Gazebo]/Rolling in the Deep.sm;
#HASMUSIC:1;
#HASBANNER:1;
#MUSICLENGTH:229.250;
// end cache tags

//---------------dance-single - Gazebo----------------
#NOTES:
     dance-single:
     Gazebo:
     Challenge:
     14:
     1.000,1.000,0.288,0.506,0.785,1427.000,66.000,116.000,0.000,0.000:

0000
0000
0000
0000
,
0000
0000
0000
0000
,
0000
0000
0000
0000
,
0000
0000
0000
0000
,
1000
0000
0000
2000
0000
0000
0000
0000
,
3020
0000
0000
0230
0000
0000
0000
0000
,
0301
0001
1000
0200
,
0000
0320
0000
0030
,
0001
0000
0000
0100
0000
0000
0001
0000
,
1000
0000
0010
0000
0100
0000
0100
0001
,
1000
0100
0000
1000
0001
0000
0010
0002
,
0000
0000
0003
0000
,
0100
0000
0000
0200
0000
0000
0000
0000
,
0302
0000
0000
1003
0000
0000
1000
0000
,
0001
0001
0010
0100
,
0000
2000
0000
0000
0000
0000
3000
0000
,
0001
0000
0001
0200
0000
0000
0310
0000
,
1000
0000
0001
0000
0010
0000
0010
0001
,
1000
1000
0010
0100
,
0200
0000
0300
0000
,
0101
0010
1001
0001
,
0110
1000
0101
0010
,
1001
1000
0011
0100
,
1001
0001
1010
0100
,
1001
0001
1100
0010
,
1001
1000
0110
0001
,
1010
0100
1001
0001
,
1100
1000
0011
0001
,
0110
1000
1001
0010
,
0101
1000
1100
0001
,
0110
1000
0101
0001
,
1010
0100
1001
0001
,
1100
0010
1001
1000
,
0101
0010
1010
1000
,
0110
0001
1001
1000
,
0011
0100
1001
0001
,
1000
0100
1000
0100
1000
0100
0010
0001
,
0100
0001
0100
0001
1000
0001
1000
0001
,
0010
0100
1000
0010
0100
0001
0100
0010
,
1000
0100
1000
0100
1000
0001
1000
0001
,
0100
0010
1000
0100
0010
0001
1000
0001
,
0100
0010
0100
0010
0100
0001
0100
0001
,
1000
0100
0010
0001
0100
0010
1000
0010
,
0100
0001
1000
0001
0010
0001
0100
0001
,
1000
0010
1000
0010
1000
0010
0100
0001
,
0010
0001
0010
0001
1000
0001
1000
0001
,
0100
0010
1000
0100
0010
0001
0010
0100
,
1000
0010
1000
0010
1000
0001
1000
0001
,
0010
0100
1000
0010
0100
0001
1000
0001
,
0010
0100
0010
0100
0010
0001
0010
0001
,
1000
0001
0001
2000
,
3200
2300
3200
2300
,
3001
0100
0001
1000
0010
1000
0001
1000
0100
0010
0001
0010
0100
1000
0001
1000
,
0010
0100
0001
0100
0001
1000
0010
1000
0100
0010
0001
1000
0010
1000
0100
0010
,
0001
1000
0001
0100
0010
0100
0001
1000
0100
1000
0001
0010
0100
1000
0100
0010
,
0004
0203
0302
0203
,
0310
1000
0100
1000
0001
0010
0001
1000
0010
0100
0010
1000
0001
0100
0001
1000
,
0001
0010
0100
0010
0001
1000
0100
1000
0010
0100
0001
0010
0100
1000
0001
1000
,
0010
0100
0010
1000
0001
0100
0001
1000
0001
0010
0100
1000
0002
0000
0000
0000
,
0203
0302
0203
0302
,
1003
0010
1000
0001
0100
0001
1000
0001
0010
0100
1000
0100
0010
0001
1000
0001
,
0100
0010
1000
0010
1000
0001
0100
0001
0010
0100
1000
0001
0100
0001
0010
0100
,
1000
0001
1000
0010
0100
0010
1000
0001
0010
0001
1000
0100
0010
0001
0010
0100
,
1000
0001
0100
0010
1000
0000
0000
0000
1000
0000
0000
0000
0001
0000
0000
0000
,
0100
0001
0100
0000
0010
0000
0010
1000
,
0000
0001
1000
0000
1000
0000
0100
0000
,
0020
0000
0032
0000
0203
0000
0310
1000
,
0000
0000
0001
0000
0010
0100
0010
0100
,
1000
0000
0000
2000
0000
0000
0000
0000
,
3002
0000
0103
0100
,
0010
0010
1000
0001
,
0020
0000
0000
0000
0000
0000
0030
0001
,
1000
0000
0000
0020
0000
0000
0000
0000
,
1030
0000
0001
0000
0100
0000
0100
0001
,
1000
0100
1000
0000
0001
0000
0010
0000
,
0020
0000
0030
0000
,
0001
0000
0000
0002
0000
0000
0000
0000
,
2003
0000
3010
0010
,
0100
0000
0000
0100
0001
0000
1000
0000
,
0200
0000
0000
0300
,
1000
0000
0000
0020
0000
0000
0000
0000
,
0130
0001
1000
1000
,
0100
0100
0010
0001
,
0002
0000
0000
1003
0001
0000
0010
0000
,
0001
0100
0001
0100
0010
1000
0100
0010
,
0001
0100
0001
0100
0001
1000
0001
1000
,
0100
0010
0001
0100
0010
1000
0010
0100
,
0001
0010
0001
0010
0001
1000
0001
1000
,
0010
0100
0001
0010
0100
1000
0001
1000
,
0010
0100
0010
0100
0010
1000
0010
1000
,
0001
0010
0100
1000
0010
0100
0001
0100
,
0010
1000
0001
1000
0100
1000
0010
1000
,
0001
0100
0001
0100
0010
1000
0100
0010
,
0001
0100
0001
0100
0001
1000
0001
1000
,
0100
0010
0001
0100
0010
1000
0010
0100
,
0001
0010
0001
0010
0001
1000
0001
1000
,
0010
0100
0001
0010
0100
1000
0001
1000
,
0010
0100
0010
0100
0010
1000
0010
1000
,
0001
1000
1000
0002
,
0203
0302
0203
0302
,
1003
0100
1000
0001
0010
0001
1000
0001
0100
0010
1000
0010
0100
0001
1000
0001
,
0010
0100
1000
0100
1000
0001
0010
0001
0100
0010
1000
0001
0010
0001
0100
0010
,
1000
0001
1000
0100
0010
0100
1000
0001
0100
0001
1000
0010
0100
0001
0100
0010
,
4000
3200
2300
3200
,
0310
0001
0100
0001
1000
0010
1000
0001
0010
0100
0010
0001
1000
0100
1000
0001
,
1000
0010
0100
0010
1000
0001
0100
0001
0010
0100
1000
0010
0100
0001
1000
0001
,
0010
0100
0010
0001
1000
0100
1000
0001
1000
0010
0100
0001
2000
0000
0000
0000
,
3200
2300
3200
2300
,
3001
0010
0001
1000
0100
1000
0001
1000
0010
0100
0001
0100
0010
1000
0001
1000
,
0100
0010
0001
0010
0001
1000
0100
1000
0010
0100
0001
1000
0100
1000
0010
0100
,
0001
1000
0001
0010
0100
0010
0001
1000
0010
1000
0001
0100
0010
1000
0010
0100
,
0001
1000
0100
0010
0001
0000
0000
0000
0001
0000
0000
0000
1000
0000
0000
0000
,
0100
1000
0100
0000
0010
0000
0010
0001
,
0000
1000
0001
0000
0001
0000
0100
0000
,
0020
2030
3200
0310
,
0002
0203
0302
0203
,
0301
0010
0001
1000
0100
1000
0001
1000
0010
0100
0001
0100
0010
1000
0001
1000
,
0100
0010
0001
0010
0001
1000
0100
1000
0010
0100
0001
1000
0100
1000
0010
0100
,
0001
1000
0001
0010
0100
0010
0001
1000
0010
1000
0001
0100
0010
1000
0010
0100
,
0004
0023
0032
0023
,
0130
1000
0010
1000
0001
0100
0001
1000
0100
0010
0100
1000
0001
0010
0001
1000
,
0001
0100
0010
0100
0001
1000
0010
1000
0100
0010
0001
0100
0010
1000
0001
1000
,
0100
0010
0100
1000
0001
0010
0001
1000
0001
0100
0010
1000
0002
0000
0000
0000
,
0023
0032
0023
0032
,
1003
0100
1000
0001
0010
0001
1000
0001
0100
0010
1000
0010
0100
0001
1000
0001
,
0010
0100
1000
0100
1000
0001
0010
0001
0100
0010
1000
0001
0010
0001
0100
0010
,
1000
0001
1000
0100
0010
0100
1000
0001
0100
0001
1000
0010
0100
0001
0100
0010
,
1000
0001
0010
0100
1000
0000
0000
0000
1000
0000
0000
0000
0001
0000
0000
0000
,
0010
0001
0010
0000
0100
0000
0100
0000
,
1000
0001
0001
0100
,
0010
0100
0010
0000
1000
0000
0001
0000
,
1000
0000
0100
0010
0001
1000
0001
0100
,
0101
0010
1001
0001
,
0110
1000
0101
0010
,
1001
1000
0011
0100
,
1001
0000
0002
0000
2003
3200
0310
0000
,
2001
3001
1100
0010
,
1001
1000
0110
0001
,
1010
0100
1001
0001
,
1100
0000
2000
0000
3002
0203
0310
0000
,
1020
0130
1001
0010
,
0101
1000
1100
0001
,
0110
1000
0101
0001
,
1010
0000
2000
0000
3002
0023
0130
0000
,
1200
0310
1001
1000
,
0101
0010
1010
1000
,
0110
0001
1001
1000
,
0011
0100
1001
1000
,
0001
0100
0001
0100
0010
0000
0010
1000
,
0001
0001
0001
0001
,
1000
0100
1000
0100
0010
0000
0002
0000
,
0203
0302
0203
0320
,
1030
0100
1000
0100
0010
0000
0010
0001
,
1000
1000
1000
1000
,
0001
0100
0001
0100
0010
0000
2000
0000
,
3200
2300
3200
0320
,
0031
1000
0001
1000
0010
0000
0010
0100
,
0001
0001
0001
0001
,
0010
0100
0010
0100
1000
0000
1000
0001
,
0100
0100
0100
0100
,
0010
1000
0010
1000
0001
0000
0001
0010
,
0100
0100
0100
0100
,
0010
0001
0010
0001
1000
0000
0002
0000
,
0203
0302
0203
0302
,
1003
0100
1000
0001
0010
0001
1000
0001
0100
0010
1000
0010
0100
0001
1000
0001
,
0010
0100
1000
0100
1000
0001
0010
0001
0100
0010
1000
0001
0010
0001
0100
0010
,
1000
0001
1000
0100
0010
0100
1000
0001
0100
0001
1000
0010
0100
0001
0100
0010
,
4000
3200
2300
3200
,
0310
0001
0100
0001
1000
0010
1000
0001
0010
0100
0010
0001
1000
0100
1000
0001
,
1000
0010
0100
0010
1000
0001
0100
0001
0010
0100
1000
0010
0100
0001
1000
0001
,
0010
0100
0010
0001
1000
0100
1000
0001
1000
0010
0100
0001
2000
0000
0000
0000
,
3200
2300
3200
2300
,
3001
0010
0001
1000
0100
1000
0001
1000
0010
0100
0001
0100
0010
1000
0001
1000
,
0100
0010
0001
0010
0001
1000
0100
1000
0010
0100
0001
1000
0100
1000
0010
0100
,
0001
1000
0001
0010
0100
0010
0001
1000
0010
1000
0001
0100
0010
1000
0010
0100
,
0001
1000
0100
0010
0001
0000
0000
0000
0001
0000
0000
0000
1000
0000
0000
0000
,
0100
1000
0100
0000
0010
0000
0010
0001
,
0000
1000
0001
0000
0001
0000
0100
0000
,
0020
2030
3200
0310
,
0002
0203
0302
0203
,
0301
0010
0001
1000
0100
1000
0001
1000
0010
0100
0001
0100
0010
1000
0001
1000
,
0100
0010
0001
0010
0001
1000
0100
1000
0010
0100
0001
1000
0100
1000
0010
0100
,
0001
1000
0001
0010
0100
0010
0001
1000
0010
1000
0001
0100
0010
1000
0010
0100
,
0004
0023
0032
0023
,
0130
1000
0010
1000
0001
0100
0001
1000
0100
0010
0100
1000
0001
0010
0001
1000
,
0001
0100
0010
0100
0001
1000
0010
1000
0100
0010
0001
0100
0010
1000
0001
1000
,
0100
0010
0100
1000
0001
0010
0001
1000
0001
0100
0010
1000
0002
0000
0000
0000
,
0023
0032
0023
0032
,
1003
0100
1000
0001
0010
0001
1000
0001
0100
0010
1000
0010
0100
0001
1000
0001
,
0010
0100
1000
0100
1000
0001
0010
0001
0100
0010
1000
0001
0010
0001
0100
0010
,
1000
0001
1000
0100
0010
0100
1000
0001
0100
0001
1000
0010
0100
0001
0100
0010
,
1000
0001
0010
0100
1000
0000
0000
0000
1000
0000
0000
0000
0001
0000
0000
0000
,
0100
0001
0100
0000
0010
0000
1000
0001
,
1000
0000
0100
0000
0010
0001
0010
0000
,
0100
0000
1000
0001
1000
0000
0010
0000
,
0100
0001
0100
0000
0001
1000
0001
1000
,
0200
0000
0000
0000
,
0300
0000
0000
0000
;

//---------------dance-single - Gazebo----------------
#NOTES:
     dance-single:
     Gazebo:
     Hard:
     11:
     0.884,1.000,0.288,0.506,0.763,1237.000,66.000,116.000,0.000,0.000:
0000
0000
0000
0000
,
0000
0000
0000
0000
,
0000
0000
0000
0000
,
0000
0000
0000
0000
,
1000
0000
0000
2000
0000
0000
0000
0000
,
3020
0000
0000
0230
0000
0000
0000
0000
,
0301
0001
1000
0200
,
0000
0320
0000
0030
,
0001
0000
0000
0100
0000
0000
0001
0000
,
1000
0000
0010
0000
0100
0000
0100
0001
,
1000
0100
0000
1000
0001
0000
0010
0002
,
0000
0000
0003
0000
,
0100
0000
0000
0200
0000
0000
0000
0000
,
0302
0000
0000
1003
0000
0000
1000
0000
,
0001
0001
0010
0100
,
0000
2000
0000
0000
0000
0000
3000
0000
,
0001
0000
0001
0200
0000
0000
0310
0000
,
1000
0000
0001
0000
0010
0000
0010
0001
,
1000
1000
0010
0100
,
0200
0000
0300
0000
,
0101
0010
1001
0001
,
0110
1000
0101
0010
,
1001
1000
0011
0100
,
1001
0001
1010
0100
,
1001
0001
1100
0010
,
1001
1000
0110
0001
,
1010
0100
1001
0001
,
1100
1000
0011
0001
,
0110
1000
1001
0010
,
0101
1000
1100
0001
,
0110
1000
0101
0001
,
1010
0100
1001
0001
,
1100
0010
1001
1000
,
0101
0010
1010
1000
,
0110
0001
1001
1000
,
0011
0100
1001
0001
,
1000
0100
1000
0100
1000
0100
0010
0001
,
0100
0001
0100
0001
1000
0001
1000
0001
,
0010
0100
1000
0010
0100
0001
0100
0010
,
1000
0100
1000
0100
1000
0001
1000
0001
,
0100
0010
1000
0100
0010
0001
1000
0001
,
0100
0010
0100
0010
0100
0001
0100
0001
,
1000
0100
0010
0001
0100
0010
1000
0010
,
0100
0001
1000
0001
0010
0001
0100
0001
,
1000
0010
1000
0010
1000
0010
0100
0001
,
0010
0001
0010
0001
1000
0001
1000
0001
,
0100
0010
1000
0100
0010
0001
0010
0100
,
1000
0010
1000
0010
1000
0001
1000
0001
,
0010
0100
1000
0010
0100
0001
1000
0001
,
0010
0100
0010
0100
0010
0001
0010
0001
,
1000
0001
0001
2000
,
3200
2300
3200
2300
,
3001
0100
0001
1000
0010
1000
0100
1000
0001
0010
0001
1000
,
0001
0100
0001
1000
0010
1000
0100
1000
0001
0100
0010
1000
,
0001
0010
0001
1000
0100
1000
0010
1000
0001
0100
0001
1000
,
0004
0203
0302
0203
,
0301
0010
0001
1000
0100
1000
0010
1000
0001
0100
0001
1000
,
0001
0010
0001
1000
0100
1000
0010
0100
0001
0010
0100
1000
,
0001
0010
0001
1000
0100
1000
0010
1000
0001
2000
0000
0000
,
3200
2300
3200
2300
,
3001
0100
0001
1000
0010
1000
0100
1000
0001
0010
0001
1000
,
0001
0100
0001
1000
0010
1000
0100
1000
0001
0100
0010
1000
,
0001
0010
0001
1000
0100
1000
0010
1000
0001
0100
0001
1000
,
0001
1000
1000
0001
,
0100
0001
0100
0000
0010
0000
0010
1000
,
0000
0001
1000
0000
1000
0000
0100
0000
,
0020
0000
0032
0000
0203
0000
0310
1000
,
0000
0000
0001
0000
0010
0100
0010
0100
,
1000
0000
0000
2000
0000
0000
0000
0000
,
3002
0000
0103
0100
,
0010
0010
1000
0001
,
0020
0000
0000
0000
0000
0000
0030
0001
,
1000
0000
0000
0020
0000
0000
0000
0000
,
1030
0000
0001
0000
0100
0000
0100
0001
,
1000
0100
1000
0000
0001
0000
0010
0000
,
0020
0000
0030
0000
,
0001
0000
0000
0002
0000
0000
0000
0000
,
2003
0000
3010
0010
,
0100
0000
0000
0100
0001
0000
1000
0000
,
0200
0000
0000
0300
,
1000
0000
0000
0020
0000
0000
0000
0000
,
0130
0001
1000
1000
,
0100
0100
0010
0001
,
0002
0000
0000
1003
0001
0000
0010
0000
,
0001
0100
0001
0100
0010
1000
0100
0010
,
0001
0100
0001
0100
0001
1000
0001
1000
,
0100
0010
0001
0100
0010
1000
0010
0100
,
0001
0010
0001
0010
0001
1000
0001
1000
,
0010
0100
0001
0010
0100
1000
0001
1000
,
0010
0100
0010
0100
0010
1000
0010
1000
,
0001
0010
0100
1000
0010
0100
0001
0100
,
0010
1000
0001
1000
0100
1000
0010
1000
,
0001
0100
0001
0100
0010
1000
0100
0010
,
0001
0100
0001
0100
0001
1000
0001
1000
,
0100
0010
0001
0100
0010
1000
0010
0100
,
0001
0010
0001
0010
0001
1000
0001
1000
,
0010
0100
0001
0010
0100
1000
0001
1000
,
0010
0100
0010
0100
0010
1000
0010
1000
,
0001
1000
1000
0002
,
0203
0302
0203
0302
,
1003
0100
1000
0001
0010
0001
0100
0001
1000
0010
1000
0001
,
1000
0100
1000
0001
0010
0001
0100
0001
1000
0100
0010
0001
,
1000
0010
1000
0001
0100
0001
0010
0001
1000
0100
1000
0001
,
4000
3200
2300
3200
,
1300
0010
1000
0001
0100
0001
0010
0001
1000
0100
1000
0001
,
1000
0010
1000
0001
0100
0001
0010
0100
1000
0010
0100
0001
,
1000
0010
1000
0001
0100
0001
0010
0001
1000
0002
0000
0000
,
0203
0302
0203
0302
,
1003
0100
1000
0001
0010
0001
0100
0001
1000
0010
1000
0001
,
1000
0100
1000
0001
0010
0001
0100
0001
1000
0100
0010
0001
,
1000
0010
1000
0001
0100
0001
0010
0001
1000
0100
1000
0001
,
1000
0001
0001
1000
,
0100
1000
0100
0000
0010
0000
0010
0001
,
0000
1000
0001
0000
0001
0000
0100
0000
,
0020
2030
3200
0310
,
0002
0203
0302
0203
,
0301
0010
0001
1000
0100
1000
0010
1000
0001
0100
0001
1000
,
0001
0010
0001
1000
0100
1000
0010
1000
0001
0010
0100
1000
,
0001
0100
0001
1000
0010
1000
0100
1000
0001
0010
0001
1000
,
0004
0023
0032
0023
,
0031
0100
0001
1000
0010
1000
0100
1000
0001
0010
0001
1000
,
0001
0100
0001
1000
0010
1000
0100
0010
0001
0100
0010
1000
,
0001
0100
0001
1000
0010
1000
0100
1000
0001
2000
0000
0000
,
3020
2030
3020
2030
,
3001
0010
0001
1000
0100
1000
0010
1000
0001
0100
0001
1000
,
0001
0010
0001
1000
0100
1000
0010
1000
0001
0010
0100
1000
,
0001
0100
0001
1000
0010
1000
0100
1000
0001
0010
0001
1000
,
0001
1000
1000
0001
,
0010
0001
0010
0000
0100
0000
0100
0000
,
1000
0001
0001
0100
,
0010
0100
0010
0000
1000
0000
0001
0000
,
1000
0000
0100
0010
0001
1000
0001
0100
,
0101
0010
1001
0001
,
0110
1000
0101
0010
,
1001
1000
0011
0100
,
1001
0000
0002
0000
2003
3200
0310
0000
,
2001
3001
1100
0010
,
1001
1000
0110
0001
,
1010
0100
1001
0001
,
1100
0000
2000
0000
3002
0203
0310
0000
,
1020
0130
1001
0010
,
0101
1000
1100
0001
,
0110
1000
0101
0001
,
1010
0000
2000
0000
3002
0023
0130
0000
,
1200
0310
1001
1000
,
0101
0010
1010
1000
,
0110
0001
1001
1000
,
0011
0100
1001
1000
,
0001
0100
0001
0100
0010
0000
0010
1000
,
0001
0001
0001
0001
,
1000
0100
1000
0100
0010
0000
0002
0000
,
0203
0302
0203
0320
,
1030
0100
1000
0100
0010
0000
0010
0001
,
1000
1000
1000
1000
,
0001
0100
0001
0100
0010
0000
2000
0000
,
3200
2300
3200
0320
,
0031
1000
0001
1000
0010
0000
0010
0100
,
0001
0001
0001
0001
,
0010
0100
0010
0100
1000
0000
1000
0001
,
0100
0100
0100
0100
,
0010
1000
0010
1000
0001
0000
0001
0010
,
0100
0100
0100
0100
,
0010
0001
0010
0001
1000
0000
0002
0000
,
0203
0302
0203
0302
,
1003
0100
1000
0001
0010
0001
0100
0001
1000
0010
1000
0001
,
1000
0100
1000
0001
0010
0001
0100
0001
1000
0100
0010
0001
,
1000
0010
1000
0001
0100
0001
0010
0001
1000
0100
1000
0001
,
4000
3200
2300
3200
,
1300
0010
1000
0001
0100
0001
0010
0001
1000
0100
1000
0001
,
1000
0010
1000
0001
0100
0001
0010
0100
1000
0010
0100
0001
,
1000
0010
1000
0001
0100
0001
0010
0001
1000
0002
0000
0000
,
0203
0302
0203
0302
,
1003
0100
1000
0001
0010
0001
0100
0001
1000
0010
1000
0001
,
1000
0100
1000
0001
0010
0001
0100
0001
1000
0100
0010
0001
,
1000
0010
1000
0001
0100
0001
0010
0001
1000
0100
1000
0001
,
1000
0001
0001
1000
,
0100
1000
0100
0000
0010
0000
0010
0001
,
0000
1000
0001
0000
0001
0000
0100
0000
,
0020
2030
3200
0310
,
0002
0203
0302
0203
,
0301
0010
0001
1000
0100
1000
0010
1000
0001
0100
0001
1000
,
0001
0010
0001
1000
0100
1000
0010
1000
0001
0010
0100
1000
,
0001
0100
0001
1000
0010
1000
0100
1000
0001
0010
0001
1000
,
0004
0023
0032
0023
,
0031
0100
0001
1000
0010
1000
0100
1000
0001
0010
0001
1000
,
0001
0100
0001
1000
0010
1000
0100
0010
0001
0100
0010
1000
,
0001
0100
0001
1000
0010
1000
0100
1000
0001
2000
0000
0000
,
3020
2030
3020
2030
,
3001
0010
0001
1000
0100
1000
0010
1000
0001
0100
0001
1000
,
0001
0010
0001
1000
0100
1000
0010
1000
0001
0010
0100
1000
,
0001
0100
0001
1000
0010
1000
0100
1000
0001
0010
0001
1000
,
0001
1000
1000
0001
,
0100
0001
0100
0000
0010
0000
1000
0001
,
1000
0000
0100
0000
0010
0001
0010
0000
,
0100
0000
1000
0001
1000
0000
0010
0000
,
0100
0001
0100
0000
0001
1000
0001
1000
,
0200
0000
0000
0000
,
0300
0000
0000
0000
;
