#TITLE:TroiaBASS (TrueStyle);
#SUBTITLE:MegaMan X8 OST;
#ARTIST:Akemi Kimura and Yuko Komiyama;
#TITLETRANSLIT:;
#SUBTITLETRANSLIT:;
#ARTISTTRANSLIT:Yuko Komiyama;
#CREDIT:;
#BANNER:troiabass(truestyle)-bn.png;
#BACKGROUND:troiabass(truestyle)-bg.png;
#LYRICSPATH:;
#CDTITLE:audioslave'srevenge-Blades of Fury-cdtitle.png;
#MUSIC:Troia Bass ~ Fowarding.mp3;
#OFFSET:-8.600;
#SAMPLESTART:52.414;
#SAMPLELENGTH:15.000;
#SELECTABLE:YES;
#BPMS:0.000=130.000,96.000=260.000,98.000=130.000,101.000=260.000,103.000=130.000,106.000=260.000,112.000=130.000,113.000=260.000,119.000=130.000,136.000=260.000,138.000=130.000,141.000=260.000,143.000=130.000,152.000=260.000,156.000=130.000;
#STOPS:170.000=0.460
;
#BGCHANGES:;
// cache tags:
#FIRSTBEAT:0.000;
#LASTBEAT:204.000;
#SONGFILENAME:Songs/toune 3/Troia Bass (TrueStyle)/BASS.sm;
#HASMUSIC:1;
#HASBANNER:1;
#MUSICLENGTH:104.811;
// end cache tags

//---------------dance-single - ----------------
#NOTES:
     dance-single:
     :
     Hard:
     8:
     0.491,0.511,0.000,0.191,0.210,340.000,0.000,20.000,0.000,0.000:
0010
0000
0000
0001
0000
0000
0100
0000
0000
1000
0010
0001
,
1000
0000
0000
0010
0000
0000
1000
0001
0010
0001
0000
0000
,
0001
1000
0010
0000
1000
0000
0100
0000
,
1000
0000
0000
0010
1000
0000
0001
0000
0100
0000
0001
0000
1000
0000
0200
0000
,
1300
0010
0001
1000
0100
0001
0100
0000
,
0010
1000
0001
0100
0001
1000
2000
3001
,
0100
0010
0100
0000
1000
0000
0100
0001
0100
0000
1000
0000
0010
1000
0000
0000
,
0001
1000
0001
0000
0100
0000
0001
1000
0001
0000
0010
0000
1000
0001
0000
0000
,
0100
0001
1000
0000
0010
1000
0010
0000
,
1000
0001
0100
1000
0001
0010
0001
0000
,
0010
0000
2000
0000
3001
0000
0200
0300
0001
0000
1000
0000
0001
1000
0000
0000
,
0010
0000
2000
0000
3010
0000
0002
0000
1003
0000
0100
0000
0001
0010
0000
0000
,
0010
1000
0001
0100
0001
1000
0001
0000
,
0010
1000
0010
0000
1000
0001
0100
0000
,
1000
0010
1000
0001
0100
0001
1000
0000
,
1000
0001
1000
0000
0001
1000
0010
0000
,
0010
1000
0100
0001
0010
1000
0100
0000
,
0100
0001
0100
0000
1000
0001
0100
1000
,
0010
1000
0100
0001
1000
0001
0010
0000
,
0010
1000
0001
1000
0100
1000
0010
0000
,
0010
0000
0001
0100
0001
0000
0000
1000
0010
0000
1000
0001
0100
0000
0000
0000
,
1000
0000
0001
0000
0010
0000
0000
0010
1000
0000
0001
0100
1000
0000
0000
0000
,
0010
0000
1000
0000
0100
0000
0000
0100
0001
0000
1000
0000
0001
0000
1000
0000
,
0010
0000
1000
0000
0001
0000
0000
0010
1000
0000
0001
0000
0100
0000
1000
0000
,
0020
0000
0000
0000
0000
0000
0000
0000
1030
0000
0000
0000
1000
0001
0100
0000
,
0010
0001
2000
0000
0000
0000
3010
0000
,
1000
0010
0001
0000
0100
0000
0001
0000
0200
0000
0000
0000
0000
0000
0000
0000
,
0301
2000
0000
0000
,
3010
1000
0002
0000
0000
0000
1003
0000
,
0020
0000
0000
0000
0000
0000
0130
1000
,
0002
0000
0003
1000
0010
0000
0001
0000
0100
0000
0001
0000
1000
0000
0000
0000
,
2000
0000
3000
0001
0100
0000
0010
0000
1000
0000
0001
0000
0100
0000
0000
0000
,
0010
0000
1000
0000
0001
0000
0000
0100
0001
0000
0100
0000
0001
0000
0000
0000
,
0001
0000
1000
0000
0100
0000
0000
0001
1000
0000
0010
0000
1000
0000
0001
0000
,
0200
0000
0000
0000
1300
0000
0010
1000
,
0001
2000
0000
3001
,
0100
0000
1000
0000
0001
0000
0000
0010
1000
0000
0001
0000
0100
0000
0000
0000
,
0002
0000
0000
0000
0013
0000
0000
0001
0200
0000
0000
0000
1300
0000
0000
0000
,
1000
0000
0010
0000
0100
0000
0010
1000
,
0001
1000
0100
0001
1000
0010
1000
0001
,
0001
1000
0010
1000
0001
0100
0001
1000
,
0010
1000
0010
0000
0001
0000
0100
0001
0100
0000
1000
0000
0010
1000
0000
0000
,
1000
0001
0100
0000
1000
0000
0010
0100
2000
0000
3000
0000
0010
0000
1000
0000
,
0001
0000
0000
1000
0000
0000
0001
0000
0000
0000
0000
0000
0010
0000
1000
0000
0001
0000
0100
0000
0000
0000
0000
0000
,
0100
0000
0000
1000
0000
0000
0010
0000
0000
0000
0000
0000
1000
0000
0001
0000
1000
0000
0100
0000
0000
0000
0000
0000
,
0000
0000
1000
0010
1000
0000
0000
0000
0001
0000
0100
0000
0001
0000
0000
0000
,
0010
1000
0010
1000
0001
0000
0100
0000
,
0001
0000
0000
0100
0000
0000
0010
1000
0001
0010
0000
0000
,
0001
0000
0000
0000
0000
0000
0000
0000
0000
0000
0000
0000
0100
0000
0000
0000
1000
0000
0000
0000
0001
0000
0000
0000
1000
0000
0000
0000
0000
0000
0000
0000
0000
0000
0000
0000
0000
0000
0000
0000
0000
0000
0100
0000
0000
0001
0000
0000
,
0100
0000
0000
0000
1000
0000
0000
0000
1000
0000
0000
0000
0010
1000
0010
0000
,
0100
0001
0010
0001
0100
1000
0020
0000
,
0030
0000
0000
0000
;
