#TITLE:A Gunshot To The Head of Trepidation (Full);
#SUBTITLE:By Nicholas Mihaila;
#ARTIST:Trivium;
#TITLETRANSLIT:;
#SUBTITLETRANSLIT:;
#ARTISTTRANSLIT:;
#CREDIT:;
#BANNER:Gunshot - Banner.jpg;
#BACKGROUND:Gunshot- Background.jpg;
#LYRICSPATH:;
#CDTITLE:cdtitle.gif;
#MUSIC:Trivium - A Gunshot To The Head of Trepidation.mp3;
#OFFSET:-0.100;
#SAMPLESTART:100.000;
#SAMPLELENGTH:12.000;
#SELECTABLE:YES;
#BPMS:0.000=117.000,320.000=144.980,677.000=145.040;
#STOPS:;
#BGCHANGES:;
// cache tags:
#FIRSTBEAT:0.000;
#LASTBEAT:778.000;
#SONGFILENAME:Songs/toune 6/Trivium - Gunshot (Full)/trivium gunshot short.sm;
#HASMUSIC:1;
#HASBANNER:1;
#MUSICLENGTH:355.377;
// end cache tags

//---------------dance-single - ----------------
#NOTES:
     dance-single:
     :
     Hard:
     12:
     0.921,1.000,0.737,0.839,0.792,1732.000,262.000,298.000,0.000,43.000:
2200
0000
0000
0000
0000
0000
0000
3300
,
0202
0000
0000
0000
0000
0000
0000
0303
,
0022
0000
0000
0000
0000
0000
0000
0033
,
0220
0000
0000
0000
0000
0000
0000
0330
,
2200
0000
0000
0000
0000
0000
0000
3300
,
0202
0000
0000
0000
0000
0000
0000
0303
,
2020
0000
0000
0000
0000
0000
0000
3030
,
2002
0000
0000
0000
0013
0000
0010
3000
,
1000
0100
1000
0100
1000
0100
1000
0000
0000
1000
0000
0000
0010
1000
0010
1000
0010
1000
0010
0000
0000
1000
0000
0000
,
0100
0001
0100
0001
0100
0001
0100
0000
0000
1000
0000
0000
0001
0010
0001
0010
0001
0010
0001
0010
0100
0001
0010
0100
,
1000
0100
1000
0100
1000
0100
1000
0000
0000
1000
0000
0000
0010
1000
0010
1000
0010
1000
0010
0000
0000
1000
0000
0000
,
0100
0001
0100
0001
0100
0001
0100
0000
0000
1000
0000
0000
0001
0010
0001
0010
0001
0010
0001
0010
0100
0001
0010
0100
,
1000
0100
1000
0100
1000
0100
1000
0000
0000
1000
0000
0000
0010
1000
0010
1000
0010
1000
0010
0000
0000
1000
0000
0000
,
0100
0001
0100
0001
0100
0001
0100
0000
0000
1000
0000
0000
0001
0010
0001
0010
0001
0010
0001
0010
0100
0001
0010
0100
,
1000
0100
1000
0100
1000
0100
1000
0000
0000
1000
0000
0000
0010
1000
0010
1000
0010
1000
0010
0000
0000
1000
0000
0000
,
0100
0000
0001
0000
0100
0000
0001
0000
0100
0000
0001
0000
0100
0000
0000
0000
0000
0000
1000
0000
0000
0100
0000
0000
0010
0000
0000
0001
0000
0000
0010
0000
0000
0001
0000
0000
1000
0000
0000
0100
0000
0000
0010
0000
0000
0000
0000
0000
,
1100
0010
0100
0001
1010
0010
0100
0001
,
1001
0010
0100
0001
1000
1000
0001
0001
,
1100
0010
0100
0001
1010
0010
0100
0001
,
1001
0000
0010
0000
0100
0000
0001
0000
1000
0000
1000
0000
0001
0010
0100
0001
,
2200
3300
0110
0000
2020
3030
0110
0000
,
2002
3003
0110
0000
1100
0011
1010
0101
,
2200
3300
0110
0000
2020
3030
0110
0000
,
2002
3003
0110
0000
1100
0011
1010
0101
,
1000
0100
1000
0100
1000
0100
1000
0000
0000
1000
0000
0000
0010
1000
0010
1000
0010
1000
0010
0000
0000
1000
0000
0000
,
0100
0001
0100
0001
0100
0001
0100
0000
0000
1000
0000
0000
0001
0010
0001
0010
0001
0010
0001
0010
0100
0001
0010
0100
,
1000
0100
1000
0100
1000
0100
1000
0000
0000
1000
0000
0000
0010
1000
0010
1000
0010
1000
0010
0000
0000
1000
0000
0000
,
0100
0000
0000
0000
0000
0000
0000
0000
0001
0000
0000
0000
0000
0000
0000
0000
0100
0000
0000
0000
0000
0000
0000
0000
0001
0000
0000
0000
0000
0000
0000
0000
0100
0000
0000
0000
0000
0000
0000
0000
0001
0000
0000
0000
0000
0000
0000
0000
0100
0000
0000
0000
0000
0000
0000
0000
0000
0000
0000
0000
0000
0000
0000
0000
0000
0000
0000
0000
0000
0000
0000
0000
1000
0000
0000
0000
0000
0000
0000
0000
0000
0000
0000
0000
0000
0000
0000
0000
0000
0000
0000
0000
0000
0000
0000
0000
0001
0000
0000
0000
0000
0000
0010
0000
0000
0000
0000
0000
0100
0000
0000
0000
0000
0000
0000
0000
0000
0000
0000
0000
0000
0000
0000
0000
0000
0000
0000
0000
0000
0000
0000
0000
0000
0000
0000
0000
0000
0000
0000
0000
0000
0000
0000
0000
0001
0000
0000
0000
0000
0000
0000
0000
0010
0000
0000
0000
0000
0000
0000
0000
0100
0000
0000
0000
0000
0000
0000
0000
0001
0000
0000
0000
0000
0000
0000
0000
0010
0000
0000
0000
0000
0000
0000
0000
0100
0000
0000
0000
0000
0000
0000
0000
,
1000
0100
1000
0100
1000
0100
1000
0000
0000
1000
0000
0000
0010
1000
0010
1000
0010
1000
0010
0000
0000
1000
0000
0000
,
0100
0001
0100
0001
0100
0001
0100
0000
0000
1000
0000
0000
0001
0010
0001
0010
0001
0010
0001
0010
0100
0001
0010
0100
,
1000
0100
1000
0100
1000
0100
1000
0000
0000
1000
0000
0000
0010
1000
0010
1000
0010
1000
0010
0000
0000
1000
0000
0000
,
0100
0000
0000
0000
0000
0000
0000
0000
0001
0000
0000
0000
0000
0000
0000
0000
0100
0000
0000
0000
0000
0000
0000
0000
0001
0000
0000
0000
0000
0000
0000
0000
0100
0000
0000
0000
0000
0000
0000
0000
0001
0000
0000
0000
0000
0000
0000
0000
0100
0000
0000
0000
0000
0000
0000
0000
0000
0000
0000
0000
0000
0000
0000
0000
0000
0000
0000
0000
0000
0000
0000
0000
1000
0000
0000
0000
0000
0000
0000
0000
0000
0000
0000
0000
0010
0000
0000
0000
0000
0000
0100
0000
0000
0000
0000
0000
1000
0000
0000
0000
0000
0000
0000
0000
0000
0000
0000
0000
0010
0000
0000
0000
0000
0000
0000
0000
0000
0000
0000
0000
1000
0000
0000
0000
0000
0000
0000
0000
0000
0000
0000
0000
0001
0000
0000
0000
0000
0000
0010
0000
0000
0000
0000
0000
0100
0000
0000
0000
0000
0000
0000
0000
0000
0000
0000
0000
0001
0000
0000
0000
0000
0000
0000
0000
0000
0000
0000
0000
0100
0000
0000
0000
0000
0000
0000
0000
0000
0000
0000
0000
0010
0000
0000
0000
0000
0000
0000
0000
0000
0000
0000
0000
,
1100
0010
0100
0001
1010
0010
0100
0001
,
1001
0010
0100
0001
1000
1000
0001
0001
,
1100
0010
0100
0001
1010
0010
0100
0001
,
1001
0000
0010
0000
0100
0000
0001
0000
1000
0000
1000
0000
0001
0010
0100
0001
,
2200
3300
0110
0000
2020
3030
0110
0000
,
2002
3003
0110
0000
1100
0011
1010
0101
,
2200
3300
0110
0000
2020
3030
0110
0000
,
2002
3003
0110
0000
1100
0011
1010
0101
,
1100
0000
0000
0001
0010
0100
1000
0000
0000
0020
0000
0000
0030
0000
0000
1000
0000
0000
0020
0000
0000
0131
0000
0000
,
1100
0000
0000
0001
0010
0100
1000
0000
0000
0002
0000
0000
0003
0000
0000
0100
0000
0000
0010
0000
0000
0101
0000
0000
,
1100
0000
0000
0001
0010
0100
1000
0000
0000
0020
0000
0000
0030
0000
0000
1000
0000
0000
0020
0000
0000
0030
0000
0000
,
0001
0010
0100
1000
0100
0010
0001
0010
0100
1000
0100
0010
0001
0100
0010
1000
0010
0100
0001
0100
0010
1000
0010
0100
,
1001
0000
0000
1000
0010
0100
0001
0000
0000
2000
0000
0000
3000
0000
0000
0010
0000
0000
2000
0000
0000
3011
0000
0000
,
1001
0000
0000
1000
0010
0100
0001
0000
0000
0020
0000
0000
0030
0000
0000
1000
0000
0000
0100
0000
0000
0011
0000
0000
,
1001
0000
0000
1000
0010
0100
0001
0000
0000
2000
0000
0000
3000
0000
0000
0010
0000
0000
2000
0000
0000
3000
0000
0000
,
1000
0100
0001
0010
1000
0100
0001
0010
1000
0100
0001
0010
1000
0100
0010
0001
0100
0010
1000
0100
0010
0001
0100
0010
,
1000
0100
1000
0100
1000
0100
1000
0000
0000
1000
0000
0000
0010
1000
0010
1000
0010
1000
0010
0000
0000
1000
0000
0000
,
0100
0001
0100
0001
0100
0001
0100
0000
0000
1000
0000
0000
0001
0010
0001
0010
0001
0010
0001
0010
0100
0001
0010
0100
,
1000
0100
1000
0100
1000
0100
1000
0000
0000
1000
0000
0000
0010
1000
0010
1000
0010
1000
0010
0000
0000
1000
0000
0000
,
0100
0001
0100
0001
0100
0001
0100
0000
0000
1000
0000
0000
0001
0010
0001
0010
0001
0010
0001
0010
0100
0001
0010
0100
,
1000
0100
1000
0100
1000
0100
1000
0000
0000
1000
0000
0000
0010
1000
0010
1000
0010
1000
0010
0000
0000
1000
0000
0000
,
0100
0001
0100
0001
0100
0001
0100
0000
0000
1000
0000
0000
0001
0010
0001
0010
0001
0010
0001
0010
0100
0001
0010
0100
,
1000
0000
0000
0000
0000
0000
0000
0000
0100
0000
0000
0000
0000
0000
0000
0000
1000
0000
0000
0000
0000
0000
0000
0000
0100
0000
0000
0000
0000
0000
0000
0000
1000
0000
0000
0000
0000
0000
0000
0000
0100
0000
0000
0000
0000
0000
0000
0000
1000
0000
0000
0000
0000
0000
0000
0000
0000
0000
0000
0000
0000
0000
0000
0000
0000
0000
0000
0000
0000
0000
0000
0000
1000
0000
0000
0000
0000
0000
0000
0000
0000
0000
0000
0000
0000
0000
0000
0000
0000
0000
0000
0000
0000
0000
0000
0000
0010
0000
0000
0000
0000
0000
0000
0000
1000
0000
0000
0000
0000
0000
0000
0000
0010
0000
0000
0000
0000
0000
0000
0000
1000
0000
0000
0000
0000
0000
0000
0000
0010
0000
0000
0000
0000
0000
0000
0000
1000
0000
0000
0000
0000
0000
0000
0000
0010
0000
0000
0000
0000
0000
0000
0000
0000
0000
0000
0000
0000
0000
0000
0000
0000
0000
0000
0000
0000
0000
0000
0000
1000
0000
0000
0000
0000
0000
0000
0000
0000
0000
0000
0000
0010
0000
0000
0000
0000
0000
0100
0000
0000
0000
0000
0000
,
1000
0000
0010
0000
1000
0000
0001
0010
0100
0000
0001
0000
1010
0000
1010
0000
0100
0000
0001
0000
1010
0000
1010
0000
0100
0000
0010
0000
0100
0000
0000
0000
,
1100
0010
0100
0001
1010
0010
0100
0001
,
1001
0010
0100
0001
1000
1000
0001
0001
,
1100
0010
0100
0001
1010
0010
0100
0001
,
1001
0000
0010
0000
0100
0000
0001
0000
1000
0000
1000
0000
0001
0010
0100
0001
,
2200
3300
0110
0000
2020
3030
0110
0000
,
2002
3003
0110
0000
1100
0011
1010
0101
,
2200
3300
0110
0000
2020
3030
0110
0000
,
2002
3003
0110
0000
1100
0011
1010
0101
,
1100
0000
0000
0001
0010
0100
1000
0000
0000
0020
0000
0000
0030
0000
0000
1000
0000
0000
0020
0000
0000
0131
0000
0000
,
1100
0000
0000
0001
0010
0100
1000
0000
0000
0002
0000
0000
0003
0000
0000
0100
0000
0000
0010
0000
0000
0101
0000
0000
,
1100
0000
0000
0001
0010
0100
1000
0000
0000
0020
0000
0000
0030
0000
0000
1000
0000
0000
0020
0000
0000
0030
0000
0000
,
0001
0010
0100
1000
0100
0010
0001
0010
0100
1000
0100
0010
0001
0100
0010
1000
0010
0100
0001
0100
0010
1000
0010
0100
,
1001
0000
0000
1000
0010
0100
0001
0000
0000
2000
0000
0000
3000
0000
0000
0010
0000
0000
2000
0000
0000
3011
0000
0000
,
1001
0000
0000
1000
0010
0100
0001
0000
0000
0020
0000
0000
0030
0000
0000
1000
0000
0000
0100
0000
0000
0011
0000
0000
,
1001
0000
0000
1000
0010
0100
0001
0000
0000
2000
0000
0000
3000
0000
0000
0010
0000
0000
2000
0000
0000
3000
0000
0000
,
1000
0100
0001
0010
1000
0100
0001
0010
1000
0100
0001
0010
1000
0100
0010
0001
0100
0010
1000
0100
0010
0001
0100
0010
,
1100
0000
0000
0001
0010
0100
1000
0000
0000
0020
0000
0000
0030
0000
0000
1000
0000
0000
0020
0000
0000
0131
0000
0000
,
1100
0000
0000
0001
0010
0100
1000
0000
0000
0002
0000
0000
0003
0000
0000
0100
0000
0000
0010
0000
0000
0101
0000
0000
,
1100
0000
0000
0001
0010
0100
1000
0000
0000
0200
0000
0000
0000
0000
0000
0000
0000
0000
0000
0000
0000
0300
0000
0000
,
0001
0010
0100
1000
0100
0010
0001
0010
0100
1000
0100
0010
0001
0100
0010
1000
0010
0100
0001
0100
0010
1000
0010
0100
,
1001
0000
0000
1000
0010
0100
0001
0000
0000
2000
0000
0000
3000
0000
0000
0010
0000
0000
2000
0000
0000
3011
0000
0000
,
1001
0000
0000
1000
0010
0100
0001
0000
0000
0020
0000
0000
0030
0000
0000
1000
0000
0000
0100
0000
0000
0011
0000
0000
,
1001
0000
0000
1000
0010
0100
0001
0000
0000
2000
0000
0000
3000
0000
0000
0010
0000
0000
2000
0000
0000
3000
0000
0000
,
1000
0100
0001
0010
1000
0100
0001
0010
1000
0100
0001
0010
1000
0100
0010
0001
0100
0010
1000
0100
0010
0001
0100
0010
,
2200
0000
3301
2020
0000
3030
0001
0220
,
0000
0331
0010
0100
1000
0100
0010
0001
,
2200
0000
3301
2020
0000
3030
0001
0022
,
0000
0000
0000
0000
0000
0000
0130
0000
0000
0000
0000
0000
1000
0000
0000
0000
0000
0000
0103
0000
0010
0000
0100
0000
0010
0000
0100
0000
0010
0000
0100
0000
0000
0010
0000
0000
0001
0000
0000
0010
0000
0000
0100
0000
0000
0010
0000
0000
,
2200
0000
3301
2020
0000
3030
0001
0220
,
0000
0331
0010
0100
1000
0100
0010
0001
,
2200
0000
3301
2020
0000
3030
0001
0022
,
0000
0000
1033
0100
0010
0000
0001
0010
0100
0000
1000
0100
0010
0001
0010
0100
,
2020
0000
3030
0022
0000
0033
0000
0220
,
0000
0331
0100
0010
1000
0010
0100
0001
,
2020
0000
3030
0022
0000
0033
0000
2200
,
0000
0310
0002
0000
3013
0100
1000
0001
,
2020
0000
3030
0022
0000
0033
0000
0220
,
0000
0331
0100
0010
1000
0010
0100
0001
,
2020
0000
3030
0022
0000
0033
0000
2200
,
0000
0310
0002
0000
3013
0100
1000
0001
,
1100
0000
0010
0010
1000
0000
0000
0000
1000
0000
0000
0000
0100
0000
0002
0000
,
0000
0000
0013
0010
1000
0000
0000
0000
1010
0000
0101
0000
1001
0000
1100
0000
,
0000
0000
0010
0010
1000
0000
0000
0000
1000
0000
0000
0000
0100
0000
0002
0000
,
0000
0000
0013
0010
1000
0000
0000
0000
1010
0000
0101
0000
1001
0000
1100
0000
,
0000
0000
0010
0010
1000
0000
0000
0000
1000
0000
0000
0000
0100
0000
0002
0000
,
0000
0000
0013
0010
1000
0000
0000
0000
1010
0000
0101
0000
1001
0000
0020
0000
,
0000
0032
0003
0200
0000
0302
0003
2000
,
0000
3002
0003
0110
1010
0101
1001
1100
,
0001
0000
0000
0010
0000
0000
0100
0000
0000
1000
0000
0000
0001
0000
0000
0100
0000
0000
0010
0000
0000
1000
0000
0000
0100
0000
0000
0010
0000
0000
0001
0000
0000
1000
0000
0000
0100
0000
0000
0010
0000
0000
0001
0000
1000
0000
0001
0000
,
1000
0000
0001
0000
0000
0000
0010
0000
0000
0000
0000
0000
0002
0000
0000
0000
0000
0000
0203
0000
0000
0000
0000
0000
0301
0000
0010
0000
0100
0000
2000
0000
0000
0000
0000
0000
0000
0000
0000
0000
0000
0000
0000
0000
0000
3000
0000
0000
,
0001
0010
0100
1000
0010
0100
0001
0010
0100
1000
0010
0100
0001
1000
0010
0100
0010
1000
0001
0010
0100
1000
0010
0100
,
0010
0001
1000
0010
0100
0001
0010
0001
1000
0010
0100
0001
1000
0100
0010
0001
0010
0100
0010
0001
0010
1000
0100
0010
,
0001
0010
0100
0010
0001
0010
1000
0100
0010
0001
0010
0100
0010
0001
0010
0100
1000
0100
0010
0001
0010
0100
0010
0001
,
0010
0100
1000
0100
0010
0001
0010
0100
0010
0001
0010
0100
2000
0000
0000
0000
0000
0000
3000
0000
0000
0200
0000
0000
,
0000
0300
0200
0000
0000
0300
0200
0000
0000
0300
1000
0000
0100
0000
0020
0000
,
0000
0000
0030
0000
0020
0000
0000
0000
0000
0000
0000
0030
0000
0020
0000
0000
0000
0000
0000
0000
0000
0000
0000
0000
0000
0000
0030
0000
0202
0000
0000
0000
,
0000
0303
1000
0000
0100
0000
2000
0000
0000
0000
0000
0000
3000
0000
0202
0000
,
0000
0303
1000
0000
0100
0000
0002
0000
0000
0000
0000
0000
0003
0000
0220
0000
,
0000
0330
1000
0000
0100
0000
0020
0000
0000
0000
0031
0000
0100
0000
0002
0000
,
0000
0000
0013
0100
1000
0000
0010
0000
0200
0000
0000
0000
0000
0000
1300
0000
,
0010
0100
1000
0001
0010
0100
0001
1000
0001
1000
0010
0100
0010
0001
1000
0100
,
1000
0100
0001
0000
0010
0000
2000
0000
0000
0000
3001
0000
0010
0000
0200
0000
,
0000
0300
2002
3003
2002
3003
2002
3003
,
2002
3003
2002
3003
2002
3103
0001
0010
,
0010
0100
0010
2000
0000
3100
0001
0100
,
0100
1000
0100
0020
0000
0130
0001
1000
,
1000
0001
1000
0002
0000
0103
0001
2000
,
0000
3001
0010
0200
0020
0000
0000
0330
,
0001
0010
0100
0001
0010
0100
0010
0100
1000
0010
0100
1000
0100
1000
0001
0100
1000
0001
1000
0001
0010
1000
0001
0010
,
0001
0010
0100
1000
0010
0100
1000
0001
0100
1000
0001
0010
1000
0001
0010
0100
,
0001
0010
0100
1000
0011
0000
0010
0000
0001
0000
0001
0000
0110
0000
0100
0000
,
0010
0010
1100
0100
0100
0100
0001
0020
,
1000
0000
1000
0030
0100
0000
2000
0000
0000
3000
0100
0000
0010
0000
0002
0000
,
0000
0000
0000
0003
0000
0000
1000
0000
0000
0000
0000
0000
0010
0000
0000
0000
0000
0000
0100
0000
0000
0000
0000
0000
0001
0000
0000
0000
0000
0000
1000
0000
0100
0000
0010
0000
0001
0000
0000
0000
0000
0000
1000
0000
0000
0000
0000
0000
,
0001
0000
0010
0000
0100
0000
2000
0000
0000
3000
0100
0000
0010
0000
0002
0000
,
0000
0003
0010
0000
0100
0000
0020
0000
0000
0030
0100
0000
0002
0000
0000
0003
,
1000
0000
1000
0000
0100
0000
2000
0000
0000
3000
0100
0000
0010
0000
0002
0000
,
0000
0000
0000
0003
0000
0000
1000
0000
0000
0000
0000
0000
0010
0000
0000
0000
0000
0000
0100
0000
0000
0000
0000
0000
0001
0000
0000
0000
0000
0000
1000
0000
0100
0000
0010
0000
0001
0000
0000
0000
0000
0000
1000
0000
0000
0000
0000
0000
,
0020
1030
0100
0020
1030
0100
0020
0032
,
0023
0000
1030
0100
0010
0000
0001
0010
0100
0000
1000
0100
0010
0001
0010
0100
,
1000
0000
0100
0000
0010
0000
0002
0000
0000
0003
0100
0000
0010
0000
2000
0000
,
0000
0000
0200
0000
0000
0000
0000
0000
0000
0000
3301
0010
0001
0000
0100
0000
,
0010
0000
1000
0000
0100
0000
0020
0000
0000
0030
0001
0000
0010
0000
0200
0000
,
0000
0000
0300
1000
0001
0000
0000
0000
0100
0000
0010
0000
0001
0000
0000
0000
,
1000
0000
0100
0000
0010
0000
0002
0000
0000
0003
0100
0000
0010
0000
2000
0000
,
0000
0200
0000
0000
0000
3300
0001
0100
,
0010
0000
1000
0000
0100
0000
0020
0000
0000
0030
0001
0000
0010
0000
0200
0000
,
0000
0000
0301
0010
0100
0000
1000
0100
0010
0000
0001
0010
0100
1000
0100
0010
,
0001
0010
0100
1000
0001
0100
0010
1000
0001
0100
0010
1000
0001
0010
0100
1000
,
0101
0101
0000
0101
0101
0000
0101
0000
,
1000
0100
0010
0001
1000
0100
0010
0001
1000
0010
0100
0001
1000
0100
0010
0001
,
1100
1100
0000
1100
1100
0000
1100
0000
,
0001
0010
0100
1000
0001
0100
0010
1000
0001
0010
0100
1000
0001
0100
0010
1000
,
0101
0101
0000
0101
0101
0000
0101
0000
,
1000
0100
0010
0001
1000
0100
0010
0001
1000
0100
0010
0001
1000
0100
0010
0001
,
1100
1100
0000
1100
1100
0000
1100
0000
,
0001
0010
0100
1000
0010
0100
1000
0001
0100
1000
0001
0010
1000
0001
0010
0100
,
0002
0000
1003
0020
0000
1030
0200
0000
,
0010
1310
0010
1010
,
0010
0000
1010
0000
0010
0000
1010
0100
,
2000
0000
0000
0000
3001
0000
0200
0000
0000
0000
0000
0300
0001
0000
0020
0000
,
0000
0000
0000
0030
0101
0000
0000
0000
0100
0000
0000
0000
0101
0000
0000
0000
,
0100
0101
0100
0101
,
0100
0000
0101
0000
0100
0000
0101
0100
,
2000
0000
0000
0000
3001
0000
0200
0000
0000
0000
0000
0300
0001
0000
0020
0000
,
0000
0000
0000
0030
1100
0000
0000
0000
0100
0000
0000
0000
1100
0000
0000
0000
,
0100
1100
0100
1100
,
0100
0000
1100
0000
0100
0000
1100
0100
,
2000
0000
0000
0000
3001
0000
0200
0000
0000
0000
0000
0300
0001
0000
0020
0000
,
0000
0000
0000
0030
0011
0000
0000
0000
0010
0000
0000
0000
0011
0000
0000
0000
,
0010
0011
0010
0011
,
0010
0000
0011
0000
0010
0000
0011
0100
,
2000
0000
0000
0000
3001
0000
0200
0000
0000
0000
0000
0300
0001
0000
0020
0000
,
0000
0000
0000
0030
1001
0000
1001
0000
1001
0000
1001
0000
1001
0000
1001
0000
,
1001
1001
1001
1001
2001
3010
0200
0300
,
2002
0000
3013
0202
0000
0303
0010
2200
,
0000
0000
0000
0000
0000
0000
3310
0000
0000
0000
0000
0000
0001
0000
0000
0000
0000
0000
0100
0000
0010
0000
0100
0000
0010
0000
0100
0000
0010
0000
0100
0000
0000
0010
0000
0000
0001
0000
0000
0010
0000
0000
0100
0000
0000
0010
0000
0000
,
2002
0000
3013
0202
0000
0303
0001
0022
,
0000
0130
2000
0000
3103
0010
0001
1000
,
2002
0000
3013
0202
0000
0303
0001
2200
,
0000
3310
0001
0100
1000
0010
0001
0100
,
2002
0000
3013
0202
0000
0303
0001
0022
,
0000
0000
1033
0100
0010
0000
0001
0010
0100
0000
1000
0100
0010
0001
0010
0100
,
2020
0000
3030
0202
0000
0303
0000
0220
,
0000
0331
0010
0100
1000
0100
0010
0001
,
2020
0000
3030
0202
0000
0303
0000
2200
,
0000
0310
0002
0000
3013
0100
1000
0001
,
2020
0000
3030
0202
0000
0303
0000
0220
,
0000
0331
0010
0100
1000
0100
0010
0001
,
2020
0000
3030
0202
0000
0303
0000
2200
,
0000
0000
0310
0000
0001
0000
0010
0000
3100
0000
0001
0010
0100
1000
0100
0010
,
0022
0000
0033
2200
0000
3300
0000
0202
,
0000
1303
0010
0100
0001
0100
0010
1000
,
0022
0000
0033
2200
0000
3300
0000
2020
,
0000
0031
0200
0000
3310
0100
1000
0001
,
0022
0000
0033
2200
0000
3300
0000
0202
,
0000
1303
0010
0100
0001
0100
0010
1000
,
0022
0000
0033
2200
0000
3300
0000
2020
,
0000
0031
0200
0000
3300
0000
0000
0000
;
