#TITLE:Creation;
#SUBTITLE:;
#ARTIST:MGD Assault Force;
#TITLETRANSLIT:;
#SUBTITLETRANSLIT:;
#ARTISTTRANSLIT:;
#CREDIT:;
#BANNER:../banner.png;
#BACKGROUND:../bg.png;
#LYRICSPATH:;
#CDTITLE:;
#MUSIC:creation.ogg;
#OFFSET:0.013;
#SAMPLESTART:22.747;
#SAMPLELENGTH:20.420;
#SELECTABLE:YES;
#BPMS:0.000=190.021;
#STOPS:;
#BGCHANGES:;
// cache tags:
#FIRSTBEAT:16.000;
#LASTBEAT:283.000;
#SONGFILENAME:Songs/Cirque du Lykan/Creation - [Zaia]/creation.sm;
#HASMUSIC:1;
#HASBANNER:1;
#MUSICLENGTH:92.168;
// end cache tags

//---------------dance-single - Zaia - 14(high)----------------
#NOTES:
     dance-single:
     Zaia - 14(high):
     Challenge:
     14:
     1.000,1.000,0.130,0.000,1.000,881.000,12.000,0.000,0.000,0.000:
0000
0000
0000
0000
,
0000
0000
0000
0000
,
0000
0000
0000
0000
,
0000
0000
0000
0000
,
1000
0000
0010
0100
0000
0001
0000
0010
,
0100
0000
1000
0000
0001
0000
0100
0010
0100
0001
1000
0000
0100
0000
0010
0000
,
0001
0000
1000
0100
0000
1000
0000
0010
,
0100
0000
0001
0000
1000
0000
0001
0010
0001
1000
0001
0000
0100
0000
0010
0000
,
1000
0000
0000
0000
0100
0000
0010
0000
0001
0010
0001
0000
1000
0010
1000
0000
,
0001
0000
0100
0000
0010
0000
1000
0000
0100
1000
0100
0000
1000
0001
1000
0000
,
0010
0000
0100
0000
0001
0000
0010
0000
0100
0010
0100
0000
1000
0001
1000
0000
,
0010
0000
0100
0000
0001
0000
1000
0000
0001
0100
0001
0000
1000
0001
0010
0000
,
0110
0100
1000
0010
0110
0100
0001
0010
,
0011
0001
1000
0010
1010
1000
0001
0100
,
0101
1001
1100
0110
,
0011
0001
1000
0001
1000
0001
1000
0001
,
1000
0010
0100
0001
1000
0010
1000
0001
0010
0100
1000
0001
1000
0010
0100
0010
,
1000
0000
0001
0000
0010
0000
0100
1000
0001
1000
0100
0000
0010
0000
0000
0000
,
0001
0100
0010
0100
0001
1000
0100
1000
0001
0010
0100
1000
0010
0100
0001
0010
,
0100
1000
0001
0100
0010
0100
0001
1000
0100
0010
0100
1000
0001
1000
0010
0100
,
0001
0100
0001
1000
0100
0010
0100
1000
0001
1000
0010
0100
0010
1000
0100
0010
,
0001
1000
0010
1000
0001
0010
0100
1000
0001
0100
0010
1000
0001
1000
0100
1000
,
0010
0100
0010
1000
0001
0010
0001
1000
0100
0010
0001
0100
0010
1000
0100
0010
,
0001
1000
0010
0100
0010
1000
0001
0010
0100
0010
0001
1000
0001
0100
0010
1000
,
0010
1000
0001
0010
0100
0010
0001
1000
0001
0100
0010
0100
0001
0010
0100
1000
,
0001
0100
0001
1000
0100
0010
0001
1000
0010
0100
0001
1000
0100
0010
0100
1000
,
0010
1000
0100
0010
0001
1000
0001
0100
0001
1000
0010
0100
0001
0010
0100
1000
,
0010
0100
0001
1000
0100
0010
0100
1000
0001
0100
0010
0100
0001
1000
0001
0010
,
0100
1000
0100
1000
0001
0100
0010
0100
0001
1000
0001
0010
0100
0010
0001
0100
,
0010
1000
0001
0010
0001
1000
0010
0100
0001
1000
0100
0010
0001
1000
0001
0100
,
0001
0010
0100
0010
0001
1000
0010
1000
0001
0100
0010
1000
0100
0010
0001
0100
,
0010
1000
0001
0010
0100
0010
0001
1000
0010
0100
0010
1000
0001
1000
0100
0010
,
0001
1000
0001
1000
0010
0100
0001
0010
0100
1000
0100
1000
0010
0100
0001
0010
,
0100
1000
0001
0100
0001
1000
0100
0010
0001
1000
0010
1000
0001
0000
0010
0000
,
0100
1000
0001
1000
0100
0010
0001
0010
0100
1000
0010
1000
0001
0100
0010
0100
,
0001
0000
0100
0000
0010
0000
1000
0100
0010
0000
0001
0000
0100
0000
0001
0000
,
0010
0100
1000
0010
0100
0001
1000
0100
,
1000
0000
0001
0000
0100
0000
0010
1000
0001
0000
0010
0000
0100
0000
1000
0000
,
0001
0000
0100
0000
0010
0000
1000
0100
0010
0001
1000
0010
0100
0000
0001
0000
,
1001
0000
1000
0000
0100
0000
0010
0100
1000
0000
0001
0000
0100
0000
0001
0000
,
0010
0100
1000
0010
0100
0001
1000
0100
,
1000
0000
0010
0000
1000
0000
0001
0010
0100
0000
1000
0000
0010
0000
0100
0010
,
1000
0001
1000
0000
0100
0000
0010
0100
1000
0001
0100
0010
1000
0000
0001
0000
,
0010
0100
1000
0001
0100
0010
0100
0001
1000
0010
0100
0001
1000
0001
0010
0100
,
1000
0001
1000
0010
0100
0001
1000
0100
1000
0001
0100
0001
1000
0100
0010
0001
,
1000
0010
1000
0001
0010
0001
1000
0100
0010
0001
1000
0010
0100
0010
1000
0001
,
0010
0100
1000
0001
1000
0010
1000
0001
0010
0100
0010
0001
1000
0010
0100
0001
,
1000
0100
1000
0100
0010
0100
1000
0001
0100
0010
0100
0001
1000
0100
1000
0001
,
0100
0010
1000
0001
1000
0001
0010
0100
0010
0001
1000
0010
0100
0001
1000
0001
,
0010
0001
1000
0100
1000
0001
0100
0010
1000
0001
0010
0100
1000
0001
0100
0001
,
0100
0010
0100
0001
1000
0100
0010
0100
1000
0001
0010
0100
1000
0001
1000
0001
,
1000
0010
1000
0100
1000
0001
0010
0001
0100
0001
1000
0001
0010
0100
1000
0001
,
0100
0010
1000
0001
1000
0100
1000
0001
0100
0001
1000
0001
0010
0100
1000
0001
,
1000
0010
0100
0001
1000
0100
1000
0001
0010
0001
1000
0010
0100
0001
1000
0100
,
0010
0001
1000
0001
1000
0010
0100
0010
1000
0001
1000
0100
0010
0001
0100
0001
,
1000
0100
1000
0010
1000
0001
0100
0001
0010
0001
1000
0001
0100
0010
1000
0001
,
0010
0100
1000
0001
1000
0010
1000
0001
0010
0001
1000
0001
0100
0010
1000
0001
,
1000
0100
0010
0001
1000
0010
1000
0001
0100
0001
1000
0100
0010
0001
1000
0010
,
0100
0001
0000
1000
0100
0000
0011
0000
,
0010
0001
1000
0001
1000
0010
0100
0001
1000
0100
0010
0001
0100
0010
1000
0100
,
0010
0001
1000
0010
0100
0010
1000
0001
0010
0100
0010
0001
1000
0001
0100
0010
,
1000
0010
1000
0001
0010
0100
0010
0001
1000
0001
0100
0010
0100
0001
0010
0100
,
1000
0001
0100
0001
1000
0100
0010
0001
1000
0010
0100
0001
1000
0001
0010
0001
,
0100
0010
0100
0001
1000
0100
1000
0001
0010
0100
1000
0010
0100
0001
0010
0100
,
1000
0001
0100
0010
0100
0001
1000
0100
0010
0100
1000
0001
1000
0010
0100
0001
,
0100
0010
0100
0001
0010
0100
1000
0001
1000
0010
1000
0001
0010
0100
1000
0010
,
0100
0001
1000
0001
1000
0100
0010
0001
1000
0010
0100
0001
0010
0100
1000
0001
,
0100
0000
0001
1000
0001
0000
1000
0100
1000
0000
0001
0100
0001
0000
1000
0010
,
1000
0001
0010
0100
0010
0100
0010
0100
,
0010
0100
1000
0001
0100
0000
0010
1000
0001
1000
0100
0000
1000
0001
1000
0001
,
0010
0100
1000
0010
0100
0000
1001
0000
;

//---------------dance-single - Zaia - 12(mid)----------------
#NOTES:
     dance-single:
     Zaia - 12(mid):
     Hard:
     12:
     1.000,1.000,0.315,0.000,0.868,668.000,29.000,0.000,0.000,0.000:
0000
0000
0000
0000
,
0000
0000
0000
0000
,
0000
0000
0000
0000
,
0000
0000
0000
0000
,
1000
0000
0010
0100
0000
0001
0000
0010
,
0100
0000
1000
0000
0001
0000
0100
0010
0100
0001
1000
0000
0100
0000
0010
0000
,
0001
0000
1000
0100
0000
1000
0000
0010
,
0100
0000
0001
0000
1000
0000
0001
0010
0001
1000
0001
0000
0100
0000
0010
0000
,
1000
0000
0000
0000
0100
0000
0010
0000
0001
0010
0001
0000
1000
0010
1000
0000
,
0001
0000
0100
0000
0010
0000
1000
0000
0100
1000
0100
0000
1000
0001
1000
0000
,
0010
0000
0100
0000
0001
0000
0010
0000
0100
0010
0100
0000
1000
0001
1000
0000
,
0010
0000
0100
0000
0001
0000
1000
0000
0001
0100
0001
0000
1000
0001
0010
0000
,
0110
0100
1000
0010
0110
0100
0001
0010
,
0011
0001
1000
0010
1010
1000
0001
0100
,
0101
1001
1100
0110
,
0011
0001
1000
0001
1000
0001
1000
0001
,
1000
0010
0100
0001
1000
0010
1000
0001
0010
0100
1000
0001
1000
0010
0100
0010
,
1000
0000
0001
0000
0010
0000
0100
1000
0001
1000
0100
0000
0010
0000
0000
0000
,
0001
0000
0100
0000
0010
0000
1000
0000
0100
0000
0010
0000
0001
0100
0010
1000
,
0001
0010
0001
1000
0010
0100
0001
1000
,
0100
0000
0010
0000
0001
0000
0100
0000
0010
0000
1000
0000
0001
0010
0100
1000
,
0001
0100
0001
0010
0001
1000
0100
1000
,
1010
0000
0010
0000
1000
0000
0001
0000
0010
0000
0100
0000
1000
0001
0100
0010
,
1000
0001
0010
0001
1000
0100
1000
0001
,
0100
0000
0010
0000
1000
0000
0100
0000
0010
0000
0001
0000
1000
0001
0010
0100
,
1000
0001
0100
0010
1000
0001
0010
0100
,
0110
0000
0010
0000
0100
0000
1000
0000
0010
0000
0100
0000
0010
1000
0100
1000
,
0001
0100
0001
1000
0100
0010
0001
1000
,
0010
0000
0100
0000
0001
0000
0010
0000
0100
0000
1000
0000
0100
1000
0010
1000
,
0001
0010
0001
0100
0001
1000
0010
1000
,
1100
0000
0100
0000
1000
0000
0001
0000
0100
0000
0010
0000
0100
0001
0010
0100
,
1000
0001
0100
0001
1000
0010
1000
0001
,
0010
0100
1100
1000
0001
0100
0101
0001
,
1000
1100
1001
0011
,
0010
0001
1000
0001
0010
0100
1000
0100
0010
0001
0100
0001
1000
0010
0100
0010
,
1000
0000
0010
0000
0100
0000
0001
0010
0100
0000
1000
0000
0010
0000
1000
0000
,
0100
0010
0001
0100
0010
1000
0001
0010
,
0001
0000
1000
0000
0010
0000
0100
0001
1000
0000
0100
0000
0010
0000
0001
0000
,
1000
0000
0010
0000
0100
0000
0001
0010
0100
1000
0001
0100
0010
0000
1000
0000
,
1001
0000
0001
0000
0010
0000
0100
0010
0001
0000
1000
0000
0010
0000
1000
0000
,
0100
0010
0001
0100
0010
1000
0001
0010
,
0001
0000
0100
0000
0001
0000
1000
0100
0010
0000
0001
0000
0100
0000
0010
0100
,
0001
1000
0001
0000
0010
0000
0100
0010
0001
1000
0010
0100
0001
0000
1000
0000
,
0100
0010
0001
1000
0010
0100
0010
1000
0001
0100
0010
1000
0001
1000
0100
0010
,
0001
1000
0001
0100
0010
1000
0001
0010
0001
1000
0010
1000
0001
0010
0100
1000
,
0001
0100
0001
1000
0100
1000
0001
0010
0100
1000
0001
0100
0010
0100
0001
1000
,
0100
0010
0001
1000
0001
0100
0001
1000
0100
0010
0100
1000
0001
0100
0010
1000
,
0001
0100
0001
0010
0100
1000
0010
1000
,
0001
1000
0100
0010
0100
1000
0001
0100
,
0010
0100
0001
0010
0001
1000
0010
1000
,
0001
0101
0000
1100
0000
0101
0000
1000
,
0001
0100
0001
0010
0001
1000
0100
1000
0010
1000
0001
1000
0100
0010
0001
1000
,
0010
0100
0001
1000
0001
0010
0001
1000
0010
1000
0001
1000
0100
0010
0001
1000
,
0001
0100
0010
1000
0001
0010
0001
1000
0100
1000
0001
0100
0010
1000
0001
0010
,
0100
1000
0001
1000
0001
0100
0010
0100
0001
1000
0001
0010
0100
1000
0010
1000
,
0001
0010
0001
0100
0001
1000
0010
1000
0100
1000
0001
1000
0010
0100
0001
1000
,
0100
0010
0001
1000
0001
0100
0001
1000
0100
1000
0001
1000
0010
0100
0001
1000
,
0001
0010
0100
1000
0001
0100
0001
1000
0010
1000
0001
0010
0100
1000
0001
0100
,
0010
1000
0000
0001
0010
0000
1100
0000
,
1000
0000
0100
0000
0010
0000
0001
0000
0100
0000
0010
0000
0100
0001
0010
0001
,
1000
0010
1000
0001
0010
0100
1000
0001
,
0100
0000
0010
0000
1000
0000
0100
0000
0010
0000
0001
0000
0010
0001
0100
0001
,
1000
0100
1000
0010
1000
0001
0100
0001
,
0011
0000
0010
0000
0001
0000
1000
0000
0010
0000
0100
0000
0010
1000
0100
0010
,
0001
1000
0010
1000
0001
0100
0001
1000
,
0100
0010
0011
0001
1000
0010
1010
1000
,
0001
1001
1010
0101
,
0100
0000
0001
1000
0001
0000
1000
0100
1000
0000
0001
0100
0001
0000
1000
0010
,
1000
0001
0010
0100
0010
0100
0010
0100
,
0010
0100
1000
0001
0100
0000
0010
1000
0001
1000
0100
0000
1000
0001
1000
0001
,
0010
0100
1000
0010
0100
0000
1001
0000
;

//---------------dance-single - Zaia - 10(low-mid)----------------
#NOTES:
     dance-single:
     Zaia - 10(low-mid):
     Medium:
     10:
     0.888,0.844,0.380,0.423,0.087,499.000,35.000,39.000,0.000,0.000:
0000
0000
0000
0000
,
0000
0000
0000
0000
,
0000
0000
0000
0000
,
0000
0000
0000
0000
,
1000
0000
0010
0100
0000
0001
0000
0010
,
0100
1000
0001
0200
0320
1030
0100
0010
,
0001
0000
1000
0100
0000
1000
0000
0010
,
0100
0001
1000
0002
0023
0031
0100
0010
,
1010
1000
0001
0011
0000
0000
0000
0000
,
1100
1000
0001
0101
0000
0000
0000
0000
,
0110
0100
0001
1001
0000
0000
0000
0000
,
1001
1000
0100
0110
0000
0000
0000
0000
,
1001
0001
1000
0010
1001
1000
0001
0010
,
0011
0001
1000
0010
1010
1000
0001
0100
,
0101
1001
1100
0110
,
0011
0001
1000
0001
1000
0001
1000
0001
,
2000
0000
0000
3000
,
1000
0001
0010
0001
0100
0001
0010
0000
,
0001
0100
0010
1000
0100
0010
0002
0203
,
0301
0010
0001
1000
0010
0100
0001
1000
,
0100
0010
0001
0100
0010
1000
0200
2300
,
3010
0100
0001
0010
0001
1000
0100
1000
,
1010
0010
1000
0001
0010
0100
2000
3020
,
1030
0001
0010
0001
1000
0100
1000
0001
,
0100
0010
1000
0100
0010
0001
2000
3020
,
1030
0001
0100
0010
1000
0001
0010
0100
,
0110
0010
0100
1000
0010
0100
0002
2003
,
3001
0100
0001
1000
0100
0010
0001
1000
,
0010
0100
0001
0010
0100
1000
0200
0320
,
0031
0010
0001
0100
0001
1000
0010
1000
,
1100
0100
1000
0001
0100
0010
0200
0320
,
1030
0001
0100
0001
1000
0010
1000
0001
,
0010
0100
2000
3001
0100
0010
0200
0301
,
1000
1100
1001
0011
,
0010
0010
0100
0100
1000
1000
0001
0001
,
1000
0000
0010
0000
0100
0000
0001
0010
0001
0000
1000
0000
0010
0000
1000
0000
,
0100
0010
0001
0100
0010
1000
0001
0010
,
0001
0000
1000
0000
0010
0000
1000
0001
1000
0000
0100
0000
0010
0000
0001
0000
,
1000
0010
0100
0002
0203
0320
1030
0001
,
1001
0000
1000
0000
0100
0000
1000
0100
1000
0000
0001
0000
0100
0000
0001
0000
,
0010
0100
1000
0010
0100
0001
1000
0100
,
1000
0000
0010
0000
1000
0000
0001
0010
0001
0000
1000
0000
0010
0000
1000
0000
,
0001
0200
0300
0020
0030
2000
3000
0002
,
0013
0100
1000
0100
0010
0100
1000
0010
,
0100
0001
0100
0010
0100
0001
0100
0010
,
1000
0100
0010
0001
0010
0100
0010
0001
,
1000
0001
0100
0001
1000
0001
0100
0001
,
1000
0010
1000
0100
0010
0001
0100
0001
,
1000
0001
0010
0100
0010
0001
1000
0010
,
0100
0010
1000
0100
1000
0001
0100
0001
,
1000
1010
0000
0011
0000
1010
0000
0001
,
1000
0000
0010
0000
1000
0000
0010
0000
1000
0000
0010
0000
1000
0001
1000
0010
,
0100
0001
0100
0001
0100
0001
0100
0001
,
0100
0000
0001
0000
1000
0000
0001
0000
1000
0000
0001
0000
1000
0001
1000
0100
,
0010
0001
1000
0001
0100
0010
1000
0001
,
0010
0000
0100
0000
0010
0000
0100
0000
0010
0000
0100
0000
1000
0001
1000
0100
,
0010
0001
1000
0001
1000
0010
1000
0001
,
1000
0000
0010
0000
1000
0000
0010
0000
1000
0000
0010
0000
1000
0010
0100
0001
,
0100
0001
0000
1000
0100
0000
0011
0000
,
0001
0010
0100
1000
0010
0100
0020
2030
,
3001
0100
0001
1000
0100
0010
0001
1000
,
0010
0100
0001
0010
0100
1000
0020
2030
,
3001
0010
0001
0100
0001
1000
0010
1000
,
1100
0100
1000
0001
0100
0010
0200
0320
,
1030
0001
0100
0001
1000
0010
1000
0001
,
0010
0100
1100
1000
0001
0100
0101
0001
,
1000
1001
0101
1010
,
0010
0000
1000
0001
1000
0000
0001
0010
0001
0000
1000
0010
1000
0000
0001
0100
,
0001
1000
0100
0010
0100
0010
0100
0010
,
0200
2300
3010
0200
0302
0013
0001
2000
,
3100
0010
0001
0100
0010
0000
1001
0000
;
