#TITLE:30Min Harder;
#SUBTITLE:;
#ARTIST:DJ Sharpnel;
#TITLETRANSLIT:;
#SUBTITLETRANSLIT:;
#ARTISTTRANSLIT:;
#CREDIT:Serenade;
#BANNER:30min bn.png;
#BACKGROUND:30min bg.png;
#LYRICSPATH:;
#CDTITLE:;
#MUSIC:30 Minutes Harder.ogg;
#OFFSET:-5.610;
#SAMPLESTART:99.303;
#SAMPLELENGTH:22.455;
#SELECTABLE:YES;
#BPMS:0.000=171.000;
#STOPS:;
#BGCHANGES:;
// cache tags:
#FIRSTBEAT:0.000;
#LASTBEAT:868.500;
#SONGFILENAME:Songs/SHARPNELSTREAMZ v2/30Min Harder/30 Minutes.sm;
#HASMUSIC:1;
#HASBANNER:1;
#MUSICLENGTH:315.400;
// end cache tags

//---------------dance-single - 14+ (Zaia)----------------
#NOTES:
     dance-single:
     14+ (Zaia):
     Challenge:
     14:
     1.000,1.000,0.098,0.301,1.000,2505.000,31.000,95.000,0.000,0.000:
1000
0100
0010
0001
1001
0000
1100
0000
,
1001
1010
0101
1001
,
1010
1001
0011
1100
,
1001
0101
0110
1001
,
0001
0010
0100
1000
1010
0000
1001
0000
,
1100
0011
0110
1001
,
0101
1010
1001
0011
,
1100
0110
0011
1001
,
0001
2000
3100
0020
0031
2000
3001
0200
,
0301
2000
3010
2000
3001
2000
3100
0020
,
0130
2000
3001
0200
0310
0200
0301
2000
,
3010
2000
3001
2000
3100
2000
3001
0020
,
0031
2000
3001
0200
0301
2000
3010
0200
,
0310
2000
3001
0020
0130
0020
0031
2000
,
3010
2000
3001
2000
3100
2000
3001
0020
,
0031
0000
2000
0000
3001
0000
0200
0000
0301
0000
1000
0001
1000
0000
0001
0000
,
0100
0010
0100
0000
0010
1000
0010
0000
1000
0001
1000
0000
0100
0010
0001
0000
,
1000
0100
1000
0000
0001
0010
0001
0000
1000
0001
1000
0000
0001
0010
0100
0000
,
1000
0100
1000
0000
0100
0010
0100
0000
0010
0001
0010
0000
0001
1000
0010
0000
,
0100
0001
0100
0000
0010
1000
0010
0000
1000
0001
1000
0000
0010
0100
0001
0000
,
1000
0100
1000
0000
0001
0010
0001
0000
1000
0010
1000
0000
0001
0100
0010
0000
,
1000
0001
1000
0000
0001
0100
0001
0000
0100
0010
0100
0000
0010
1000
0001
0000
,
0010
0100
0010
0000
0100
1000
0100
0000
1000
0001
1000
0000
0100
0010
0001
0000
,
1000
0100
1000
0000
0001
0100
0001
0000
1000
0100
1000
0000
0001
1000
0010
0000
,
0100
0001
0100
0000
0010
1000
0010
0000
1000
0001
1000
0000
0010
0100
0001
0000
,
1000
0010
1000
0000
0001
0100
0001
0000
1000
0100
1000
0000
0001
0010
0100
0000
,
1000
0001
1000
0000
0001
0100
0001
0000
0100
0010
0100
0000
0010
1000
0001
0000
,
1000
0100
1000
0000
0100
0010
0100
0000
0010
0001
0010
0000
0001
1000
0010
0000
,
0100
0010
0100
0000
0010
1000
0010
0000
1000
0001
1000
0000
0010
0100
0001
0000
,
1000
0100
1000
0000
0001
0010
0001
0000
1000
0010
1000
0000
0010
0100
0001
0000
,
0010
0100
0010
0000
0001
1000
0001
0000
0010
0100
0010
0000
0001
0100
0010
0000
,
1000
0010
1000
0001
1000
0010
0100
0001
1000
0010
1000
0001
0100
0001
0100
0010
,
1000
0000
0000
0000
,
0000
0000
0000
0000
,
1002
0000
0000
2003
0000
0000
3020
0000
,
0000
0000
0030
0000
,
0200
0000
0000
0302
0000
0000
2003
0000
,
0000
0000
3000
0000
,
0200
0000
0000
0320
0000
0000
0032
0000
,
0000
0000
0003
0000
,
2000
0000
0000
3020
0000
0000
2030
0000
,
3200
0000
0000
0000
0000
0000
0000
0000
0000
0000
0000
0000
0000
0000
0000
0000
0000
0000
0000
0000
0000
0000
0000
0000
0320
0000
0000
0000
0000
0000
0000
0000
0000
0000
0000
0000
0000
0000
0000
0000
0000
0000
0000
0000
0000
0000
0000
0000
0032
0000
0000
0000
0000
0000
0000
0000
0000
0000
0000
0000
0000
0000
0000
0003
,
2001
0000
0000
3002
0000
0000
2003
0000
,
3200
0000
0000
0320
0000
0000
0032
0000
,
2003
0000
0000
3020
0000
0000
0230
0000
,
0302
0000
0000
0023
0000
0000
0230
0000
,
2300
0000
0000
3002
0000
0000
0023
0000
,
0230
0000
0000
2300
0000
0000
3020
0000
,
0230
0000
0000
0302
0000
0000
0023
0000
,
0230
0000
0000
0000
0000
0000
0000
0000
0000
0000
0000
0000
0000
0000
0000
0000
0000
0000
0000
0000
0000
0000
0000
0000
2300
0000
0000
0000
0000
0000
0000
0000
0000
0000
0000
0000
0000
0000
0000
0000
0000
0000
0000
0000
0000
0000
0000
0000
3020
0000
0000
0000
0000
0000
0000
0000
0000
0000
0000
0000
0000
0000
0000
0030
,
0110
0100
0001
0100
0010
1000
0001
0100
,
0001
1000
1000
0010
1000
1000
0100
0010
,
0001
0010
0010
0100
0010
0010
0001
1000
,
0010
0100
0001
0100
0010
0100
0001
0010
,
0100
1000
0010
1000
0001
1000
0100
0010
,
0001
0100
0100
0010
0100
0100
0001
0010
,
0100
1000
1000
0010
1000
1000
0100
1000
,
0001
0100
0001
0010
0001
0100
0001
0010
,
0100
1000
0001
1000
0100
1000
0001
1000
,
0010
0100
0001
1000
0001
0100
0001
1000
,
0001
0010
0001
1000
0100
0010
0001
1000
,
0010
0100
0001
0100
0010
1000
0001
0010
,
0001
1000
0010
0100
0001
1000
0010
0100
0001
1000
0010
1000
0010
0100
0001
1000
,
0001
0010
0100
1000
0001
1000
0100
0010
0001
1000
0100
1000
0001
0010
0100
1000
,
0001
0100
0001
1000
0001
0100
0001
1000
0100
0010
0001
0010
0100
1000
0001
0010
,
0001
1000
0100
1000
0001
0100
0001
1000
0010
0100
0001
0100
0010
1000
0010
0100
,
0002
0000
0003
0000
,
1000
0100
0010
0001
1000
0001
0100
0001
1000
0010
1000
0001
0010
0001
0100
0010
,
1000
0001
0100
0001
1000
0100
0010
0100
1000
0001
0100
0010
0100
0001
0010
0100
,
1000
0001
0100
0010
0100
0001
1000
0100
0010
0100
1000
0001
0010
0001
0100
0010
,
1000
0010
0100
0001
1000
0100
0010
0001
1000
0001
1000
0001
0100
0001
0010
0100
,
1000
0001
0100
0001
0010
0001
1000
0100
0010
0100
1000
0001
0010
0001
0100
0010
,
1000
0001
0100
0010
1000
0001
0010
0100
1000
0100
1000
0001
0100
0001
0010
0100
,
1000
0100
0010
0001
1000
0001
0010
0100
1000
0100
1000
0001
0010
0001
0100
0010
,
1000
0010
0100
0001
0100
0010
1000
0001
0100
0001
1000
0010
0100
0001
0010
0100
,
1000
0010
0100
0001
1000
0001
0010
0001
1000
0100
1000
0001
0010
0001
0100
0010
,
1000
0001
0010
0001
1000
0010
0100
0010
1000
0001
1000
0001
0100
0001
0010
0100
,
1000
0001
0010
0100
0010
0001
1000
0010
0100
0010
1000
0001
0010
0001
0100
0010
,
1000
0100
0010
0001
1000
0010
0100
0001
1000
0010
1000
0001
0100
0001
0010
0100
,
1000
0001
0010
0001
0100
0001
1000
0010
0100
0010
1000
0001
0010
0001
0100
0010
,
1000
0001
0010
0100
1000
0001
0100
0010
1000
0010
1000
0001
0100
0001
0010
0100
,
1000
0100
0010
0001
1000
0001
0010
0100
1000
0100
1000
0001
0010
0001
0100
0010
,
1000
0010
0100
0001
0100
0010
1000
0001
1000
0001
1000
0001
1000
0001
1000
0001
,
1000
0100
1000
0100
0010
0001
0010
0001
1000
0001
0100
0010
1000
0010
0100
0001
,
1000
0001
1000
0001
1000
0010
1000
0010
1000
0100
1000
0001
0100
0001
0010
0100
,
1000
0001
1000
0001
0010
0001
0010
0001
1000
0001
0100
0001
0010
0001
0100
0010
,
1000
0001
1000
0001
1000
0010
1000
0010
1000
0100
1000
0001
0100
0001
0010
0100
,
1000
0001
1000
0001
0010
0001
0010
0001
1000
0001
0100
0001
0010
0001
0100
0010
,
1000
0001
1000
0001
1000
0010
1000
0010
1000
0100
1000
0001
0100
0001
0010
0100
,
1000
0001
1000
0001
0010
0001
0010
0001
1000
0001
0100
0001
0010
0001
0100
0010
,
1000
0001
1000
0001
1000
0010
1000
0010
1000
0100
1000
0001
0100
0001
0010
0100
,
1000
0001
1000
0001
0100
0001
0100
0001
1000
0010
1000
0001
0010
0001
0100
0010
,
1000
0001
1000
0001
1000
0100
1000
0100
1000
0010
1000
0001
0100
0001
0010
0100
,
1000
0001
1000
0001
0100
0001
0100
0001
1000
0010
1000
0001
0010
0001
0100
0010
,
1000
0001
1000
0001
1000
0100
1000
0100
1000
0010
1000
0001
0100
0001
0010
0100
,
1000
0001
1000
0001
0100
0001
0100
0001
1000
0010
1000
0001
0010
0001
0100
0010
,
1000
0001
1000
0001
1000
0100
1000
0100
1000
0010
1000
0001
0100
0001
0010
0100
,
1000
0001
1000
0001
0100
0001
0100
0001
1000
0010
1000
0001
0010
0001
0100
0010
,
1000
0001
1000
0001
1000
0100
1000
0100
1000
0010
1000
0001
1000
0010
0100
0001
,
2000
0000
0000
0000
0000
0000
3001
0010
,
0100
1000
0001
0000
1000
0100
0010
0000
0001
0000
1000
0000
0001
0000
0010
0000
,
0100
1000
0001
0000
1000
0100
0010
0000
0001
0000
1000
0000
0100
0000
1000
0000
,
0010
0100
0001
0000
0100
0010
1000
0000
0001
0000
1000
0000
0010
0000
0100
0000
,
0010
1000
0001
0000
1000
0010
0100
0000
0001
0000
0100
0000
0010
0000
1000
0000
,
0100
1000
0001
0000
0100
0001
1000
0000
0010
0000
1000
0000
0100
0000
0010
0000
,
0100
1000
0001
0000
0100
0001
1000
0000
0100
0000
1000
0000
0010
0000
0100
0000
,
0001
0010
0100
0000
0010
0001
1000
0000
0100
0000
1000
0000
0001
0000
0100
0000
,
0010
1000
0001
0000
1000
0010
0100
0000
0001
0000
1000
0000
0100
0000
0010
0000
,
0100
1000
0001
0000
1000
0100
0010
0000
0001
0000
1000
0000
0100
0000
0010
0000
,
0100
1000
0001
0000
1000
0100
0010
0000
0001
0000
1000
0000
0100
0000
1000
0000
,
0010
0100
0001
0000
0100
0010
1000
0000
0001
0000
1000
0000
0010
0000
0100
0000
,
0010
1000
0001
0000
1000
0010
0100
0000
0001
0000
0100
0000
0010
0000
1000
0000
,
0100
1000
0001
0000
0100
0001
1000
0000
0010
0000
1000
0000
0100
0000
0010
0000
,
0100
1000
0001
0000
0100
0001
1000
0000
0100
0000
1000
0000
0010
0000
0100
0000
,
0001
0010
0100
0000
0010
0001
1000
0000
0100
0000
1000
0000
0001
0000
0100
0000
,
0010
1000
0001
0000
1000
0010
0100
0001
1000
0001
1000
0001
1000
0100
0010
0001
,
1000
0001
1000
0001
1000
0010
1000
0010
0100
0001
1000
0001
0100
0001
0010
0001
,
0100
0010
0100
0010
1000
0010
1000
0010
0100
0001
1000
0001
0010
0001
0100
0001
,
0010
0100
0010
0100
1000
0100
1000
0100
1000
0010
0100
0001
0100
0001
0010
0001
,
0100
0001
0100
0010
1000
0010
1000
0001
0100
0010
1000
0001
0010
0001
0100
0001
,
1000
0010
1000
0010
1000
0001
1000
0001
0010
0001
1000
0001
0100
0001
0010
0001
,
1000
0010
1000
0010
1000
0001
1000
0001
0010
0100
1000
0001
0010
0001
0100
0001
,
0010
0001
0010
0001
1000
0010
1000
0010
0100
0001
1000
0010
0100
0001
0010
0001
,
0100
0010
0100
0010
1000
0010
1000
0010
0100
0001
1000
0001
0010
0001
0100
0001
,
1000
0001
1000
0001
1000
0100
1000
0100
0010
0001
1000
0001
0010
0001
0100
0001
,
0010
0100
0010
0100
1000
0100
1000
0100
0010
0001
1000
0001
0100
0001
0010
0001
,
0100
0010
0100
0010
1000
0010
1000
0010
1000
0100
0010
0001
0010
0001
0100
0001
,
0010
0001
0010
0100
1000
0100
1000
0001
0010
0100
1000
0001
0100
0001
0010
0001
,
1000
0100
1000
0100
1000
0001
1000
0001
0100
0001
1000
0001
0010
0001
0100
0001
,
1000
0100
1000
0100
1000
0001
1000
0001
0100
0010
1000
0001
0100
0001
0010
0001
,
0100
0001
0100
0001
1000
0100
1000
0100
0010
0001
1000
0100
0010
0001
0100
0001
,
1000
0001
0100
0010
1000
0001
0100
0010
1000
0001
1000
0001
1000
0001
0100
0001
,
1000
0100
0010
0001
1000
0001
0100
0001
1000
0010
1000
0001
0010
0001
0100
0010
,
1000
0001
0100
0001
1000
0100
0010
0100
1000
0001
0100
0010
0100
0001
0010
0100
,
1000
0001
0100
0010
0100
0001
1000
0100
0010
0100
1000
0001
0010
0001
0100
0010
,
1000
0010
0100
0001
1000
0100
0010
0001
1000
0001
1000
0001
0100
0001
0010
0100
,
1000
0001
0100
0001
0010
0001
1000
0100
0010
0100
1000
0001
0010
0001
0100
0010
,
1000
0001
0100
0010
1000
0001
0010
0100
1000
0100
1000
0001
0100
0001
0010
0100
,
1000
0100
0010
0001
1000
0001
0010
0100
1000
0100
1000
0001
0010
0001
0100
0010
,
1000
0010
0100
0001
0100
0010
1000
0001
0100
0001
1000
0010
0100
0001
0010
0100
,
1000
0010
0100
0001
1000
0001
0010
0001
1000
0100
1000
0001
0010
0001
0100
0010
,
1000
0001
0010
0001
1000
0010
0100
0010
1000
0001
1000
0001
0100
0001
0010
0100
,
1000
0001
0010
0100
0010
0001
1000
0010
0100
0010
1000
0001
0010
0001
0100
0010
,
1000
0100
0010
0001
1000
0010
0100
0001
1000
0010
1000
0001
0100
0001
0010
0100
,
1000
0001
0010
0001
0100
0001
1000
0010
0100
0010
1000
0001
0010
0001
0100
0010
,
1000
0001
0010
0100
1000
0001
0100
0010
1000
0010
1000
0001
0100
0001
0010
0100
,
1000
0100
0010
0001
1000
0001
0010
0100
1000
0100
1000
0001
0010
0001
0100
0010
,
1000
0010
0100
0001
0100
0010
1000
0001
0100
0001
1000
0010
0100
0001
0010
0100
,
1000
0001
1000
0001
0010
0001
0010
0001
1000
0001
0100
0001
0010
0001
1000
0001
,
0010
0001
1000
0001
1000
0010
1000
0010
1000
0100
1000
0001
0100
0001
1000
0001
,
0100
0001
1000
0001
0010
0001
0010
0001
1000
0001
0100
0001
0010
0001
1000
0001
,
0010
0001
1000
0001
1000
0010
1000
0010
1000
0100
1000
0001
0100
0001
1000
0001
,
0100
0001
1000
0001
0010
0001
0010
0001
1000
0001
0100
0001
0010
0001
1000
0001
,
0010
0001
1000
0001
1000
0010
1000
0010
1000
0100
1000
0001
0100
0001
1000
0001
,
0100
0001
1000
0001
0010
0001
0010
0001
1000
0001
0100
0001
0010
0001
1000
0001
,
0010
0001
1000
0001
1000
0010
1000
0010
1000
0100
1000
0001
0100
0001
1000
0001
,
0010
0001
1000
0001
0100
0001
0100
0001
1000
0010
1000
0001
0010
0001
1000
0001
,
0010
0001
1000
0001
1000
0100
1000
0100
1000
0010
1000
0001
0100
0001
1000
0001
,
0100
0001
1000
0001
0100
0001
0100
0001
1000
0010
1000
0001
0010
0001
1000
0001
,
0010
0001
1000
0001
1000
0100
1000
0100
1000
0010
1000
0001
0100
0001
1000
0001
,
0100
0001
1000
0001
0100
0001
0100
0001
1000
0010
1000
0001
0010
0001
1000
0001
,
0010
0001
1000
0001
1000
0100
1000
0100
1000
0010
1000
0001
0100
0001
1000
0001
,
0100
0001
1000
0001
0100
0001
0100
0001
1000
0010
1000
0001
0010
0001
1000
0001
,
0010
0001
1000
0001
1000
0100
1000
0100
1000
0010
1000
0001
1000
0010
0100
0001
,
1000
0010
1000
0010
0100
0001
1000
0001
,
0010
0200
0000
0310
0200
0000
1300
0000
,
0001
0200
0000
0301
0200
0000
0310
0000
,
1000
0010
1000
0010
0100
0010
1000
0010
,
0100
0001
0100
0001
1000
0100
1000
0001
,
1000
0020
0000
1030
0020
0000
0130
0000
,
0001
0200
0000
0301
0200
0000
0310
0000
,
1000
0100
0010
0001
0010
0100
0010
0001
,
0100
0010
0100
0010
1000
0001
0010
0001
,
0100
0020
0000
0130
0020
0000
1030
0000
,
0001
0020
0000
0031
0020
0000
0130
0000
,
1000
0100
1000
0001
1000
0100
1000
0001
,
0100
0001
0100
0001
1000
0010
0100
0010
,
1000
0200
0000
1300
0200
0000
0310
0000
,
0001
2000
0000
3001
2000
0000
3010
0000
,
0100
0001
1000
0001
1000
0001
1000
0001
1000
0001
1000
0001
1000
0001
1000
0001
,
0100
0001
1000
0100
0010
0100
1000
0001
0100
0010
0100
0001
1000
0001
0010
0001
,
1000
0100
1000
0001
1000
0100
1000
0001
1000
0010
1000
0010
1000
0001
1000
0001
,
0100
0001
1000
0001
0100
0001
1000
0001
0100
0010
0100
0010
1000
0001
1000
0001
,
0100
0001
1000
0001
0010
0001
1000
0001
0010
0001
1000
0001
0100
0001
1000
0001
,
0010
0100
1000
0100
0010
0100
1000
0001
0100
0010
0100
0001
1000
0001
0010
0001
,
1000
0100
1000
0001
1000
0100
1000
0001
1000
0010
1000
0010
1000
0001
1000
0001
,
0100
0001
1000
0001
0100
0001
1000
0001
0100
0010
0100
0010
1000
0001
1000
0001
,
0010
0001
1000
0001
0100
0001
1000
0001
0100
0001
1000
0001
0010
0001
1000
0001
,
0100
0001
1000
0100
0010
0100
1000
0001
0100
0010
0100
0001
1000
0001
0010
0001
,
1000
0100
1000
0001
1000
0100
1000
0001
1000
0010
1000
0010
1000
0001
1000
0001
,
0100
0001
1000
0001
0100
0001
1000
0001
0100
0010
0100
0010
1000
0001
1000
0001
,
0100
0001
1000
0001
0010
0001
1000
0001
0010
0001
1000
0001
0100
0001
1000
0001
,
0010
0001
1000
0100
0010
0100
1000
0001
0100
0010
0100
0001
1000
0001
0010
0001
,
1000
0100
1000
0001
1000
0100
1000
0001
1000
0010
1000
0010
1000
0001
1000
0001
,
0100
0001
1000
0001
0100
0001
1000
0001
0100
0010
0100
0010
1000
0001
1000
0001
,
0100
0001
1000
0001
0010
0100
1000
0001
0010
0100
1000
0001
0010
0100
1000
0001
,
0010
0000
0001
0000
1000
0000
0001
0000
0010
0000
0001
0000
0100
0010
0100
0000
,
0010
1000
0010
0000
1000
0000
0001
0000
1000
0000
0010
0000
1000
0100
1000
0000
,
0100
0010
0100
0000
0010
0000
0001
0000
0010
0000
0100
0000
0010
0001
0010
0000
,
0001
1000
0001
0000
1000
0000
0010
0000
0100
0000
0010
0000
1000
0100
1000
0000
,
0001
0010
0001
0000
1000
0000
0001
0000
0100
0000
0001
0000
1000
0010
1000
0000
,
0010
0100
0010
0000
0100
0000
0001
0000
1000
0000
0001
0000
0100
0010
0100
0000
,
0010
1000
0010
0000
1000
0000
0100
0000
1000
0000
0010
0000
1000
0001
1000
0000
,
0001
0010
0001
0000
1000
0000
0001
0000
0010
0000
0001
0000
1000
0100
1000
0000
,
0001
0010
0001
0000
1000
0001
1000
0000
0010
1000
0010
0000
0100
0001
1000
0000
,
0010
1000
0010
0000
0100
0010
0100
0000
0001
0100
0001
0000
0100
0010
1000
0000
,
0001
1000
0001
0000
1000
0010
1000
0000
0001
0010
0001
0000
1000
0100
0010
0000
,
0001
0010
0001
0000
1000
0100
1000
0000
0001
0100
0001
0000
0100
0010
1000
0000
,
0001
1000
0001
0000
1000
0010
1000
0000
0010
0100
0010
0000
0100
0001
1000
0000
,
0100
0010
0100
0000
0010
0001
0010
0000
0001
1000
0001
0000
0010
0100
1000
0000
,
0001
0010
0100
1000
0001
0010
0100
1000
,
0001
0000
0010
0000
0100
1000
0100
0010
0001
0010
0100
1000
0001
0010
0100
0010
,
0002
0000
1003
0020
0000
0130
0001
2000
,
0000
0000
3100
0020
0000
0031
0010
0200
,
0000
0000
1300
0002
0000
0103
0010
2000
,
0000
0000
3001
0020
0000
0000
0000
0000
,
0000
0030
0000
0000
0000
0000
0000
0000
;

//---------------dance-single - 13+ (Zaia)----------------
#NOTES:
     dance-single:
     13+ (Zaia):
     Hard:
     13:
     1.000,1.000,0.108,0.358,1.000,2213.000,34.000,113.000,0.000,0.000:
1000
0100
0010
0001
1001
0000
0011
0000
,
1001
0101
1010
1001
,
0101
1001
1100
0011
,
1001
1010
0110
1001
,
1000
0100
0010
0001
0101
0000
1001
0000
,
0011
1100
0110
1001
,
1010
0101
1001
1100
,
0011
0110
1100
1001
,
1000
0002
0013
0200
1300
0002
1003
0020
,
1030
0002
0103
0002
1003
0002
0013
0200
,
0310
0002
1003
0020
0130
0020
1030
0002
,
0103
0002
1003
0002
0013
0002
1003
0200
,
1300
0002
1003
0020
1030
0002
0103
0020
,
0130
0002
1003
0200
0310
0200
1300
0002
,
0103
0002
1003
0002
0013
0002
1003
0200
,
1300
0000
0002
0000
1003
0000
0020
0000
1030
0000
0001
1000
0001
0000
1000
0000
,
0010
0100
0010
0000
0100
0001
0100
0000
0001
1000
0001
0000
0010
0100
1000
0000
,
0001
0010
0001
0000
1000
0100
1000
0000
0001
1000
0001
0000
1000
0100
0010
0000
,
0001
0010
0001
0000
0010
0100
0010
0000
0100
1000
0100
0000
1000
0001
0100
0000
,
0010
1000
0010
0000
0100
0001
0100
0000
0001
1000
0001
0000
0100
0010
1000
0000
,
0001
0010
0001
0000
1000
0100
1000
0000
0001
0100
0001
0000
1000
0010
0100
0000
,
0001
1000
0001
0000
1000
0010
1000
0000
0010
0100
0010
0000
0100
0001
1000
0000
,
0100
0010
0100
0000
0010
0001
0010
0000
0001
1000
0001
0000
0010
0100
1000
0000
,
0001
0010
0001
0000
1000
0010
1000
0000
0001
0010
0001
0000
1000
0001
0100
0000
,
0010
1000
0010
0000
0100
0001
0100
0000
0001
1000
0001
0000
0100
0010
1000
0000
,
0001
0100
0001
0000
1000
0010
1000
0000
0001
0010
0001
0000
1000
0100
0010
0000
,
0001
1000
0001
0000
1000
0010
1000
0000
0010
0100
0010
0000
0100
0001
1000
0000
,
0001
0010
0001
0000
0010
0100
0010
0000
0100
1000
0100
0000
1000
0001
0100
0000
,
0010
0100
0010
0000
0100
0001
0100
0000
0001
1000
0001
0000
0100
0010
1000
0000
,
0001
0010
0001
0000
1000
0100
1000
0000
0001
0100
0001
0000
0100
0010
1000
0000
,
0100
0010
0100
0000
1000
0001
1000
0000
0100
0010
0100
0000
1000
0010
0100
0000
,
0001
0100
0001
1000
0001
0100
0010
1000
0001
0100
0001
1000
0010
1000
0010
0100
,
0001
0000
0000
0000
,
0000
0000
0000
0000
,
2001
0000
0000
3002
0000
0000
0203
0000
,
0000
0000
0300
0000
,
0020
0000
0000
2030
0000
0000
3002
0000
,
0000
0000
0003
0000
,
0020
0000
0000
0230
0000
0000
2300
0000
,
0000
0000
3000
0000
,
0002
0000
0000
0203
0000
0000
0302
0000
,
0023
0000
0000
0000
0000
0000
0000
0000
0000
0000
0000
0000
0000
0000
0000
0000
0000
0000
0000
0000
0000
0000
0000
0000
0230
0000
0000
0000
0000
0000
0000
0000
0000
0000
0000
0000
0000
0000
0000
0000
0000
0000
0000
0000
0000
0000
0000
0000
2300
0000
0000
0000
0000
0000
0000
0000
0000
0000
0000
0000
0000
0000
0000
3000
,
1002
0000
0000
2003
0000
0000
3002
0000
,
0023
0000
0000
0230
0000
0000
2300
0000
,
3002
0000
0000
0203
0000
0000
0320
0000
,
2030
0000
0000
3200
0000
0000
0320
0000
,
0032
0000
0000
2003
0000
0000
3200
0000
,
0320
0000
0000
0032
0000
0000
0203
0000
,
0320
0000
0000
2030
0000
0000
3200
0000
,
0320
0000
0000
0000
0000
0000
0000
0000
0000
0000
0000
0000
0000
0000
0000
0000
0000
0000
0000
0000
0000
0000
0000
0000
0032
0000
0000
0000
0000
0000
0000
0000
0000
0000
0000
0000
0000
0000
0000
0000
0000
0000
0000
0000
0000
0000
0000
0000
0203
0000
0000
0000
0000
0000
0000
0000
0000
0000
0000
0000
0000
0000
0000
0300
,
0110
0010
1000
0010
0100
0001
1000
0010
,
1000
0001
0001
0100
0001
0001
0010
0100
,
1000
0100
0100
0010
0100
0100
1000
0001
,
0100
0010
1000
0010
0100
0010
1000
0100
,
0010
0001
0100
0001
1000
0001
0010
0100
,
1000
0010
0010
0100
0010
0010
1000
0100
,
0010
0001
0001
0100
0001
0001
0010
0001
,
1000
0010
1000
0100
1000
0010
1000
0100
,
0010
0001
1000
0001
0010
0001
1000
0001
,
0100
0010
1000
0001
1000
0010
1000
0001
,
1000
0100
1000
0001
0010
0100
1000
0001
,
0100
0010
1000
0010
0100
0001
1000
0100
,
1000
0001
0100
0010
1000
0001
0100
0010
1000
0001
0100
0001
0100
0010
1000
0001
,
1000
0100
0010
0001
1000
0001
0010
0100
1000
0001
0010
0001
1000
0100
0010
0001
,
1000
0010
1000
0001
1000
0010
1000
0001
0010
0100
1000
0100
0010
0001
1000
0100
,
1000
0001
0010
0001
1000
0010
1000
0001
0100
0010
1000
0010
0100
0001
0100
0010
,
2002
0000
0000
0000
0000
3003
0000
0000
,
0001
0010
0100
1000
0001
1000
0010
1000
0001
0100
0001
1000
0100
1000
0010
0100
,
0001
1000
0010
1000
0001
0010
0100
0010
0001
1000
0010
0100
0010
1000
0100
0010
,
0001
1000
0010
0100
0010
1000
0001
0010
0100
0010
0001
1000
0100
1000
0010
0100
,
0001
0100
0010
1000
0001
0010
0100
1000
0001
1000
0001
1000
0010
1000
0100
0010
,
0001
1000
0010
1000
0100
1000
0001
0010
0100
0010
0001
1000
0100
1000
0010
0100
,
0001
1000
0010
0100
0001
1000
0100
0010
0001
0010
0001
1000
0010
1000
0100
0010
,
0001
0010
0100
1000
0001
1000
0100
0010
0001
0010
0001
1000
0100
1000
0010
0100
,
0001
0100
0010
1000
0010
0100
0001
1000
0010
1000
0001
0100
0010
1000
0100
0010
,
0001
0100
0010
1000
0001
1000
0100
1000
0001
0010
0001
1000
0100
1000
0010
0100
,
0001
1000
0100
1000
0001
0100
0010
0100
0001
1000
0001
1000
0010
1000
0100
0010
,
0001
1000
0100
0010
0100
1000
0001
0100
0010
0100
0001
1000
0100
1000
0010
0100
,
0001
0010
0100
1000
0001
0100
0010
1000
0001
0100
0001
1000
0010
1000
0100
0010
,
0001
1000
0100
1000
0010
1000
0001
0100
0010
0100
0001
1000
0100
1000
0010
0100
,
0001
1000
0100
0010
0001
1000
0010
0100
0001
0100
0001
1000
0010
1000
0100
0010
,
0001
0010
0100
1000
0001
1000
0100
0010
0001
0010
0001
1000
0100
1000
0010
0100
,
0001
0100
0010
1000
0010
0100
0001
1000
0010
1000
0001
0100
0010
1000
0100
0010
,
0001
1000
0001
0010
0001
1000
0001
0010
,
0200
0010
0310
0002
1000
1003
0010
0100
,
0002
1000
1003
0002
0100
0103
0010
1000
,
0001
0010
0001
0100
0001
1000
0001
0100
,
0010
1000
0010
0100
0001
1000
0100
0010
,
0200
1000
1300
0002
0100
0103
0010
1000
,
0200
0010
0310
0002
1000
1003
0001
0100
,
0010
1000
0100
1000
0001
1000
0010
1000
,
0100
0010
0001
1000
0010
0100
0010
1000
,
0002
0010
0013
0002
1000
1003
0010
0100
,
0002
1000
1003
0200
0010
0310
0001
0100
,
0001
0010
0001
1000
0001
0100
0001
0010
,
0100
1000
0100
1000
0001
0100
0001
1000
,
0020
1000
1030
0020
0100
0130
0001
1000
,
0200
0010
0310
0002
1000
1003
0010
0100
,
0001
0000
1000
0000
0100
1000
0001
1000
0100
0010
0100
1000
0001
1000
0100
0010
,
0002
0000
0000
0000
0000
0000
0103
0001
,
0010
0100
1000
0000
0001
0000
1000
0000
0000
0000
0000
0000
0100
0000
1000
0000
,
0001
0100
0010
0000
0100
0000
0001
0000
0000
0000
0000
0000
0010
0000
0100
0000
,
1000
0100
0010
0000
0001
0000
1000
0000
0000
0000
0000
0000
0100
0000
0010
0000
,
0100
1000
0001
0000
1000
0000
0100
0000
0000
0000
0000
0000
0010
0000
0100
0000
,
1000
0001
1000
0000
0010
0000
1000
0000
0000
0000
0000
0000
0001
0000
0100
0000
,
0010
1000
0010
0000
0100
0000
0001
0000
0000
0000
0000
0000
1000
0000
0100
0000
,
1000
0001
0010
0000
0100
0000
1000
0000
0000
0000
0000
0000
0100
0000
0010
0000
,
0001
0010
0100
0000
0010
0000
0001
0000
0000
0000
0000
0000
1000
0000
0001
0000
,
0010
0001
1000
0000
0010
0000
1000
0000
0000
0000
0000
0000
0001
0000
0100
0000
,
0010
0100
0001
0000
1000
0000
0100
0000
0000
0000
0000
0000
0010
0000
0100
0000
,
1000
0001
1000
0000
0010
0000
0100
0000
0000
0000
0000
0000
0001
0000
0100
0000
,
0010
1000
0001
0000
0010
0000
0100
0000
0000
0000
0000
0000
0010
0000
0001
0000
,
1000
0100
1000
0000
0001
0000
0100
0000
0000
0000
0000
0000
0010
0000
1000
0000
,
0100
0010
0100
0000
1000
0000
0001
0000
0000
0000
0000
0000
1000
0000
0001
0000
,
1000
0010
0100
0000
0001
0000
0100
0000
0000
0000
0000
0000
0010
0000
1000
0000
,
0001
0010
0100
1000
0001
0010
0100
1000
0001
1000
0100
0010
0001
1000
0100
0010
,
0100
1000
0001
0010
0001
0100
0010
1000
,
0001
1000
0100
0010
0100
1000
0001
0010
,
0100
1000
0001
0100
0010
0100
0001
0010
,
0001
0100
0010
1000
0100
1000
0001
0010
,
0011
0001
1000
0010
0100
0010
1000
0001
,
0010
0100
0010
0001
1000
0001
0100
0010
,
0100
0001
1000
0010
1000
0100
1000
0001
,
0100
0001
0010
0100
0010
0001
1000
0010
,
1010
1000
0010
0100
0001
1000
0001
0010
,
0100
1000
0001
1000
0010
1000
0100
1000
,
0001
0010
0100
1000
0001
0100
0010
1000
,
0100
1000
0010
0100
0001
0010
0100
1000
,
0100
0010
0001
1000
0010
0100
0001
0100
,
0010
1000
0100
1000
0010
0100
0001
0010
,
0100
1000
0010
0100
0001
1000
0100
0010
,
0001
0010
0100
1000
0001
0100
0010
1000
,
0001
0010
0100
1000
0001
1000
0010
1000
0001
0100
0001
1000
0100
1000
0010
0100
,
0001
1000
0010
1000
0001
0010
0100
0010
0001
1000
0010
0100
0010
1000
0100
0010
,
0001
1000
0010
0100
0010
1000
0001
0010
0100
0010
0001
1000
0100
1000
0010
0100
,
0001
0100
0010
1000
0001
0010
0100
1000
0001
1000
0001
1000
0010
1000
0100
0010
,
0001
1000
0010
1000
0100
1000
0001
0010
0100
0010
0001
1000
0100
1000
0010
0100
,
0001
1000
0010
0100
0001
1000
0100
0010
0001
0010
0001
1000
0010
1000
0100
0010
,
0001
0010
0100
1000
0001
1000
0100
0010
0001
0010
0001
1000
0100
1000
0010
0100
,
0001
0100
0010
1000
0010
0100
0001
1000
0010
1000
0001
0100
0010
1000
0100
0010
,
0001
0100
0010
1000
0001
1000
0100
1000
0001
0010
0001
1000
0100
1000
0010
0100
,
0001
1000
0100
1000
0001
0100
0010
0100
0001
1000
0001
1000
0010
1000
0100
0010
,
0001
1000
0100
0010
0100
1000
0001
0100
0010
0100
0001
1000
0100
1000
0010
0100
,
0001
0010
0100
1000
0001
0100
0010
1000
0001
0100
0001
1000
0010
1000
0100
0010
,
0001
1000
0100
1000
0010
1000
0001
0100
0010
0100
0001
1000
0100
1000
0010
0100
,
0001
1000
0100
0010
0001
1000
0010
0100
0001
0100
0001
1000
0010
1000
0100
0010
,
0001
0010
0100
1000
0001
1000
0100
0010
0001
0010
0001
1000
0100
1000
0010
0100
,
0001
0100
0010
1000
0010
0100
0001
1000
0010
1000
0001
0100
0010
1000
0100
0010
,
0001
1000
0001
1000
0100
1000
0100
1000
0001
1000
0010
1000
0100
1000
0001
1000
,
0100
1000
0001
1000
0001
0100
0001
0100
0001
0010
0001
1000
0010
1000
0001
1000
,
0010
1000
0001
1000
0100
1000
0100
1000
0001
1000
0010
1000
0100
1000
0001
1000
,
0100
1000
0001
1000
0001
0100
0001
0100
0001
0010
0001
1000
0010
1000
0001
1000
,
0010
1000
0001
1000
0100
1000
0100
1000
0001
1000
0010
1000
0100
1000
0001
1000
,
0100
1000
0001
1000
0001
0100
0001
0100
0001
0010
0001
1000
0010
1000
0001
1000
,
0010
1000
0001
1000
0100
1000
0100
1000
0001
1000
0010
1000
0100
1000
0001
1000
,
0100
1000
0001
1000
0001
0100
0001
0100
0001
0010
0001
1000
0010
1000
0001
1000
,
0100
1000
0001
1000
0010
1000
0010
1000
0001
0100
0001
1000
0100
1000
0001
1000
,
0100
1000
0001
1000
0001
0010
0001
0010
0001
0100
0001
1000
0010
1000
0001
1000
,
0010
1000
0001
1000
0010
1000
0010
1000
0001
0100
0001
1000
0100
1000
0001
1000
,
0100
1000
0001
1000
0001
0010
0001
0010
0001
0100
0001
1000
0010
1000
0001
1000
,
0010
1000
0001
1000
0010
1000
0010
1000
0001
0100
0001
1000
0100
1000
0001
1000
,
0100
1000
0001
1000
0001
0010
0001
0010
0001
0100
0001
1000
0010
1000
0001
1000
,
0010
1000
0001
1000
0010
1000
0010
1000
0001
0100
0001
1000
0100
1000
0001
1000
,
0100
1000
0001
1000
0001
0010
0001
0010
0001
0100
0001
1000
0001
0100
0010
1000
,
0001
0100
0001
0100
0010
1000
0001
1000
,
0100
0020
0000
0130
0020
0000
0031
0000
,
1000
0020
0000
1030
0020
0000
0130
0000
,
0001
0100
0001
0100
0010
0100
0001
0100
,
0010
1000
0010
1000
0001
0010
0001
1000
,
0001
0200
0000
0301
0200
0000
0310
0000
,
1000
0020
0000
1030
0020
0000
0130
0000
,
0001
0010
0100
1000
0100
0010
0100
1000
,
0010
0100
0010
0100
0001
1000
0100
1000
,
0010
0200
0000
0310
0200
0000
0301
0000
,
1000
0200
0000
1300
0200
0000
0310
0000
,
0001
0010
0001
1000
0001
0010
0001
1000
,
0010
1000
0010
1000
0001
0100
0010
0100
,
0001
0020
0000
0031
0020
0000
0130
0000
,
1000
0002
0000
1003
0002
0000
0103
0000
,
0010
1000
0010
0100
0001
1000
0001
0100
0010
1000
0001
0100
0010
1000
0001
0100
,
0010
1000
0001
0010
0100
0010
0001
1000
0010
0100
0010
1000
0001
1000
0100
1000
,
0001
0010
0001
1000
0001
0010
0001
1000
0001
0100
0001
0100
0001
1000
0001
1000
,
0010
1000
0001
1000
0010
1000
0001
1000
0010
0100
0010
0100
0001
1000
0001
1000
,
0010
1000
0001
1000
0100
1000
0001
1000
0100
1000
0001
1000
0010
1000
0001
1000
,
0100
0010
0001
0010
0100
0010
0001
1000
0010
0100
0010
1000
0001
1000
0100
1000
,
0001
0010
0001
1000
0001
0010
0001
1000
0001
0100
0001
0100
0001
1000
0001
1000
,
0010
1000
0001
1000
0010
1000
0001
1000
0010
0100
0010
0100
0001
1000
0001
1000
,
0100
1000
0001
1000
0010
1000
0001
1000
0010
1000
0001
1000
0100
1000
0001
1000
,
0010
1000
0001
0010
0100
0010
0001
1000
0010
0100
0010
1000
0001
1000
0100
1000
,
0001
0010
0001
1000
0001
0010
0001
1000
0001
0100
0001
0100
0001
1000
0001
1000
,
0010
1000
0001
1000
0010
1000
0001
1000
0010
0100
0010
0100
0001
1000
0001
1000
,
0010
1000
0001
1000
0100
1000
0001
1000
0100
1000
0001
1000
0010
1000
0001
1000
,
0100
1000
0001
0010
0100
0010
0001
1000
0010
0100
0010
1000
0001
1000
0100
1000
,
0001
0010
0001
1000
0001
0010
0001
1000
0001
0100
0001
0100
0001
1000
0001
1000
,
0010
1000
0001
1000
0010
1000
0001
1000
0010
0100
0010
0100
0001
1000
0001
1000
,
0010
1000
0001
1000
0100
0010
0001
1000
0100
0010
0001
1000
0100
0010
0001
1000
,
0100
0000
1000
0000
0001
0000
1000
0000
0100
0000
1000
0000
0010
0100
0010
0000
,
0100
0001
0100
0000
0001
0000
1000
0000
0001
0000
0100
0000
0001
0010
0001
0000
,
0010
0100
0010
0000
0100
0000
1000
0000
0100
0000
0010
0000
0100
1000
0100
0000
,
1000
0001
1000
0000
0001
0000
0100
0000
0010
0000
0100
0000
0001
0010
0001
0000
,
1000
0100
1000
0000
0001
0000
1000
0000
0010
0000
1000
0000
0001
0100
0001
0000
,
0100
0010
0100
0000
0010
0000
1000
0000
0001
0000
1000
0000
0010
0100
0010
0000
,
0100
0001
0100
0000
0001
0000
0010
0000
0001
0000
0100
0000
0001
1000
0001
0000
,
1000
0100
1000
0000
0001
0000
1000
0000
0100
0000
1000
0000
0001
0010
0001
0000
,
1000
0100
1000
0000
0001
1000
0001
0000
0100
0001
0100
0000
0010
1000
0001
0000
,
0100
0001
0100
0000
0010
0100
0010
0000
1000
0010
1000
0000
0010
0100
0001
0000
,
1000
0001
1000
0000
0001
0100
0001
0000
1000
0100
1000
0000
0001
0010
0100
0000
,
1000
0100
1000
0000
0001
0010
0001
0000
1000
0010
1000
0000
0010
0100
0001
0000
,
1000
0001
1000
0000
0001
0100
0001
0000
0100
0010
0100
0000
0010
1000
0001
0000
,
0010
0100
0010
0000
0100
1000
0100
0000
1000
0001
1000
0000
0100
0010
0001
0000
,
1000
0100
0010
0001
1000
0100
0010
0001
,
1000
0000
0100
0000
0010
0001
0010
0100
1000
0100
0010
0001
1000
0100
0010
0100
,
2000
0000
3001
0200
0000
0310
1000
0002
,
0000
0000
0013
0200
0000
1300
0100
0020
,
0000
0000
0031
2000
0000
3010
0100
0002
,
0000
0000
1003
0200
0000
0000
0000
0000
,
0000
0300
1000
0200
0000
0000
0000
0000
,
0000
0300
0000
0000
0000
0000
0000
0000
;

//---------------dance-single - 12 (Zaia)----------------
#NOTES:
     dance-single:
     12 (Zaia):
     Medium:
     12:
     0.932,1.000,0.105,0.327,0.623,1921.000,33.000,103.000,0.000,0.000:
1000
0100
0010
0001
1001
0000
1100
0000
,
1001
1010
0101
1001
,
1010
1001
0011
1100
,
1001
0101
0110
1001
,
0001
0010
0100
1000
1010
0000
1001
0000
,
1100
0011
0110
1001
,
0101
1010
1001
0011
,
1100
0110
0011
1001
,
0001
2000
3100
0020
0031
2000
3001
0200
,
0301
2000
3010
2000
3001
2000
3100
0020
,
0130
2000
3001
0200
0310
0200
0301
2000
,
3010
2000
3001
2000
3100
2000
3001
0020
,
0031
2000
3001
0200
0301
2000
3010
0200
,
0310
2000
3001
0020
0130
0020
0031
2000
,
3010
2000
3001
2000
3100
2000
3001
0020
,
0031
0000
2000
0000
3001
0000
0200
0000
0301
0000
1000
0001
1000
0000
0001
0000
,
0100
0010
0100
0000
0010
1000
0010
0000
1000
0001
1000
0000
0100
0010
0001
0000
,
1000
0100
1000
0000
0001
0010
0001
0000
1000
0001
1000
0000
0001
0010
0100
0000
,
1000
0100
1000
0000
0100
0010
0100
0000
0010
0001
0010
0000
0001
1000
0010
0000
,
0100
0001
0100
0000
0010
1000
0010
0000
1000
0001
1000
0000
0010
0100
0001
0000
,
1000
0100
1000
0000
0001
0010
0001
0000
1000
0010
1000
0000
0001
0100
0010
0000
,
1000
0001
1000
0000
0001
0100
0001
0000
0100
0010
0100
0000
0010
1000
0001
0000
,
0010
0100
0010
0000
0100
1000
0100
0000
1000
0001
1000
0000
0100
0010
0001
0000
,
1000
0100
1000
0000
0001
0100
0001
0000
1000
0100
1000
0000
0001
1000
0010
0000
,
0100
0001
0100
0000
0010
1000
0010
0000
1000
0001
1000
0000
0010
0100
0001
0000
,
1000
0010
1000
0000
0001
0100
0001
0000
1000
0100
1000
0000
0001
0010
0100
0000
,
1000
0001
1000
0000
0001
0100
0001
0000
0100
0010
0100
0000
0010
1000
0001
0000
,
1000
0100
1000
0000
0100
0010
0100
0000
0010
0001
0010
0000
0001
1000
0010
0000
,
0100
0010
0100
0000
0010
1000
0010
0000
1000
0001
1000
0000
0010
0100
0001
0000
,
1000
0100
1000
0000
0001
0010
0001
0000
1000
0010
1000
0000
0010
0100
0001
0000
,
0010
0100
0010
0000
0001
1000
0001
0000
0010
0100
0010
0000
0001
0100
0010
0000
,
1000
0010
1000
0001
1000
0010
0100
0001
1000
0010
1000
0001
0100
0001
0100
0010
,
1000
0000
0000
0000
,
0000
0000
0000
0000
,
1002
0000
0000
2003
0000
0000
3020
0000
,
0000
0000
0030
0000
,
0200
0000
0000
0302
0000
0000
2003
0000
,
0000
0000
3000
0000
,
0200
0000
0000
0320
0000
0000
0032
0000
,
0000
0000
0003
0000
,
2000
0000
0000
3020
0000
0000
2030
0000
,
3200
0000
0000
0000
0000
0000
0000
0000
0000
0000
0000
0000
0000
0000
0000
0000
0000
0000
0000
0000
0000
0000
0000
0000
0320
0000
0000
0000
0000
0000
0000
0000
0000
0000
0000
0000
0000
0000
0000
0000
0000
0000
0000
0000
0000
0000
0000
0000
0032
0000
0000
0000
0000
0000
0000
0000
0000
0000
0000
0000
0000
0000
0000
0003
,
2001
0000
0000
3002
0000
0000
2003
0000
,
3200
0000
0000
0320
0000
0000
0032
0000
,
2003
0000
0000
3020
0000
0000
0230
0000
,
0302
0000
0000
0023
0000
0000
0230
0000
,
2300
0000
0000
3002
0000
0000
0023
0000
,
0230
0000
0000
2300
0000
0000
3020
0000
,
0230
0000
0000
0302
0000
0000
0023
0000
,
0230
0000
0000
0000
0000
0000
0000
0000
0000
0000
0000
0000
0000
0000
0000
0000
0000
0000
0000
0000
0000
0000
0000
0000
2300
0000
0000
0000
0000
0000
0000
0000
0000
0000
0000
0000
0000
0000
0000
0000
0000
0000
0000
0000
0000
0000
0000
0000
3020
0000
0000
0000
0000
0000
0000
0000
0000
0000
0000
0000
0000
0000
0000
0030
,
0110
0100
0001
0100
0010
1000
0001
0100
,
0001
1000
1000
0010
1000
1000
0100
0010
,
0001
0010
0010
0100
0010
0010
0001
1000
,
0010
0100
0001
0100
0010
0100
0001
0010
,
0100
1000
0010
1000
0001
1000
0100
0010
,
0001
0100
0100
0010
0100
0100
0001
0010
,
0100
1000
1000
0010
1000
1000
0100
1000
,
0001
0100
0001
0010
0001
0100
0001
0010
,
0100
1000
0001
1000
0100
1000
0001
1000
,
0010
0100
0001
1000
0001
0100
0001
1000
,
0001
0010
0001
1000
0100
0010
0001
1000
,
0010
0100
0001
0100
0010
1000
0001
0010
,
0001
0100
0001
0010
0001
0100
0010
1000
,
0001
1000
0100
1000
0010
1000
0100
1000
,
0010
0100
0001
0100
0010
1000
0001
1000
0010
0100
0001
1000
0001
1000
0100
0010
,
0001
1000
0001
0010
0001
1000
0100
0010
0100
1000
0001
1000
0001
1000
0010
0100
,
0002
0000
0000
0003
,
1000
0010
1000
0000
0001
0100
0001
0000
0100
0000
0010
0000
1000
0000
0001
0000
,
0010
0100
0010
0000
0100
1000
0100
0000
1000
0000
0001
0000
0100
0000
0010
0000
,
1000
0010
1000
0000
0001
0010
0001
0000
0100
0000
0010
0000
1000
0000
0001
0000
,
0010
0100
0010
0000
0100
1000
0100
0000
1000
0000
0100
0000
0010
0000
0001
0000
,
1000
0001
1000
0000
0100
0010
0100
0000
0010
0000
0001
0000
1000
0000
0100
0000
,
0010
0001
0010
0000
0100
1000
0100
0000
1000
0000
0010
0000
1000
0000
0100
0000
,
0010
0001
0010
0000
0001
1000
0001
0000
0010
0000
0100
0000
1000
0000
0001
0000
,
1000
0010
1000
0000
0001
0010
0001
0000
1000
0000
0100
0000
0010
0000
0100
0000
,
1000
0001
0100
0000
0010
1000
0001
0000
1000
0000
0100
0000
0010
0000
0100
0000
,
1000
0010
0100
0000
0001
1000
0010
0000
0100
0000
0001
0000
0010
0000
0001
0000
,
0100
0010
1000
0000
0001
0010
0100
0000
1000
0000
0001
0000
0100
0000
0010
0000
,
1000
0010
0100
0000
0001
0010
0100
0000
1000
0000
0100
0000
0010
0000
0100
0000
,
1000
0001
0010
0000
0001
1000
0010
0000
0100
0000
0001
0000
1000
0000
0010
0000
,
0100
0001
0010
0000
0100
1000
0010
0000
1000
0000
0010
0000
0100
0000
0001
0000
,
1000
0100
0010
0000
0001
0100
0010
0000
1000
0000
0001
0000
1000
0000
0010
0000
,
0100
0010
0100
0000
0001
1000
0001
0000
0010
0100
1000
0001
1000
0010
1000
0001
,
0100
0001
1000
0100
1000
0001
1000
0100
,
0020
0100
0130
2000
0001
3001
0100
0010
,
2000
0001
3001
2000
0010
3010
0100
0001
,
1000
0100
1000
0010
1000
0001
1000
0010
,
0100
0001
0100
0010
1000
0001
0010
0100
,
0020
0001
0031
2000
0010
3010
0100
0001
,
0020
0100
0130
2000
0001
3001
1000
0010
,
0100
0001
0010
0001
1000
0001
0100
0001
,
0010
0100
1000
0001
0100
0010
0100
0001
,
2000
0100
3100
2000
0001
3001
0100
0010
,
2000
0001
3001
0020
0100
0130
1000
0010
,
1000
0100
1000
0001
1000
0010
1000
0100
,
0010
0001
0010
0001
1000
0010
1000
0001
,
0200
0001
0301
0200
0010
0310
1000
0001
,
0020
0100
0130
2000
0001
3001
0100
0010
,
1000
0000
0001
0000
0010
0001
1000
0001
0010
0100
0010
0001
1000
0001
0010
0100
,
2000
0000
0000
0000
0000
0000
3010
1000
,
0010
0100
0001
0000
1000
0000
0100
0000
0000
0000
0000
0000
0010
0000
0001
0000
,
1000
0010
0100
0000
0010
0000
1000
0000
0000
0000
0000
0000
0100
0000
0010
0000
,
0001
0010
0100
0000
1000
0000
0001
0000
0000
0000
0000
0000
0100
0000
0010
0000
,
0100
0001
1000
0000
0001
0000
0010
0000
0000
0000
0000
0000
0100
0000
0010
0000
,
0001
1000
0001
0000
0100
0000
0001
0000
0000
0000
0000
0000
1000
0000
0010
0000
,
0100
0010
0100
0000
0010
0000
1000
0000
0000
0000
0000
0000
0100
0000
0010
0000
,
0001
1000
0100
0000
0010
0000
0001
0000
0000
0000
0000
0000
0010
0000
0100
0000
,
1000
0100
0010
0000
0100
0000
1000
0000
0000
0000
0000
0000
0001
0000
1000
0000
,
0100
1000
0001
0000
0100
0000
0001
0000
0000
0000
0000
0000
1000
0000
0010
0000
,
0100
0010
1000
0000
0100
0000
0010
0000
0000
0000
0000
0000
0001
0000
0010
0000
,
0100
1000
0100
0000
1000
0000
0001
0000
0000
0000
0000
0000
0100
0000
0010
0000
,
0100
0010
1000
0000
0001
0000
0100
0000
0000
0000
0000
0000
0010
0000
1000
0000
,
0001
0010
0001
0000
1000
0000
0100
0000
0000
0000
0000
0000
1000
0000
0001
0000
,
0100
0010
0100
0000
0010
0000
1000
0000
0000
0000
0000
0000
0001
0000
1000
0000
,
0001
0100
0010
0000
1000
0000
0010
0000
0000
0000
0000
0000
0100
0000
0010
0000
,
1000
0010
0100
0001
1000
0010
0100
0001
1000
0001
0100
0010
1000
0001
0100
0010
,
0100
0010
1000
0100
1000
0010
0100
0001
,
1000
0001
0010
0100
0010
0001
1000
0100
,
0010
0001
1000
0010
0100
0010
1000
0100
,
1000
0010
0100
0001
0010
0001
1000
0100
,
1100
1000
0001
0100
0010
0100
0001
1000
,
0100
0010
0100
1000
0001
1000
0010
0100
,
0010
1000
0001
0100
0001
0010
0001
1000
,
0010
1000
0100
0010
0100
1000
0001
0100
,
0101
0001
0100
0010
1000
0001
1000
0100
,
0010
0001
1000
0001
0100
0001
0010
0001
,
1000
0100
0010
0001
1000
0010
0100
0001
,
0010
0001
0100
0010
1000
0100
0010
0001
,
0010
0100
1000
0001
0100
0010
1000
0010
,
0100
0001
0010
0001
0100
0010
1000
0100
,
0010
0001
0100
0010
1000
0001
0010
0100
,
1000
0000
0100
0000
0010
0001
1000
0100
1000
0001
1000
0010
0100
0010
1000
0001
,
1000
0010
1000
0000
0001
0100
0001
0000
0100
0000
0010
0000
1000
0000
0001
0000
,
0010
0100
0010
0000
0100
1000
0100
0000
1000
0000
0001
0000
0100
0000
0010
0000
,
1000
0010
1000
0000
0001
0010
0001
0000
0100
0000
0010
0000
1000
0000
0001
0000
,
0010
0100
0010
0000
0100
1000
0100
0000
1000
0000
0100
0000
0010
0000
0001
0000
,
1000
0001
1000
0000
0100
0010
0100
0000
0010
0000
0001
0000
1000
0000
0100
0000
,
0010
0001
0010
0000
0100
1000
0100
0000
1000
0000
0010
0000
1000
0000
0100
0000
,
0010
0001
0010
0000
0001
1000
0001
0000
0010
0000
0100
0000
1000
0000
0001
0000
,
1000
0010
1000
0000
0001
0010
0001
0000
1000
0000
0100
0000
0010
0000
0100
0000
,
1000
0001
0100
0000
0010
1000
0001
0000
1000
0000
0100
0000
0010
0000
0100
0000
,
1000
0010
0100
0000
0001
1000
0010
0000
0100
0000
0001
0000
0010
0000
0001
0000
,
0100
0010
1000
0000
0001
0010
0100
0000
1000
0000
0001
0000
0100
0000
0010
0000
,
1000
0010
0100
0000
0001
0010
0100
0000
1000
0000
0100
0000
0010
0000
0100
0000
,
1000
0001
0010
0000
0001
1000
0010
0000
0100
0000
0001
0000
1000
0000
0010
0000
,
0100
0001
0010
0000
0100
1000
0010
0000
1000
0000
0010
0000
0100
0000
0001
0000
,
1000
0100
0010
0000
0001
0100
0010
0000
1000
0000
0001
0000
1000
0000
0010
0000
,
0100
0010
0100
0000
0001
1000
0001
0000
0010
0100
1000
0001
1000
0100
1000
0001
,
1000
0010
1000
0010
1000
0001
1000
0001
0010
0000
0100
0000
0010
0000
0001
0000
,
1000
0001
1000
0001
0100
0010
0100
0010
1000
0000
0001
0000
0010
0000
0100
0000
,
0010
0001
0010
0001
1000
0001
1000
0001
0100
0000
0010
0000
1000
0000
0010
0000
,
0100
0001
0100
0001
1000
0010
1000
0010
0100
0000
0001
0000
0010
0000
0100
0000
,
1000
0100
1000
0100
0010
0001
0010
0001
1000
0000
0100
0000
0010
0000
0100
0000
,
1000
0001
1000
0001
1000
0010
1000
0010
0100
0000
0001
0000
1000
0000
0100
0000
,
0010
0100
0010
0100
1000
0001
1000
0001
0100
0000
0010
0000
1000
0000
0001
0000
,
0010
0100
0010
0100
0010
0001
0010
0001
1000
0000
0010
0000
1000
0000
0001
0000
,
1000
0010
1000
0010
0100
0001
0100
0001
1000
0000
0100
0000
0010
0000
0100
0000
,
1000
0001
1000
0001
0010
0100
0010
0100
1000
0000
0001
0000
0100
0000
0010
0000
,
1000
0010
1000
0010
1000
0001
1000
0001
0100
0000
0010
0000
1000
0000
0001
0000
,
0010
0001
0010
0001
1000
0100
1000
0100
0010
0000
0100
0000
1000
0000
0001
0000
,
0010
0001
0010
0001
1000
0010
1000
0010
0100
0000
0001
0000
0010
0000
0001
0000
,
1000
0001
1000
0001
0010
0100
0010
0100
1000
0000
0001
0000
0100
0000
0010
0000
,
0100
0001
0100
0001
1000
0001
1000
0001
0010
0000
0100
0000
1000
0000
0100
0000
,
0010
0001
0010
0001
1000
0100
1000
0100
0010
0000
0001
0000
0100
0000
0010
0000
,
1000
0010
1000
0010
0100
0001
0100
0001
1000
0000
0010
0000
0100
0000
0010
0000
,
1000
0001
1000
0001
1000
0100
1000
0100
0010
0000
0001
0000
1000
0000
0010
0000
,
0100
0010
0100
0010
1000
0001
1000
0001
0010
0000
0100
0000
1000
0000
0001
0000
,
0100
0010
0100
0010
0100
0001
0100
0001
1000
0000
0100
0000
1000
0000
0001
0000
,
1000
0100
1000
0100
0010
0001
0010
0001
1000
0000
0010
0000
0100
0000
0010
0000
,
1000
0001
1000
0001
0100
0010
0100
0010
1000
0000
0001
0000
0010
0000
0100
0000
,
1000
0100
1000
0100
1000
0001
1000
0001
0010
0000
0100
0000
1000
0000
0001
0000
,
0100
0001
0100
0001
1000
0010
1000
0010
0100
0000
0010
0000
1000
0000
0001
0000
,
0100
0100
0010
0100
0001
1000
0100
1000
,
0010
0200
0000
0310
0200
0000
0301
0000
,
1000
0200
0000
1300
0200
0000
0310
0000
,
0001
0010
0001
1000
0001
0010
0001
1000
,
0010
1000
0010
1000
0001
0100
0010
0100
,
0001
0020
0000
0031
0020
0000
0130
0000
,
1000
0002
0000
1003
0002
0000
0103
0000
,
0010
0000
1000
0000
0010
0000
0100
0000
0010
1000
0001
0100
0010
1000
0001
0100
,
0010
1000
0010
0000
0100
0001
0100
0000
0010
0000
1000
0000
0001
0000
0010
0000
,
0100
1000
0100
0000
1000
0001
1000
0000
0100
0000
0010
0000
0100
0000
1000
0000
,
0100
1000
0100
0000
0010
0001
0010
0000
0001
0000
1000
0000
0010
0000
0100
0000
,
0001
1000
0001
0100
0001
1000
0001
0010
0001
1000
0001
0010
0001
1000
0001
1000
,
0010
0100
0010
0000
1000
0010
1000
0000
0001
0000
1000
0000
0100
0000
1000
0000
,
0001
0010
0001
0000
1000
0010
1000
0000
0001
0000
0010
0000
0100
0000
1000
0000
,
0001
0100
0001
0000
0010
0100
0010
0000
0100
0000
1000
0000
0001
0000
0010
0000
,
0001
1000
0001
0010
0100
1000
0100
0010
0100
1000
0001
0010
0100
0010
0001
0010
,
0100
1000
0001
0000
0010
0001
1000
0000
0010
0000
0100
0000
0001
0000
1000
0000
,
0100
0010
0001
0000
1000
0010
0100
0000
0001
0000
1000
0000
0100
0000
0010
0000
,
0100
1000
0001
0000
0100
0010
1000
0000
0010
0000
0100
0000
0001
0000
1000
0000
,
0010
0100
0001
1000
0010
0100
0001
1000
0010
1000
0001
1000
0010
1000
0001
1000
,
0010
0100
0001
0000
0010
0100
1000
0000
0001
0000
1000
0000
0010
0000
0100
0000
,
0001
0100
0010
0000
1000
0100
0010
0000
0001
0000
1000
0000
0100
0000
1000
0000
,
0010
0100
0001
0000
1000
0100
0010
0000
0001
0000
0010
0000
0100
0000
1000
0000
,
0001
1000
0001
1000
0100
0010
0001
1000
0001
0010
0001
1000
0001
0010
0100
1000
,
0001
0000
1000
0000
0001
0000
1000
0000
0100
0000
1000
0000
0010
0100
0010
0000
,
0100
0001
0100
0000
0001
0000
1000
0000
0001
0000
0100
0000
0001
0010
0001
0000
,
0010
0100
0010
0000
0100
0000
1000
0000
0100
0000
0010
0000
0100
1000
0100
0000
,
1000
0001
1000
0000
0001
0000
0100
0000
0010
0000
0100
0000
0001
0010
0001
0000
,
1000
0100
1000
0000
0001
0000
1000
0000
0010
0000
1000
0000
0001
0100
0001
0000
,
0100
0010
0100
0000
0010
0000
1000
0000
0001
0000
1000
0000
0010
0100
0010
0000
,
0100
0001
0100
0000
0001
0000
0010
0000
0001
0000
0100
0000
0001
1000
0001
0000
,
1000
0100
1000
0000
0001
0000
1000
0000
0100
0000
1000
0000
0001
0010
0001
0000
,
1000
0100
1000
0000
0001
1000
0001
0000
0100
0001
0100
0000
0010
1000
0001
0000
,
0100
0001
0100
0000
0010
0100
0010
0000
1000
0010
1000
0000
0010
0100
0001
0000
,
1000
0001
1000
0000
0001
0100
0001
0000
1000
0100
1000
0000
0001
0010
0100
0000
,
1000
0100
1000
0000
0001
0010
0001
0000
1000
0010
1000
0000
0010
0100
0001
0000
,
1000
0001
1000
0000
0001
0100
0001
0000
0100
0010
0100
0000
0010
1000
0001
0000
,
0010
0100
0010
0000
0100
1000
0100
0000
1000
0001
1000
0000
0100
0010
0001
0000
,
1000
0100
0010
0001
1000
0100
0010
0001
,
1000
0000
0100
0000
0010
0001
0010
0100
1000
0100
0010
0001
1000
0100
0010
0100
,
2000
0000
3001
0200
0000
0310
1000
0002
,
0000
0000
0013
0200
0000
1300
0100
0020
,
0000
0000
0031
2000
0000
3010
0100
0002
,
0000
0000
1003
0200
0000
0000
0000
0000
,
0000
0300
0000
0000
0000
0000
0000
0000
;

//---------------dance-single - 9 (Zaia)----------------
#NOTES:
     dance-single:
     9 (Zaia):
     Easy:
     9:
     0.784,0.857,0.098,0.577,0.024,1519.000,31.000,182.000,0.000,0.000:
1000
0100
0010
0001
1001
0000
1100
0000
,
1001
1010
0101
1001
,
1010
1001
0011
1100
,
1001
0101
0110
1001
,
0001
0010
0100
1000
1010
0000
1001
0000
,
1100
0011
0110
1001
,
0101
1010
1001
0011
,
1100
0110
0011
1001
,
0001
2000
3100
0020
0031
2000
3001
0200
,
0301
2000
3010
2000
3001
2000
3100
0020
,
0130
2000
3001
0200
0310
0200
0301
2000
,
3010
2000
3001
2000
3100
2000
3001
0020
,
0031
2000
3001
0200
0301
2000
3010
0200
,
0310
2000
3001
0020
0130
0020
0031
2000
,
3010
2000
3001
2000
3100
2000
3001
0020
,
0031
2000
3001
0200
0301
1000
0010
0010
,
0100
0001
1000
0100
0010
0100
1000
0001
,
0100
0010
0100
0001
1000
0100
0010
0001
,
0010
0100
1000
0001
0100
0010
1000
0010
,
0100
0001
1000
0010
0100
0001
1000
0010
,
1000
0001
0010
0001
1000
0100
1000
0010
,
0100
0010
1000
0100
1000
0010
0100
0010
,
1000
0001
0010
0100
1000
0001
1000
0100
,
0010
0001
0100
0010
0100
0001
0010
0100
,
0010
0001
0100
0010
0100
0001
0010
0100
,
1000
0001
1000
0100
0010
0100
1000
0001
,
0100
0010
1000
0001
1000
0010
0100
0001
,
1000
0010
0100
0010
1000
0001
0010
0100
,
0010
0001
0100
0010
1000
0100
0010
0100
,
1000
0010
0100
0001
0100
0010
1000
0001
,
0010
0100
1000
0001
0010
0100
1000
0100
,
0010
0001
1000
0010
1000
0010
0100
0001
,
1000
0000
0000
0000
,
0000
0000
0000
0000
,
1002
0000
0000
2003
0000
0000
3020
0000
,
0000
0000
0030
0000
,
0200
0000
0000
0302
0000
0000
2003
0000
,
0000
0000
3000
0000
,
0200
0000
0000
0320
0000
0000
0032
0000
,
0000
0000
0003
0000
,
2000
0000
0000
3020
0000
0000
2030
0000
,
3200
0000
0000
0000
0000
0000
0000
0000
0000
0000
0000
0000
0000
0000
0000
0000
0000
0000
0000
0000
0000
0000
0000
0000
0320
0000
0000
0000
0000
0000
0000
0000
0000
0000
0000
0000
0000
0000
0000
0000
0000
0000
0000
0000
0000
0000
0000
0000
0032
0000
0000
0000
0000
0000
0000
0000
0000
0000
0000
0000
0000
0000
0000
0003
,
2001
0000
0000
3002
0000
0000
2003
0000
,
3200
0000
0000
0320
0000
0000
0032
0000
,
2003
0000
0000
3020
0000
0000
0230
0000
,
0302
0000
0000
0023
0000
0000
0230
0000
,
2300
0000
0000
3002
0000
0000
0023
0000
,
0230
0000
0000
2300
0000
0000
3020
0000
,
0230
0000
0000
0302
0000
0000
0023
0000
,
0230
0000
0000
0000
0000
0000
0000
0000
0000
0000
0000
0000
0000
0000
0000
0000
0000
0000
0000
0000
0000
0000
0000
0000
2300
0000
0000
0000
0000
0000
0000
0000
0000
0000
0000
0000
0000
0000
0000
0000
0000
0000
0000
0000
0000
0000
0000
0000
3020
0000
0000
0000
0000
0000
0000
0000
0000
0000
0000
0000
0000
0000
0000
0030
,
0110
0100
0001
0100
0010
1000
0001
0100
,
0001
1000
1000
0010
1000
1000
0100
0010
,
0001
0010
0010
0100
0010
0010
0001
1000
,
0010
0100
0001
0100
0010
0100
0001
0010
,
0100
1000
0010
1000
0001
1000
0100
0010
,
0001
0100
0100
0010
0100
0100
0001
0010
,
0100
1000
1000
0010
1000
1000
0100
1000
,
0001
0100
0001
0010
0001
0100
0001
0010
,
0100
1000
0001
1000
0100
1000
0001
1000
,
0010
0100
0001
1000
0001
0100
0001
1000
,
0001
0010
0001
1000
0100
0010
0001
1000
,
0010
0100
0001
0100
0010
1000
0001
0010
,
0001
0100
0001
0010
0001
0100
0010
1000
,
0001
1000
0100
1000
0010
1000
0100
1000
,
0010
0100
0001
0100
0010
1000
0001
0010
,
0001
1000
0001
0100
0010
1000
0001
0100
,
0002
0000
0000
0003
,
1000
0010
0100
0001
0010
0001
0100
0010
,
1000
0100
0010
0100
1000
0010
0100
0010
,
1000
0100
0010
0001
0010
0100
1000
0001
,
0100
0010
0100
0001
0010
0100
0010
0001
,
0100
0010
1000
0010
0100
0010
0100
0001
,
1000
0100
0010
0100
0010
0001
0010
0100
,
1000
0001
0100
0010
1000
0001
1000
0010
,
0100
0001
1000
0100
0010
0100
1000
0010
,
0100
0010
1000
0100
0010
0001
1000
0001
,
0010
0100
0010
0001
1000
0010
0100
0010
,
1000
0100
0010
0100
0010
0001
1000
0010
,
0100
0010
1000
0100
0010
0001
0100
0001
,
1000
0010
1000
0001
0010
0001
1000
0100
,
1000
0010
0100
0010
0100
0001
0100
0010
,
1000
0001
0010
0100
1000
0001
1000
0100
,
0010
0100
1000
0001
0010
0001
1000
0010
,
0100
0001
1000
0100
1000
0001
1000
0100
,
0020
0100
0130
2000
0001
3001
0100
0010
,
2000
0001
3001
2000
0010
3010
0100
0001
,
1000
0100
1000
0010
1000
0001
1000
0010
,
0100
0001
0100
0010
1000
0001
0010
0100
,
0020
0001
0031
2000
0010
3010
0100
0001
,
0020
0100
0130
2000
0001
3001
1000
0010
,
0100
0001
0010
0001
1000
0001
0100
0001
,
0010
0100
1000
0001
0100
0010
0100
0001
,
2000
0100
3100
2000
0001
3001
0100
0010
,
2000
0001
3001
0020
0100
0130
1000
0010
,
1000
0100
1000
0001
1000
0010
1000
0100
,
0010
0001
0010
0001
1000
0010
1000
0001
,
0200
0001
0301
0200
0010
0310
1000
0001
,
0020
0100
0130
2000
0001
3001
0100
0010
,
1000
0001
0010
0100
0010
0001
0100
0010
,
2000
0000
0000
0000
0000
0000
3010
1000
,
0010
0100
0001
0000
1000
0000
0100
0000
0000
0000
0000
0000
0010
0000
0001
0000
,
1000
0010
0100
0000
0010
0000
1000
0000
0000
0000
0000
0000
0100
0000
0010
0000
,
0001
0010
0100
0000
1000
0000
0001
0000
0000
0000
0000
0000
0100
0000
0010
0000
,
0100
0001
1000
0000
0001
0000
0010
0000
0000
0000
0000
0000
0100
0000
0010
0000
,
0001
1000
0001
0000
0100
0000
0001
0000
0000
0000
0000
0000
1000
0000
0010
0000
,
0100
0010
0100
0000
0010
0000
1000
0000
0000
0000
0000
0000
0100
0000
0010
0000
,
0001
1000
0100
0000
0010
0000
0001
0000
0000
0000
0000
0000
0010
0000
0100
0000
,
1000
0100
0010
0000
0100
0000
1000
0000
0000
0000
0000
0000
0001
0000
1000
0000
,
0100
1000
0001
0000
0100
0000
0001
0000
0000
0000
0000
0000
1000
0000
0010
0000
,
0100
0010
1000
0000
0100
0000
0010
0000
0000
0000
0000
0000
0001
0000
0010
0000
,
0100
1000
0100
0000
1000
0000
0001
0000
0000
0000
0000
0000
0100
0000
0010
0000
,
0100
0010
1000
0000
0001
0000
0100
0000
0000
0000
0000
0000
0010
0000
1000
0000
,
0001
0010
0001
0000
1000
0000
0100
0000
0000
0000
0000
0000
1000
0000
0001
0000
,
0100
0010
0100
0000
0010
0000
1000
0000
0000
0000
0000
0000
0001
0000
1000
0000
,
0001
0100
0010
0000
1000
0000
0010
0000
0000
0000
0000
0000
0100
0000
0010
0000
,
1000
0000
0010
0000
0100
0000
0001
0000
1000
0000
0010
0000
0200
0300
0002
0003
,
2000
3000
0010
0000
1000
0000
0100
0000
1000
0000
0010
0000
0200
0300
0002
0003
,
2000
3000
0001
0000
0010
0000
0100
0000
0010
0000
0001
0000
2000
3000
0200
0300
,
0020
0030
0001
0000
1000
0000
0010
0000
0100
0000
0010
0000
2000
3000
0200
0300
,
2000
3000
0010
0000
0100
0000
0001
0000
0010
0000
0001
0000
2000
3000
0200
0300
,
0020
0030
0001
0000
1000
0000
0010
0000
0100
0000
0010
0000
2000
3000
0002
0003
,
0020
0030
0100
0000
0010
0000
0001
0000
1000
0000
0001
0000
0200
0300
0020
0030
,
0200
0300
0001
0000
1000
0000
0010
0000
1000
0000
0100
0000
2000
3000
0002
0003
,
0200
0300
0001
0000
0010
0000
0100
0000
0010
0000
0001
0000
2000
3000
0010
0000
,
0200
0300
0001
0000
0100
0000
0010
0000
1000
0000
0001
0000
2000
3000
0200
0300
,
0020
0030
0001
0000
1000
0000
0001
0000
0100
0000
0001
0000
0020
0030
0002
0003
,
2000
3000
0100
0000
0010
0000
0001
0000
1000
0000
0010
0000
0200
0300
0002
0003
,
0020
0030
0001
0000
0100
0000
0010
0000
1000
0000
0100
0000
0020
0030
0002
0003
,
0020
0030
0100
0000
1000
0000
0001
0000
0100
0000
0010
0000
2000
3000
0020
0030
,
0200
0300
0001
0000
0010
0000
0001
0000
0100
0000
0010
0000
2000
3000
0200
0300
,
0020
0030
0001
0000
0100
0000
0010
0000
1000
0000
0001
0000
0020
0030
0200
0300
,
2000
3000
0100
0000
0010
0000
0001
0000
1000
0000
0010
0000
0100
0000
0001
0000
,
1000
1000
0001
0001
0100
0010
1000
0001
,
0010
0010
0100
0100
1000
0001
0100
0010
,
1000
1000
0001
0001
0100
0010
1000
0001
,
0010
0010
0100
0100
1000
0100
0010
0001
,
1000
1000
0100
0100
0010
0001
1000
0100
,
0010
0010
0100
0100
1000
0010
1000
0100
,
0010
0010
0001
0001
0010
0100
1000
0001
,
1000
1000
0001
0001
1000
0100
0010
0100
,
1000
1000
0010
0010
1000
0100
0010
0100
,
1000
1000
0001
0001
0100
0001
0010
0001
,
0100
0100
0001
0001
1000
0001
0100
0010
,
1000
1000
0001
0001
1000
0100
0010
0100
,
1000
0100
1000
0100
0010
0001
0100
0010
,
0100
0001
0010
0100
1000
0001
0010
0001
,
1000
0010
1000
0001
0100
0001
1000
0010
,
1000
0100
1000
0010
0100
0001
0100
0010
,
1000
0001
0010
0100
0010
0001
1000
0010
,
0100
0002
0000
0103
0002
0000
2003
0000
,
3100
0020
0000
0130
0020
0000
0230
0000
,
1300
0010
1000
0001
1000
0010
1000
0001
,
0100
0010
1000
0001
0010
0100
0010
0001
,
1000
0020
0000
1030
0020
0000
0230
0000
,
0301
0020
0000
0130
0020
0000
0230
0000
,
1300
0010
1000
0100
1000
0010
0100
0001
,
0100
0010
1000
0001
0010
0001
1000
0010
,
0100
0002
0000
1003
0020
0000
2030
0000
,
3001
0020
0000
0031
2000
0000
3020
0000
,
0130
0001
0100
0010
0100
0001
0100
0010
,
1000
0100
0010
0100
1000
0010
0100
0001
,
1000
0200
0000
1300
0002
0000
0023
0000
,
0130
2000
0000
3010
2000
0000
3002
0000
,
0103
0010
1000
0100
0010
0100
1000
0100
,
0010
0001
0100
0001
0010
0100
1000
0010
,
0200
0001
0301
0200
0010
0310
1000
0001
,
0020
0100
0130
2000
0100
3100
0010
0001
,
1000
0010
0100
0001
0100
0010
1000
0001
,
0010
0100
0010
0001
0100
0010
1000
0010
,
0200
0001
0301
2000
0010
3010
1000
0001
,
0020
0100
0130
2000
0100
3100
0010
0001
,
1000
0010
0100
0001
0100
0010
1000
0001
,
1000
1000
0010
0100
0001
1000
0100
1000
,
0010
0200
0000
0310
0200
0000
0301
0000
,
1000
0200
0000
1300
0200
0000
0310
0000
,
0001
0010
0001
1000
0001
0010
0001
1000
,
0010
1000
0010
1000
0001
0100
0010
0100
,
0001
0020
0000
0031
0020
0000
0130
0000
,
1000
0002
0000
1003
0002
0000
0103
0000
,
0010
1000
0010
0100
0001
0100
0010
1000
,
0010
0010
0100
0100
0010
1000
0001
0010
,
0100
0100
1000
1000
0100
0010
0100
1000
,
0001
0001
1000
1000
0001
1000
0010
0100
,
0001
0100
0001
0010
0001
0100
0001
0010
,
0100
0100
1000
1000
0001
1000
0100
1000
,
0001
0001
1000
1000
0001
0010
0100
1000
,
0001
0001
0010
0010
0100
1000
0001
0010
,
0100
0010
0001
1000
0100
0010
0001
1000
,
0010
1000
0001
0010
0100
1000
0001
1000
,
0100
0010
0001
0010
0001
1000
0010
0100
,
0010
1000
0100
1000
0010
0100
0001
1000
,
0010
0100
0001
0100
0010
0100
0001
0100
,
0010
1000
0100
0010
0100
1000
0010
0100
,
0001
1000
0010
0010
1000
0001
0001
0010
,
0100
1000
0100
0100
1000
0001
0001
0100
,
0010
1000
0010
0100
0001
0010
0100
1000
,
0001
0010
0100
0010
0001
0100
0010
0100
,
0001
1000
1000
0001
0100
0100
0010
1000
,
0001
0010
0010
0100
1000
1000
0010
0100
,
0001
0100
0010
1000
0100
0010
0100
1000
,
0010
0100
0001
0100
0010
1000
0001
0010
,
0100
1000
1000
0001
1000
1000
0010
0100
,
0001
0100
0100
0010
1000
1000
0001
0010
,
0100
0010
0001
1000
0010
0100
0010
1000
,
0001
0010
0100
1000
0100
0010
0001
1000
,
0010
0100
0100
0010
1000
1000
0001
0010
,
0100
0010
0010
0100
1000
1000
0001
0010
,
0001
0100
0001
1000
0010
1000
0100
1000
,
0010
0100
0001
1000
0100
0010
0100
1000
,
0001
0010
0010
0001
1000
1000
0010
0100
,
0001
0100
0100
0010
1000
1000
0001
0010
,
0100
1000
0100
0010
0001
1000
0100
0010
,
0002
0000
1003
0020
0000
0130
0001
2000
,
0000
0000
3100
0020
0000
0031
0010
0200
,
0000
0000
1300
0002
0000
0103
0010
2000
,
0000
0000
3001
0020
0000
0000
0000
0000
,
0000
0030
0000
0000
0000
0000
0000
0000
;
