#TITLE:SF-R;
#SUBTITLE:;
#ARTIST:DJ Sharpnel;
#TITLETRANSLIT:;
#SUBTITLETRANSLIT:;
#ARTISTTRANSLIT:;
#CREDIT:;
#BANNER:sf-r bn new.png;
#BACKGROUND:sf-r bg new.png;
#LYRICSPATH:;
#CDTITLE:;
#MUSIC:sf-r.ogg;
#OFFSET:-0.138;
#SAMPLESTART:51.935;
#SAMPLELENGTH:14.795;
#SELECTABLE:YES;
#BPMS:0.000=162.200;
#STOPS:;
#BGCHANGES:;
// cache tags:
#FIRSTBEAT:12.000;
#LASTBEAT:487.500;
#SONGFILENAME:Songs/SHARPNELSTREAMZ v2/sf-r/sf-r.sm;
#HASMUSIC:1;
#HASBANNER:1;
#MUSICLENGTH:185.129;
// end cache tags

//---------------dance-single - 11+ (TYLR)----------------
#NOTES:
     dance-single:
     11+ (TYLR):
     Challenge:
     11:
     0.983,0.987,0.005,0.243,1.000,1222.000,1.000,45.000,15.000,0.000:
0000
0000
0000
0000
,
0000
0000
0000
0000
,
0000
0000
0000
0000
,
0001
1000
0000
1000
00M0
0000
1000
0001
1000
0000
1000
0000
1000
0100
0010
0001
,
1000
0000
0001
0010
0001
0010
0100
0000
0100
0000
1000
0001
1000
0001
0100
0000
,
0100
0000
0010
1000
0010
1000
0001
0000
0001
0000
0010
0001
0010
0001
1000
0000
,
1000
0000
0100
0010
0100
0010
0001
0000
0001
0000
1000
0001
1000
0001
0100
0000
,
0100
0000
0000
0000
000M
0000
0000
0000
0010
0000
0000
0000
1000
0000
0000
0000
0010
0000
0000
0000
1000
0000
0000
0000
0001
0000
0000
0000
0000
0000
0000
0000
0002
0003
0000
0000
2000
3000
0000
0000
0002
0003
0000
0000
2000
3000
0000
0000
0000
0000
0000
0000
0000
0000
0000
0000
0100
0000
0000
0000
0000
0000
0000
0000
,
1000
0000
0001
0010
0001
0010
0100
0000
0100
0000
1000
0001
1000
0001
0100
0000
,
0100
0000
0000
0000
0000
0000
0000
0000
0010
0000
0000
0000
1000
0000
0000
0000
0010
0000
0000
0000
1000
0000
0000
0000
0001
0000
0000
0000
0000
0000
0000
0000
0002
0003
0000
0000
0020
0030
0000
0000
0002
0003
0000
0000
0020
0030
0000
0000
0000
0000
0000
0000
0000
0000
0000
0000
0100
0000
0000
0000
0000
0000
0000
0000
,
1000
0000
0001
1000
0001
1000
0010
0000
0010
0000
0100
0001
0100
0001
1000
0000
,
1000
0000
0100
0010
0100
0010
0001
0000
0001
0000
1000
0001
1000
0001
0100
0000
,
0100
0010
0000
1000
0010
1000
0001
0000
0001
0000
0010
0001
0010
0001
1000
0000
,
1000
0010
0000
0010
0100
0010
0100
0000
0100
0000
0001
0100
0001
0100
0001
0000
,
0001
1000
0000
1000
0100
1000
0100
0000
0100
0000
0010
0001
0010
0001
1000
0000
,
1000
0000
0000
0000
0M01
0000
0000
0000
0000
0000
0000
0000
0001
0000
0000
0000
0100
0000
0000
0000
0010
0000
0000
0000
1000
0000
0000
0000
0000
0000
0000
0000
2000
3000
0000
0000
0002
0003
0000
0000
2000
3000
0000
0000
0002
0003
0000
0000
0000
0000
0000
0000
0000
0000
0000
0000
1000
0000
0000
0000
0000
0000
0000
0000
,
0100
0010
0000
0001
0010
0001
1000
0000
1000
0000
0010
0100
0010
0100
0001
0000
,
0001
0000
0000
0000
1000
0000
0000
0000
0000
0000
0000
0000
0001
0000
0000
0000
0010
0000
0000
0000
0001
0000
0000
0000
1000
0000
0000
0000
0000
0000
0000
0000
2000
3000
0000
0000
0020
0030
0000
0000
2000
3000
0000
0000
0020
0030
0000
0000
0100
0000
0000
0000
0001
0000
0000
0000
1000
0000
0000
0000
0000
0000
0000
0000
,
1000
0001
0000
1000
0100
0010
0001
0000
0001
0000
0010
0100
0010
0001
1000
0000
,
0001
0000
0000
0001
0000
0000
0100
0000
0000
0001
0000
0000
1000
0001
1000
0001
1000
0001
1000
0001
1000
0001
1000
0001
,
1000
0000
0100
0000
1000
0000
0001
0010
0001
0000
1000
0000
0001
0000
0100
0000
,
0010
0000
1000
0001
1000
0001
0100
0000
0010
0000
0100
0000
0001
0000
1000
0001
,
0010
0000
0100
0000
1000
0000
0100
0010
0001
0000
1000
0000
0001
0000
0010
0000
,
0100
0000
1000
0001
0100
0001
1000
0000
0010
0000
0100
0000
0010
0000
1000
0000
,
0001
0000
0001
0000
0001
0000
1000
0100
0010
0000
0001
0000
1000
0000
0001
0000
,
0100
0010
0000
0010
1000
0001
1000
0000
0001
0000
1000
0000
0100
0000
0010
0001
,
1000
0000
0001
0000
0010
0000
0100
1000
0100
0000
0010
0000
0100
0000
1000
0000
,
0010
0000
1000
0001
0010
0001
1000
0000
0100
0000
0020
0000
0130
0000
2000
0000
,
3002
0000
0103
0000
0001
0000
1000
0010
1000
0000
0001
0000
0010
0000
0100
0000
,
2000
0000
3001
1000
0100
0010
0001
0000
1000
0000
0001
0000
1000
0010
0000
0100
,
0001
0000
1000
0000
0100
0000
1000
0001
0010
0000
0001
0000
0100
0000
0001
0000
,
2000
0000
3010
0000
0100
0000
0010
1000
0001
0000
0100
0000
0001
0000
1000
0000
,
0200
0000
0310
0001
0010
0100
1000
0000
0001
0000
0010
0000
0100
1000
0000
0001
,
0200
0000
0301
0000
1000
0000
0001
0100
0010
0000
1000
0000
0100
0000
1000
0000
,
0001
0000
0000
0001
0000
0000
0010
0000
0000
0001
0000
0000
1000
0001
1000
0001
1000
0001
1000
0001
1000
0001
1000
0001
,
1000
0100
0000
1000
0100
0000
0010
0001
0000
0010
0001
0000
0100
0000
0001
0000
,
1000
0010
0000
1000
0010
0000
0100
0001
0000
0100
0001
0000
0010
0000
0001
0000
,
0010
0100
0000
0010
0100
0000
0100
1000
0000
0100
1000
0000
0100
1000
0000
1000
,
0001
0010
0000
0001
0010
0000
0001
0100
0000
0001
0100
0000
0010
0100
0001
0010
,
0100
1000
0000
0100
1000
0000
0001
0100
0000
0001
0100
0000
0010
0000
0100
0000
,
0001
1000
0000
0001
1000
0000
0100
0010
0000
0100
0010
0000
0001
0000
1000
0000
,
0001
0010
0000
0001
0010
0000
0100
1000
0000
0100
1000
0000
0100
1000
0000
1000
,
0001
0010
0000
0001
0010
0000
0100
1000
0000
0100
1000
0000
0100
1000
0000
1000
,
0001
0010
0000
0001
0010
0000
0100
1000
0000
0100
1000
0000
0100
1000
0000
1000
,
0001
0000
0000
0010
0000
0000
0000
0000
0000
0001
0000
0000
0010
0000
0000
0000
0000
0000
0001
0000
0000
1000
0000
0000
0001
0000
0100
0000
0001
0000
0100
0000
0001
0000
0100
0000
0001
0000
0100
0000
0001
0000
0100
0000
0001
0000
0100
0000
,
0001
0100
1000
0100
0001
1000
0100
0010
,
0002
0000
0000
1003
0020
0000
0130
0001
,
1000
0001
0100
0010
1000
0001
0100
0001
,
0020
0000
0000
0000
,
0031
1000
0100
0010
0100
1000
0001
0100
,
0020
0000
0032
0000
2003
0000
3100
0010
,
1000
0001
0100
0010
0100
0001
0010
0100
,
0002
0000
0000
0000
0000
0003
000M
0000
0000
0000
0000
0000
0000
0000
0000
0000
,
1000
0100
0000
0010
0001
0010
0100
0000
0100
0000
1000
0001
1000
0001
0100
0000
,
0100
0010
0000
1000
0010
1000
0001
0000
0001
0000
0010
0100
0010
0100
1000
0000
,
1000
0001
0000
0100
0010
0100
0001
0000
0001
0000
1000
0010
1000
0010
0100
0000
,
0100
0000
0000
0000
00M1
0000
0000
0000
0000
0000
0000
0000
1000
0000
0000
0000
0001
0000
0000
0000
1000
0000
0000
0000
0100
0000
0000
0000
0000
0000
0000
0000
0020
0030
0000
0000
0002
0003
0000
0000
0020
0030
0000
0000
0002
0003
0000
0000
0010
0000
0000
0000
0100
0000
0000
0000
1000
0000
0000
0000
0000
0000
0000
0000
,
0001
0100
0000
0010
1000
0010
0100
0000
0100
0000
0001
1000
0001
1000
0100
0000
,
0100
0000
0000
0000
0010
0000
0000
0000
0000
0000
0000
0000
0001
0000
0000
0000
0010
0000
0000
0000
0001
0000
0000
0000
1000
0000
0000
0000
0000
0000
0000
0000
2000
3000
0000
0000
0020
0030
0000
0000
2000
3000
0000
0000
0020
0030
0000
0000
0100
0000
0000
0000
0001
0000
0000
0000
1000
0000
0000
0000
0000
0000
0000
0000
,
1000
0001
0000
1000
0100
0010
0001
0000
0001
0000
0010
0100
0010
0001
1000
0000
,
M001
0000
0000
0001
0000
0000
0100
0000
0000
0001
0000
0000
1000
0001
1000
0001
1000
0001
1000
0001
1000
0001
1000
0001
,
1000
0000
0100
0000
1000
0000
0001
0010
0001
0000
1000
0000
0001
0000
0100
0000
,
0010
0000
1000
0001
1000
0001
0100
0000
0010
0000
0100
0000
0001
0000
1000
0001
,
0010
0000
0100
0000
1000
0000
0100
0010
0001
0000
1000
0000
0001
0000
0010
0000
,
0100
0000
1000
0001
0100
0001
1000
0000
0010
0000
0100
0000
0010
0000
1000
0000
,
0001
0000
0001
0000
0001
0000
1000
0100
0010
0000
0001
0000
1000
0000
0001
0000
,
0100
0010
0000
0010
1000
0001
1000
0000
0001
0000
1000
0000
0100
0000
0010
0001
,
1000
0000
0001
0000
0010
0000
0100
1000
0100
0000
0010
0000
0100
0000
1000
0000
,
0010
0000
1000
0001
0010
0001
1000
0000
0100
0000
0020
0000
0130
0000
2000
0000
,
3002
0000
0103
0000
0001
0000
1000
0010
1000
0000
0001
0000
0010
0000
0100
0000
,
2000
0000
3001
1000
0100
0010
0001
0000
1000
0000
0001
0000
1000
0010
0000
0100
,
0001
0000
1000
0000
0100
0000
1000
0001
0010
0000
0001
0000
0100
0000
0001
0000
,
2000
0000
3010
0000
0100
0000
0010
1000
0001
0000
0100
0000
0001
0000
1000
0000
,
0200
0000
0310
0001
0010
0100
1000
0000
0001
0000
0010
0000
0100
1000
0000
0001
,
0200
0000
0301
0000
1000
0000
0001
0100
0010
0000
1000
0000
0100
0000
1000
0000
,
0004
0043
0430
0340
0034
0403
0340
0000
,
1030
0000
0000
0000
0000
0000
1000
0000
0000
0000
0000
0000
0100
0000
0000
0000
0000
0000
0100
0000
0000
0000
0000
0000
0100
0000
0000
0010
0000
0000
0100
0000
0000
0010
0000
0000
0001
0000
1000
0000
0001
0000
1000
0000
0001
0000
1000
0000
,
0001
0010
0000
0001
0010
0000
0100
1000
0000
0100
1000
0000
0010
0000
1000
0000
,
0001
0100
0000
0001
0100
0000
0010
1000
0000
0010
1000
0000
0100
0000
1000
0000
,
0100
0010
0000
0100
0010
0000
0010
0001
0000
0010
0001
0000
0010
0001
0000
0001
,
1000
0100
0000
1000
0100
0000
1000
0010
0000
1000
0010
0000
0100
0010
1000
0100
,
0010
0001
0000
0010
0001
0000
1000
0010
0000
1000
0010
0000
0100
0000
0010
0000
,
1000
0001
0000
1000
0001
0000
0010
0100
0000
0010
0100
0000
1000
0000
0001
0000
,
1000
0100
0000
1000
0100
0000
0010
0001
0000
0010
0001
0000
0010
0001
0000
0001
,
1000
0100
0000
1000
0100
0000
0010
0001
0000
0010
0001
0000
0010
0001
0000
0001
,
1000
0100
0000
1000
0100
0000
0010
0001
0000
0010
0001
0000
0010
0001
0000
0001
,
1000
0000
0000
0100
0000
0000
0000
0000
0000
1000
0000
0000
0100
0000
0000
0000
0000
0000
1000
0000
0000
0001
0000
0000
0010
0000
0100
0000
0010
0000
0100
0000
0010
0000
0100
0000
0010
0000
0100
0000
0010
0000
0100
0000
0010
0000
0100
0000
,
1000
0001
0010
0001
1000
0001
0100
0010
,
1000
0010
0100
0010
1000
0010
0100
0010
,
1000
0001
0100
0001
1000
0001
0100
0001
,
0010
0100
1000
0100
0010
0001
1000
0001
,
1000
0000
1000
0000
0010
0000
0010
0000
1000
0000
0001
0010
0001
0000
1000
0000
,
0100
0000
0100
0000
0010
0000
0010
0000
0100
0000
1000
0001
1000
0000
0100
0000
,
0010
0000
0010
0000
0001
0000
0001
0000
1000
0000
0001
0010
0001
0000
1000
0000
,
0001
0000
0001
0000
0100
0000
0100
0000
0001
0000
1000
0100
1000
0000
0001
0000
,
0010
0100
1000
1000
0001
0100
0010
0010
,
0100
0001
0010
0010
0100
1000
0001
0001
,
1000
0100
0010
0010
0001
1000
0010
0010
,
0100
0001
1000
1000
0100
1000
0001
0001
,
0100
0000
0010
0000
1000
0000
1000
0000
0010
0000
0100
0001
1000
0000
1000
0000
,
0100
0000
0010
0000
0001
0000
0001
0000
1000
0000
0100
0010
0001
0000
0001
0000
,
1000
0000
0010
0000
0100
0000
0100
0000
0001
0000
1000
0100
0010
0000
0010
0000
,
0001
0000
0000
0000
0000
0000
0001
0000
0000
0000
0000
0000
0100
0000
0000
0000
0000
0000
0100
0000
0000
0000
0000
0000
0100
0000
0000
0001
0000
0000
0100
0000
0000
0001
0000
0000
1000
0000
0001
0000
1000
0000
0001
0000
1000
0000
0001
0000
,
1000
0100
0000
1000
0100
0000
0010
0001
0000
0010
0001
0000
0100
0000
0001
0000
,
1000
0010
0000
1000
0010
0000
0100
0001
0000
0100
0001
0000
0010
0000
0001
0000
,
0010
0100
0000
0010
0100
0000
0100
1000
0000
0100
1000
0000
0100
1000
0000
1000
,
0001
0010
0000
0001
0010
0000
0001
0100
0000
0001
0100
0000
0010
0100
0001
0010
,
0100
1000
0000
0100
1000
0000
0001
0100
0000
0001
0100
0000
0010
0000
0100
0000
,
0001
1000
0000
0001
1000
0000
0100
0010
0000
0100
0010
0000
0001
0000
1000
0000
,
0001
0010
0000
0001
0010
0000
0100
1000
0000
0100
1000
0000
0100
1000
0000
1000
,
0001
0010
0000
0001
0010
0000
0100
1000
0000
0100
1000
0000
0100
1000
0000
1000
,
0001
0010
0000
0001
0010
0000
0100
1000
0000
0100
1000
0000
0100
1000
0000
1000
,
0001
0010
0000
0001
0010
0000
0100
1000
0000
0100
1000
0000
0100
1000
0000
1000
,
0001
0010
0M00
0001
1000
0000
0001
0100
0000
0001
0100
0000
0010
0000
0100
0000
,
0001
1000
0000
0001
1000
0000
0001
0010
0000
0001
0010
0000
0100
0000
0010
0000
,
0001
0100
0000
0001
0100
0000
0010
1000
0000
0010
1000
0000
0010
1000
0000
1000
,
0M01
0010
0000
0001
0010
0000
0100
1000
0000
0100
1000
0000
0010
0100
0001
0010
,
0100
1000
0000
0100
1000
0000
0001
0010
0000
0001
0010
0000
0100
0000
0010
0000
,
0001
1000
0000
0001
1000
0000
0010
0100
0000
0010
0100
0000
0001
0000
0100
0000
,
0010
1000
0000
0010
1000
0000
0001
0010
0000
0001
0010
0000
0001
0010
0000
0010
,
010M
0000
0000
1000
0000
0000
0000
0000
0000
0100
0000
0000
1000
0000
0000
0000
0000
0000
0100
0000
0000
1000
0000
0000
0001
0000
1000
0000
0001
0000
1000
0000
0001
0000
1000
0000
0001
0000
1000
0000
0001
0000
1000
0000
0001
0000
1000
0000
,
0001
00M0
0000
0000
0M00
0000
00M0
0000
M000
0000
0000
000M
0000
0000
00M0
0000
;

//---------------dance-single - 10 (TYLR)----------------
#NOTES:
     dance-single:
     10 (TYLR):
     Hard:
     10:
     0.934,0.987,0.032,0.243,1.000,1146.000,6.000,45.000,15.000,0.000:
0000
0000
0000
0000
,
0000
0000
0000
0000
,
0000
0000
0000
0000
,
1000
0001
0000
0001
0M00
0000
0001
1000
0001
0000
0001
0000
0001
0010
0100
1000
,
0001
0000
1000
0100
1000
0100
0010
0000
0010
0000
0001
1000
0001
1000
0010
0000
,
0010
0000
0100
0001
0100
0001
1000
0000
1000
0000
0100
1000
0100
1000
0001
0000
,
0001
0000
0010
0100
0010
0100
1000
0000
1000
0000
0001
1000
0001
1000
0010
0000
,
0010
0000
0000
0000
M000
0000
0000
0000
0100
0000
0000
0000
0001
0000
0000
0000
0100
0000
0000
0000
0001
0000
0000
0000
1000
0000
0000
0000
0000
0000
0000
0000
2000
3000
0000
0000
0002
0003
0000
0000
2000
3000
0000
0000
0002
0003
0000
0000
0000
0000
0000
0000
0000
0000
0000
0000
0010
0000
0000
0000
0000
0000
0000
0000
,
0001
0000
1000
0100
1000
0100
0010
0000
0010
0000
0001
1000
0001
1000
0010
0000
,
0010
0000
0000
0000
0000
0000
0000
0000
0100
0000
0000
0000
0001
0000
0000
0000
0100
0000
0000
0000
0001
0000
0000
0000
1000
0000
0000
0000
0000
0000
0000
0000
2000
3000
0000
0000
0200
0300
0000
0000
2000
3000
0000
0000
0200
0300
0000
0000
0000
0000
0000
0000
0000
0000
0000
0000
0010
0000
0000
0000
0000
0000
0000
0000
,
0001
0000
1000
0001
1000
0001
0100
0000
0100
0000
0010
1000
0010
1000
0001
0000
,
0001
0000
0010
0100
0010
0100
1000
0000
1000
0000
0001
1000
0001
1000
0010
0000
,
0010
0100
0000
0001
0100
0001
1000
0000
1000
0000
0100
1000
0100
1000
0001
0000
,
0001
0100
0000
0100
0010
0100
0010
0000
0010
0000
1000
0010
1000
0010
1000
0000
,
1000
0001
0000
0001
0010
0001
0010
0000
0010
0000
0100
1000
0100
1000
0001
0000
,
0001
0000
0000
0000
10M0
0000
0000
0000
0000
0000
0000
0000
1000
0000
0000
0000
0010
0000
0000
0000
0100
0000
0000
0000
0001
0000
0000
0000
0000
0000
0000
0000
0002
0003
0000
0000
2000
3000
0000
0000
0002
0003
0000
0000
2000
3000
0000
0000
0000
0000
0000
0000
0000
0000
0000
0000
0001
0000
0000
0000
0000
0000
0000
0000
,
0010
0100
0000
1000
0100
1000
0001
0000
0001
0000
0100
0010
0100
0010
1000
0000
,
1000
0000
0000
0000
0001
0000
0000
0000
0000
0000
0000
0000
1000
0000
0000
0000
0100
0000
0000
0000
1000
0000
0000
0000
0001
0000
0000
0000
0000
0000
0000
0000
0002
0003
0000
0000
0200
0300
0000
0000
0002
0003
0000
0000
0200
0300
0000
0000
0010
0000
0000
0000
1000
0000
0000
0000
0001
0000
0000
0000
0000
0000
0000
0000
,
0001
1000
0000
0001
0010
0100
1000
0000
1000
0000
0100
0010
0100
1000
0001
0000
,
1000
0000
0000
1000
0000
0000
0010
0000
0000
1000
0000
0000
0004
4000
0000
0000
0000
0000
3103
0000
0000
0000
0000
0000
,
0001
0000
0010
0000
0001
0000
1000
0100
1000
0000
0001
0000
1000
0000
0010
0000
,
0100
0000
0001
1000
0001
1000
0010
0000
0100
0000
0010
0000
1000
0000
0001
1000
,
0100
0000
0010
0000
0001
0000
0010
0100
1000
0000
0001
0000
1000
0000
0100
0000
,
0010
0000
0001
1000
0010
1000
0001
0000
0100
0000
0010
0000
0100
0000
0001
0000
,
1000
0000
1000
0000
1000
0000
0001
0010
0100
0000
1000
0000
0001
0000
1000
0000
,
0010
0100
0000
0100
0001
1000
0001
0000
1000
0000
0001
0000
0010
0000
0100
1000
,
0001
0000
1000
0000
0100
0000
0010
0001
0010
0000
0100
0000
0010
0000
0001
0000
,
0100
0000
0001
1000
0100
1000
0001
0000
0010
0000
0200
0000
0310
0000
0002
0000
,
2003
0000
3010
0000
1000
0000
0001
0100
0001
0000
1000
0000
0100
0000
0010
0000
,
0002
0000
1003
0001
0010
0100
1000
0000
0001
0000
1000
0000
0001
0100
0000
0010
,
1000
0000
0001
0000
0010
0000
0001
1000
0100
0000
1000
0000
0010
0000
1000
0000
,
0002
0000
0103
0000
0010
0000
0100
0001
1000
0000
0010
0000
1000
0000
0001
0000
,
0020
0000
0130
1000
0100
0010
0001
0000
1000
0000
0100
0000
0010
0001
0000
1000
,
0020
0000
1030
0000
0001
0000
1000
0010
0100
0000
0001
0000
0010
0000
0001
0000
,
1000
0000
0000
1000
0000
0000
0100
0000
0000
1000
0000
0000
0004
4000
0000
0000
0000
0000
0000
0000
0000
3003
0000
0000
,
0001
0010
0000
0001
0010
0000
0100
1000
0000
0100
1000
0000
0010
0000
1000
0000
,
0001
0100
0000
0001
0100
0000
0010
1000
0000
0010
1000
0000
0100
0000
1000
0000
,
0100
0010
0000
0100
0010
0000
0010
0001
0000
0010
0001
0000
0010
0001
0000
0001
,
1000
0100
0000
1000
0100
0000
1000
0010
0000
1000
0010
0000
0100
0010
1000
0100
,
0010
0001
0000
0010
0001
0000
1000
0010
0000
1000
0010
0000
0100
0000
0010
0000
,
1000
0001
0000
1000
0001
0000
0010
0100
0000
0010
0100
0000
1000
0000
0001
0000
,
1000
0100
0000
1000
0100
0000
0010
0001
0000
0010
0001
0000
0010
0001
0000
0001
,
1000
0100
0000
1000
0100
0000
0010
0001
0000
0010
0001
0000
0010
0001
0000
0001
,
1000
0100
0000
1000
0100
0000
0010
0001
0000
0010
0001
0000
0010
0001
0000
0001
,
1000
0000
0000
0100
0000
0000
0000
0000
0000
1000
0000
0000
0100
0000
0000
0000
0000
0000
1000
0000
0000
0001
0000
0000
4000
0000
0040
0000
0000
0000
0000
0000
0000
0000
0000
0000
0000
0000
0000
0000
0000
0000
3030
0000
0000
0000
0000
0000
,
0100
0010
0001
0010
1000
0001
0010
0100
,
2000
0000
0000
3001
0200
0000
0310
1000
,
0001
1000
0010
0100
0001
1000
0010
1000
,
0200
0000
0000
0000
,
1300
0001
0010
0100
0010
0001
1000
0010
,
0200
0000
2300
0000
3002
0000
0013
0100
,
0001
1000
0010
0100
0010
1000
0100
0010
,
2000
0000
0000
0000
0000
3000
M000
0000
0000
0000
0000
0000
0000
0000
0000
0000
,
0001
0010
0000
0100
1000
0100
0010
0000
0010
0000
0001
1000
0001
1000
0010
0000
,
0010
0100
0000
0001
0100
0001
1000
0000
1000
0000
0100
0010
0100
0010
0001
0000
,
0001
1000
0000
0010
0100
0010
1000
0000
1000
0000
0001
0100
0001
0100
0010
0000
,
0010
0000
0000
0000
1M00
0000
0000
0000
0000
0000
0000
0000
0001
0000
0000
0000
1000
0000
0000
0000
0001
0000
0000
0000
0010
0000
0000
0000
0000
0000
0000
0000
0200
0300
0000
0000
2000
3000
0000
0000
0200
0300
0000
0000
2000
3000
0000
0000
0100
0000
0000
0000
0010
0000
0000
0000
0001
0000
0000
0000
0000
0000
0000
0000
,
1000
0010
0000
0100
0001
0100
0010
0000
0010
0000
1000
0001
1000
0001
0010
0000
,
0010
0000
0000
0000
0100
0000
0000
0000
0000
0000
0000
0000
1000
0000
0000
0000
0100
0000
0000
0000
1000
0000
0000
0000
0001
0000
0000
0000
0000
0000
0000
0000
0002
0003
0000
0000
0200
0300
0000
0000
0002
0003
0000
0000
0200
0300
0000
0000
0010
0000
0000
0000
1000
0000
0000
0000
0001
0000
0000
0000
0000
0000
0000
0000
,
0001
1000
0000
0001
0010
0100
1000
0000
1000
0000
0100
0010
0100
1000
0001
0000
,
100M
0000
0000
1000
0000
0000
0010
0000
0000
1000
0000
0000
0004
4000
0000
0000
0000
0000
0000
0000
3003
0000
0000
0000
,
0001
0000
0010
0000
0001
0000
1000
0100
1000
0000
0001
0000
1000
0000
0010
0000
,
0100
0000
0001
1000
0001
1000
0010
0000
0100
0000
0010
0000
1000
0000
0001
1000
,
0100
0000
0010
0000
0001
0000
0010
0100
1000
0000
0001
0000
1000
0000
0100
0000
,
0010
0000
0001
1000
0010
1000
0001
0000
0100
0000
0010
0000
0100
0000
0001
0000
,
1000
0000
1000
0000
1000
0000
0001
0010
0100
0000
1000
0000
0001
0000
1000
0000
,
0010
0100
0000
0100
0001
1000
0001
0000
1000
0000
0001
0000
0010
0000
0100
1000
,
0001
0000
1000
0000
0100
0000
0010
0001
0010
0000
0100
0000
0010
0000
0001
0000
,
0100
0000
0001
1000
0100
1000
0001
0000
0010
0000
0200
0000
0310
0000
0002
0000
,
2003
0000
3010
0000
1000
0000
0001
0100
0001
0000
1000
0000
0100
0000
0010
0000
,
0002
0000
1003
0001
0010
0100
1000
0000
0001
0000
1000
0000
0001
0100
0000
0010
,
1000
0000
0001
0000
0010
0000
0001
1000
0100
0000
1000
0000
0010
0000
1000
0000
,
0002
0000
0103
0000
0010
0000
0100
0001
1000
0000
0010
0000
1000
0000
0001
0000
,
0020
0000
0130
1000
0100
0010
0001
0000
1000
0000
0100
0000
0010
0001
0000
1000
,
0020
0000
1030
0000
0001
0000
1000
0010
0100
0000
0001
0000
0010
0000
0001
0000
,
4000
3400
0340
0430
4300
3040
0430
0000
,
0301
0000
0001
0000
0010
0000
0010
0000
0010
0100
0010
0100
1000
0010
0100
0001
,
1000
0100
0000
1000
0100
0000
0010
0001
0000
0010
0001
0000
0100
0000
0001
0000
,
1000
0010
0000
1000
0010
0000
0100
0001
0000
0100
0001
0000
0010
0000
0001
0000
,
0010
0100
0000
0010
0100
0000
0100
1000
0000
0100
1000
0000
0100
1000
0000
1000
,
0001
0010
0000
0001
0010
0000
0001
0100
0000
0001
0100
0000
0010
0100
0001
0010
,
0100
1000
0000
0100
1000
0000
0001
0100
0000
0001
0100
0000
0010
0000
0100
0000
,
0001
1000
0000
0001
1000
0000
0100
0010
0000
0100
0010
0000
0001
0000
1000
0000
,
0001
0010
0000
0001
0010
0000
0100
1000
0000
0100
1000
0000
0100
1000
0000
1000
,
0001
0010
0000
0001
0010
0000
0100
1000
0000
0100
1000
0000
0100
1000
0000
1000
,
0001
0010
0000
0001
0010
0000
0100
1000
0000
0100
1000
0000
0100
1000
0000
1000
,
0001
0000
0000
0010
0000
0000
0000
0000
0000
0001
0000
0000
0010
0000
0000
0000
0000
0000
0001
0000
0000
1000
0000
0000
0400
0000
0040
0000
0000
0000
0000
0000
0000
0000
0000
0000
0000
0000
0000
0000
0000
0000
0000
0000
0300
0000
0030
0000
,
0001
1000
0100
1000
0001
1000
0010
0100
,
0001
0100
0010
0100
0001
0100
0010
0100
,
0001
1000
0010
1000
0001
1000
0010
1000
,
0100
0010
0001
0010
0100
1000
0001
1000
,
0001
0000
0001
0000
0100
0000
0100
0000
0001
0000
1000
0100
1000
0000
0001
0000
,
0010
0000
0010
0000
0100
0000
0100
0000
0010
0000
0001
1000
0001
0000
0010
0000
,
0100
0000
0100
0000
1000
0000
1000
0000
0001
0000
1000
0100
1000
0000
0001
0000
,
1000
0000
1000
0000
0010
0000
0010
0000
1000
0000
0001
0010
0001
0000
1000
0000
,
0100
0010
0001
0001
1000
0010
0100
0100
,
0010
1000
0100
0100
0010
0001
1000
1000
,
0001
0010
0100
0100
1000
0001
0100
0100
,
0010
1000
0001
0001
0010
0001
1000
1000
,
0010
0000
0100
0000
0001
0000
0001
0000
0100
0000
0010
1000
0001
0000
0001
0000
,
0010
0000
0100
0000
1000
0000
1000
0000
0001
0000
0010
0100
1000
0000
1000
0000
,
0001
0000
0100
0000
0010
0000
0010
0000
1000
0000
0001
0010
0100
0000
0100
0000
,
1000
0000
1000
0000
0010
0000
0010
0000
0010
1000
0010
1000
0100
0010
0001
0100
,
0010
1000
0000
0010
1000
0000
0100
1000
0000
0100
1000
0000
0001
0000
1000
0000
,
0010
1000
0000
0010
1000
0000
0100
1000
0000
0100
1000
0000
0001
0000
1000
0000
,
0100
0010
0000
0100
0010
0000
0010
0001
0000
0010
0001
0000
0010
0001
0000
0001
,
1000
0100
0000
1000
0100
0000
1000
0010
0000
1000
0010
0000
0100
0010
1000
0100
,
0010
0001
0000
0010
0001
0000
1000
0010
0000
1000
0010
0000
0100
0000
0010
0000
,
1000
0001
0000
1000
0001
0000
0010
0100
0000
0010
0100
0000
1000
0000
0001
0000
,
1000
0100
0000
1000
0100
0000
0010
0001
0000
0010
0001
0000
0010
0001
0000
0001
,
1000
0100
0000
1000
0100
0000
0010
0001
0000
0010
0001
0000
0010
0001
0000
0001
,
1000
0100
0000
1000
0100
0000
0010
0001
0000
0010
0001
0000
0010
0001
0000
0001
,
1000
0100
0000
1000
0100
0000
0010
0001
0000
0010
0001
0000
0010
0001
0000
0001
,
1000
0100
00M0
1000
0001
0000
1000
0010
0000
1000
0010
0000
0100
0000
0010
0000
,
1000
0001
0000
1000
0001
0000
1000
0100
0000
1000
0100
0000
0010
0000
0100
0000
,
1000
0010
0000
1000
0010
0000
0100
0001
0000
0100
0001
0000
0100
0001
0000
0001
,
10M0
0100
0000
1000
0100
0000
0010
0001
0000
0010
0001
0000
0100
0010
1000
0100
,
0010
0001
0000
0010
0001
0000
1000
0100
0000
1000
0100
0000
0010
0000
0100
0000
,
1000
0001
0000
1000
0001
0000
0100
0010
0000
0100
0010
0000
1000
0000
0010
0000
,
0100
0001
0000
0100
0001
0000
1000
0100
0000
1000
0100
0000
1000
0100
0000
0100
,
M010
0000
0000
0001
0000
0000
0000
0000
0000
0010
0000
0000
0001
0000
0000
0000
0000
0000
0010
0000
0000
0001
0000
0000
4000
0000
0004
0000
0000
0000
0000
0000
0000
0000
0000
0000
0000
0000
0000
0000
0000
0000
0000
0000
0000
0000
0000
0000
,
3003
0M00
0000
0000
00M0
0000
0M00
0000
000M
0000
0000
M000
0000
0000
0M00
0000
;
