#TITLE:Elemental Creation;
#SUBTITLE:;
#ARTIST:dj TAKA meets DJ YOSHITAKA;
#TITLETRANSLIT:;
#SUBTITLETRANSLIT:;
#ARTISTTRANSLIT:;
#CREDIT:Milk Chan;
#BANNER:../bn.png;
#BACKGROUND:../bg.png;
#LYRICSPATH:;
#CDTITLE:;
#MUSIC:dj TAKA meets DJ YOSHITAKA - Elemental Creation.ogg;
#OFFSET:1.116;
#SAMPLESTART:37.380;
#SAMPLELENGTH:18.320;
#SELECTABLE:YES;
#DISPLAYBPM:212.000;
#BPMS:0.000=212.000;
#STOPS:;
#BGCHANGES:;
// cache tags:
#FIRSTBEAT:8.000;
#LASTBEAT:442.000;
#SONGFILENAME:Songs/Cirque du Zonda/Zaia - Elemental Creation/Elemental Creation.sm;
#HASMUSIC:1;
#HASBANNER:1;
#MUSICLENGTH:131.369;
// end cache tags

//---------------dance-single - Zaia - 16.4----------------
#NOTES:
     dance-single:
     Zaia - 16.4:
     Challenge:
     16:
     1.000,1.000,0.107,0.122,1.000,1286.000,14.000,16.000,0.000,0.000:
0000
0000
0000
0000
,
0000
0000
0000
0000
,
1001
1100
0000
0110
0000
0011
0000
1001
,
0101
0001
1000
1000
0010
0100
0001
0100
,
0000
0000
0110
1010
0000
1001
0000
0011
,
0110
0100
1000
1000
0001
0010
0001
0100
,
0110
0010
1000
0001
1000
0010
0100
0001
,
1001
1000
0100
0010
0100
1000
0001
0100
,
0020
0000
2030
3002
,
1003
0000
0100
0010
0001
0000
1000
0010
0100
0001
1000
0001
0010
0100
0010
0001
,
1000
0010
0100
0001
1000
0001
1000
0100
0010
0001
1000
0001
1000
0010
0100
0001
,
1000
0001
1000
0100
0010
0001
1000
0001
1000
0010
0100
0001
1000
0100
0010
0001
,
1000
0010
0100
0001
1000
0100
1000
0010
0100
0001
1000
0100
1000
0010
0100
0001
,
1000
0001
0010
0001
0100
0010
1000
0001
1000
0100
0010
0100
1000
0001
1000
0010
,
0100
0001
1000
0100
1000
0001
0100
0010
0100
0001
1000
0001
0010
0100
1000
0001
,
1000
0010
0100
0001
0010
0100
0010
0001
1000
0010
0100
0001
1000
0100
1000
0001
,
1000
0010
0100
0001
1000
0100
0010
0100
1000
0001
0010
0001
1000
0010
1000
0001
,
0100
0010
1000
0001
1000
0100
1000
0001
0010
0100
0010
0001
1000
0010
0100
0001
,
1000
0100
0010
0001
1000
0001
1000
0010
0100
0001
1000
0001
1000
0100
0010
0001
,
1000
0001
1000
0010
0100
0001
1000
0001
1000
0100
0010
0001
1000
0010
0100
0001
,
1000
0100
0010
0001
1000
0010
1000
0100
0010
0001
1000
0010
1000
0100
0010
0001
,
1000
0001
0100
0001
0010
0100
1000
0001
1000
0010
0100
0010
1000
0001
1000
0100
,
0010
0001
1000
0010
1000
0001
0010
0100
0010
0001
1000
0001
0100
0010
1000
0001
,
1000
0100
0010
0001
0100
0010
0100
0001
1000
0100
0010
0001
1000
0010
1000
0001
,
1000
0100
0010
0001
1000
0010
0100
0010
1000
0001
0100
0001
1000
0100
1000
0001
,
0010
0100
1000
0001
1000
0010
1000
0001
0100
0010
0100
0001
1000
0100
0010
0001
,
1000
0010
1000
0010
1000
0001
1000
0100
0010
0001
0010
0100
1000
0001
0100
0010
,
1000
0001
0010
0100
0010
0001
1000
0010
1000
0001
0010
0100
1000
0001
1000
0010
,
0100
0001
0100
0010
0100
0001
1000
0100
1000
0001
0010
0100
1000
0001
1000
0100
,
0010
0100
1000
0001
1000
0010
0100
0001
1000
0001
0010
0100
0010
0001
1000
0010
,
0100
0001
1000
0001
1000
0001
0010
0001
1000
0001
0100
0010
1000
0001
0010
0100
,
1000
0001
0100
0010
0100
0001
1000
0100
1000
0001
0100
0010
1000
0001
1000
0100
,
0010
0001
1000
0001
0010
0001
1000
0010
1000
0001
0100
0010
1000
0001
1000
0010
,
0100
0001
0000
1000
0000
0001
1000
0000
,
0001
0010
0100
1000
0001
1000
0001
0100
0010
1000
0001
1000
0001
0010
0100
1000
,
0001
1000
0001
0100
0010
1000
0001
1000
0001
0010
0100
1000
0001
0100
0010
1000
,
0001
0010
0100
1000
0001
0100
0001
0010
0100
1000
0001
0100
0001
0010
0100
1000
,
0001
1000
0010
1000
0100
0010
0001
1000
0001
0100
0010
0100
0001
1000
0001
0010
,
0100
1000
0001
0100
0001
1000
0100
0010
0100
1000
0001
1000
0010
0100
0001
1000
,
0001
0010
0100
1000
0010
0100
0010
1000
0001
0010
0100
1000
0001
0100
0001
1000
,
0001
0010
0100
1000
0001
0100
0010
0100
0001
1000
0010
1000
0001
0010
0001
1000
,
0100
0010
0001
1000
0001
0100
0001
1000
0010
0100
0010
1000
0001
0010
0100
1000
,
0001
0100
0010
1000
0001
1000
0001
0010
0100
1000
0001
1000
0001
0100
0010
1000
,
0001
1000
0001
0010
0100
1000
0001
1000
0001
0100
0010
1000
0001
0010
0100
1000
,
0001
0100
0010
1000
0001
0010
0001
0100
0010
1000
0001
0010
0001
0100
0010
1000
,
0001
1000
0100
1000
0010
0100
0001
1000
0001
0010
0100
0010
0001
1000
0001
0100
,
0010
1000
0001
0010
0001
1000
0010
0100
0010
1000
0001
1000
0100
0010
0001
1000
,
0001
0100
0010
1000
0100
0010
0100
1000
0001
0100
0010
1000
0001
0010
0001
1000
,
0001
0100
0010
1000
0001
0010
0100
0010
0001
1000
0100
1000
0001
0100
0001
1000
,
0010
0100
0001
1000
0001
0010
0001
1000
0100
0010
0100
1000
0001
0100
0010
1000
,
0001
0000
0100
0000
0001
0000
1000
0000
0001
0010
0001
0000
1000
0000
0001
0100
,
0001
0000
1000
0000
0100
0000
1000
0000
0010
0100
0010
0000
1000
0000
0100
1000
,
0100
0000
0010
0000
0001
0000
1000
0000
0010
1000
0010
0000
0100
0000
0001
1000
,
0001
0000
0010
0000
0100
0000
1000
0000
0001
0100
0001
0000
1000
0000
0100
0010
,
0100
1000
0001
0100
0010
1000
0001
0010
0100
1000
0010
0100
,
0001
1000
0100
0010
0001
1000
0010
0100
0001
1000
0001
0010
,
0000
0000
0000
0000
,
0000
0000
0000
0000
,
2000
0000
0000
0000
,
3200
0000
0000
0000
,
0320
0000
0000
0000
,
0032
0000
0000
0000
,
2003
0000
0000
0000
,
3020
0000
0000
0000
,
0230
0000
0000
0000
,
0302
0000
0000
0003
,
1001
0000
0001
0000
0100
0010
0000
1000
,
0000
0001
0000
0010
0000
0100
1000
0001
,
0000
0000
0100
0000
0001
1000
0000
0100
,
0000
0010
0000
0001
0000
1000
0010
0100
,
0000
0000
0010
0000
1000
0001
0000
0010
,
0000
0100
0000
1000
0000
0100
0000
0010
,
0000
0001
1000
0010
,
0200
0000
0000
0000
,
0301
0000
0001
0000
1000
0010
0100
0001
0010
0100
1000
0010
0100
0000
0000
0000
,
0001
0000
0001
0000
0010
0001
0100
0010
1000
0100
0010
0001
0100
0000
0000
0000
,
0010
0000
0010
0000
0100
0001
0010
0100
1000
0010
0100
0001
0010
0000
0000
0000
,
0100
0000
0100
0000
0010
0001
0100
0010
1000
0001
1000
0001
0100
0000
0000
0000
,
0010
0100
0010
0100
0001
0010
0100
1000
0010
0100
0010
0100
0001
0010
0100
1000
,
0010
0100
0010
0100
0001
0010
0100
1000
0010
0100
0010
0100
0001
0010
0100
1000
,
0001
0000
1000
0100
0010
0000
0001
0100
0010
0000
1000
0100
0010
0000
0001
0000
,
1000
1000
0000
0001
0000
1000
0000
0001
,
0100
0100
0000
0010
0000
0100
0000
0010
,
0200
0000
0302
2003
,
3001
0000
0010
0100
1000
0000
0001
0100
0010
1000
0001
1000
0100
0010
0100
1000
,
0001
0100
0010
1000
0001
1000
0001
0010
0100
1000
0001
1000
0001
0100
0010
1000
,
0001
1000
0001
0010
0100
1000
0001
1000
0001
0100
0010
1000
0001
0010
0100
1000
,
0001
0100
0010
1000
0001
0010
0001
0100
0010
1000
0001
0010
0001
0100
0010
1000
,
0001
1000
0100
1000
0010
0100
0001
1000
0001
0010
0100
0010
0001
1000
0001
0100
,
0010
1000
0001
0010
0001
1000
0010
0100
0010
1000
0001
1000
0100
0010
0001
1000
,
0001
0100
0010
1000
0100
0010
0100
1000
0001
0100
0010
1000
0001
0010
0001
1000
,
0001
0100
0010
1000
0001
0010
0100
0010
0001
1000
0100
1000
0001
0100
0001
1000
,
0010
0100
0001
1000
0001
0010
0001
1000
0100
0010
0100
1000
0001
0100
0010
1000
,
0001
0010
0100
1000
0001
1000
0001
0100
0010
1000
0001
1000
0001
0010
0100
1000
,
0001
1000
0001
0100
0010
1000
0001
1000
0001
0010
0100
1000
0001
0100
0010
1000
,
0001
0010
0100
1000
0001
0100
0001
0010
0100
1000
0001
0100
0001
0010
0100
1000
,
0001
1000
0010
1000
0100
0010
0001
1000
0001
0100
0010
0100
0001
1000
0001
0010
,
0100
1000
0001
0100
0001
1000
0100
0010
0100
1000
0001
1000
0010
0100
0001
1000
,
0001
0010
0100
1000
0010
0100
0010
1000
0001
0010
0100
1000
0001
0100
0001
1000
,
0001
0010
0100
1000
0001
0100
0010
0100
0001
1000
0010
1000
0001
0010
0001
1000
,
0100
0010
0001
1000
0001
0100
0001
1000
0010
0100
0010
1000
0001
0010
0100
1000
,
0001
0100
0001
0100
0001
1000
0001
0010
0100
1000
0100
0010
0001
1000
0010
0100
,
0001
1000
0100
0010
0100
1000
0001
0100
0001
1000
0100
0010
0001
1000
0001
0100
,
0010
1000
0010
0100
0010
1000
0001
0010
0001
1000
0100
0010
0001
1000
0001
0010
,
0100
0010
0001
1000
0001
0100
0010
1000
0001
1000
0100
0010
0100
1000
0001
0100
,
0010
1000
0001
1000
0001
1000
0100
1000
0001
1000
0010
0100
0001
1000
0100
0010
,
0001
1000
0010
0100
0010
1000
0001
0010
0001
1000
0010
0100
0001
1000
0001
0010
,
0100
1000
0001
1000
0100
1000
0001
0100
0001
1000
0010
0100
0001
1000
0001
0100
,
0010
1000
0000
0100
0000
1000
0100
0000
,
1000
0000
0010
0000
0000
0000
0100
0000
0000
0000
0001
0000
1000
0001
0010
0001
,
2000
0000
3000
0000
;

//---------------dance-single - Zaia - 15.1----------------
#NOTES:
     dance-single:
     Zaia - 15.1:
     Hard:
     15:
     1.000,1.000,0.107,0.122,1.000,1144.000,14.000,16.000,0.000,0.000:
0000
0000
0000
0000
,
0000
0000
0000
0000
,
1001
1100
0000
0110
0000
0011
0000
1001
,
0101
0001
1000
1000
0010
0100
0001
0100
,
0000
0000
0110
1010
0000
1001
0000
0011
,
0110
0100
1000
1000
0001
0010
0001
0100
,
0110
0010
1000
0001
1000
0010
0100
0001
,
1001
1000
0100
0010
0100
1000
0001
0100
,
0020
0000
2030
3002
,
1003
0000
0100
0010
0001
0000
1000
0010
0100
0001
1000
0001
0010
0100
0010
0001
,
1000
0010
0100
0001
1000
0001
0100
0010
1000
0001
0100
0001
1000
0010
0100
0001
,
1000
0100
0010
0001
1000
0001
0010
0100
0010
0001
1000
0100
0010
0001
1000
0001
,
0100
0010
1000
0001
0100
0010
0100
0001
1000
0010
1000
0001
0100
0010
1000
0001
,
1000
0100
0010
0001
0010
0100
1000
0001
1000
0100
1000
0001
0010
0100
0010
0001
,
1000
0010
0100
0001
1000
0001
0100
0010
1000
0001
0100
0001
1000
0010
0100
0001
,
1000
0100
1000
0001
0010
0100
0010
0001
1000
0001
0010
0100
1000
0100
0010
0001
,
1000
0010
0100
0001
1000
0001
0100
0010
1000
0001
1000
0010
0100
0001
0100
0010
,
1000
0001
1000
0100
1000
0001
0010
0100
1000
0001
1000
0100
0010
0001
1000
0001
,
0100
0010
1000
0001
0100
0010
0100
0001
1000
0010
0100
0001
1000
0001
0100
0010
,
1000
0001
0010
0001
1000
0100
0010
0100
1000
0001
0010
0100
1000
0001
1000
0100
,
1000
0001
0100
0001
1000
0010
0100
0001
1000
0001
0100
0010
0100
0001
1000
0010
,
1000
0001
0010
0100
0010
0001
1000
0100
1000
0001
0010
0100
1000
0100
0010
0001
,
1000
0010
0100
0010
1000
0001
0100
0010
1000
0001
1000
0010
0100
0010
1000
0001
,
1000
0100
0010
0100
1000
0001
0010
0100
1000
0001
1000
0100
0010
0001
1000
0100
,
1000
0001
0100
0001
1000
0010
0100
0001
1000
0001
0100
0001
1000
0010
0100
0001
,
1000
0100
0010
0100
1000
0001
0010
0100
1000
0001
0010
0001
1000
0100
0010
0001
,
1000
0010
1000
0010
1000
0001
1000
0001
1000
0100
1000
0100
0010
0100
1000
0001
,
1000
0001
0010
0100
0010
0001
1000
0010
1000
0001
0010
0100
1000
0001
1000
0010
,
0100
0001
0100
0010
0100
0001
1000
0100
1000
0001
0010
0100
1000
0001
1000
0100
,
0010
0100
1000
0001
1000
0010
0100
0001
1000
0001
0010
0100
0010
0001
1000
0010
,
0100
0001
0100
0001
1000
0001
1000
0001
0010
0001
0010
0001
0010
0100
0010
0001
,
1000
0001
0100
0010
0100
0001
1000
0100
1000
0001
0100
0010
1000
0001
1000
0100
,
0010
0001
1000
0001
0010
0001
1000
0010
1000
0001
0100
0010
1000
0001
1000
0010
,
0100
0001
0000
1000
0000
0001
1000
0000
,
0001
0000
1000
0100
1000
0000
0001
0000
1000
0010
1000
0000
0001
0000
1000
0100
,
1000
0000
0001
0000
1000
0010
1000
0000
0001
0010
0100
0000
1000
0010
0100
0000
,
0001
0000
0100
0010
0100
0000
0001
0000
0010
0100
0010
0000
0001
0000
0100
0010
,
0100
0000
0001
0000
0010
0100
0010
0000
0100
0000
1000
0001
0100
0010
1000
0001
,
0010
0000
0100
0000
1000
0000
0001
0100
0010
0000
1000
0000
0100
0010
0001
0100
,
0010
1000
0001
0010
0100
0010
0001
1000
,
0010
0000
0100
0001
1000
0000
0100
0010
0001
1000
0001
0100
0010
1000
0001
0010
,
0100
1000
0000
0001
0000
0100
0010
0000
,
1000
0000
0001
0100
0001
0000
1000
0000
0001
0010
0001
0000
1000
0000
0001
0100
,
0001
0000
1000
0000
0001
0010
0001
0000
1000
0010
0100
0000
0001
0010
0100
0000
,
1000
0000
0100
0010
0100
0000
1000
0000
0010
0100
0010
0000
1000
0000
0100
0010
,
0100
0000
1000
0000
0010
0100
0010
0000
0100
0000
0001
1000
0100
0010
0001
1000
,
0010
0000
0100
0000
0001
0000
1000
0100
0010
0000
0001
0000
0100
0010
1000
0100
,
0010
0001
1000
0010
0100
0010
1000
0001
,
0010
0000
0100
1000
0001
0000
0100
0010
1000
0001
1000
0100
0010
0001
1000
0010
,
0100
0000
0001
0100
0010
0000
1000
0100
0010
0100
1000
0001
1000
0010
0100
0001
,
1000
0000
0010
0000
1000
0000
0001
0000
1000
0100
1000
0000
0001
0000
1000
0010
,
1000
0000
0001
0000
0010
0000
0001
0000
0100
0010
0100
0000
0001
0000
0010
0001
,
0010
0000
0100
0000
1000
0000
0001
0000
0100
0001
0100
0000
0010
0000
1000
0001
,
1000
0000
0100
0000
0010
0000
0001
0000
1000
0010
1000
0000
0001
0000
0010
0100
,
0010
0001
1000
0010
0100
0001
1000
0100
0010
0001
0100
0010
,
1000
0001
0010
0100
1000
0001
0100
0010
1000
0001
1000
0100
,
0000
0000
0000
0000
,
0000
0000
0000
0000
,
0002
0000
0000
0000
,
0023
0000
0000
0000
,
0230
0000
0000
0000
,
2300
0000
0000
0000
,
3002
0000
0000
0000
,
0203
0000
0000
0000
,
0320
0000
0000
0000
,
2030
0000
0000
3000
,
1001
0000
1000
0000
0010
0100
0000
0001
,
0000
1000
0000
0100
0000
0010
0001
1000
,
0000
0000
0010
0000
1000
0001
0000
0010
,
0000
0100
0000
1000
0000
0001
0100
0010
,
0000
0000
0100
0000
0001
1000
0000
0100
,
0000
0010
0000
0001
0000
0010
0000
0100
,
0000
1000
0001
0100
,
0020
0000
0000
0000
,
1030
0000
1000
0000
0001
1000
0001
0100
0001
1000
0001
0100
0010
0000
0000
0000
,
1000
0000
1000
0000
0001
0010
0001
1000
0001
0010
0001
1000
0010
0000
0000
0000
,
0100
0000
0100
0000
0010
1000
0001
0100
0001
1000
0001
0100
0001
0000
0000
0000
,
0010
0000
0010
0000
0100
1000
0100
0010
0001
1000
0001
1000
0010
0000
0000
0000
,
1000
0001
1000
0001
0100
0010
0100
0010
1000
0001
1000
0001
0010
0100
0010
0100
,
1000
0001
1000
0001
0100
0010
0100
0010
1000
0001
1000
0001
0010
0100
0010
0100
,
1000
0000
0001
0010
0100
0000
1000
0010
0100
0000
0001
0010
0100
0000
1000
0000
,
0001
0001
0000
1000
0000
0001
0000
1000
,
0010
0010
0000
0100
0000
0010
0000
0100
,
0020
0000
2030
3002
,
1003
0000
0100
0010
0001
0000
1000
0010
0100
0001
1000
0001
0010
0100
0010
0001
,
1000
0000
0001
0010
0001
0000
1000
0000
0001
0100
0001
0000
1000
0000
0001
0010
,
0001
0000
1000
0000
0001
0100
0001
0000
1000
0100
0010
0000
0001
0100
0010
0000
,
1000
0000
0010
0100
0010
0000
1000
0000
0100
0010
0100
0000
1000
0000
0010
0100
,
0010
0000
1000
0000
0100
0010
0100
0000
0010
0000
0001
1000
0010
0100
0001
1000
,
0100
0000
0010
0000
0001
0000
1000
0010
0100
0001
1000
0001
0010
0100
1000
0010
,
0100
0000
0001
1000
0100
0000
0010
0100
1000
0001
0010
0100
1000
0001
1000
0010
,
0100
0001
1000
0001
1000
0100
0010
0100
1000
0001
1000
0010
0100
0001
1000
0100
,
0010
0001
0000
1000
0000
0010
0100
0000
,
0001
0000
1000
0010
1000
0000
0001
0000
1000
0100
1000
0000
0001
0000
1000
0010
,
1000
0000
0001
0000
1000
0100
1000
0000
0001
0100
0010
0000
1000
0100
0010
0000
,
0001
0000
0010
0100
0010
0000
0001
0000
0100
0010
0100
0000
0001
0000
0010
0100
,
0010
0000
0001
0000
0100
0010
0100
0000
0010
0000
1000
0001
0010
0100
1000
0001
,
0100
0000
0010
0000
1000
0000
0001
0010
0100
1000
0001
1000
0010
0100
0001
0010
,
0100
0000
1000
0001
0100
0000
0010
0100
0001
1000
0010
0100
0001
1000
0001
0010
,
0100
1000
0001
1000
0001
0100
0010
0100
0001
1000
0001
0010
0100
1000
0001
0100
,
0010
0000
1000
0010
0100
0000
0001
0010
0100
0010
0001
1000
0001
0100
0010
1000
,
0001
0100
0001
0100
0001
1000
0001
1000
0001
0010
0001
0010
0100
0010
0001
1000
,
0001
1000
0100
0010
0100
1000
0001
0100
0001
1000
0100
0010
0001
1000
0001
0100
,
0010
1000
0010
0100
0010
1000
0001
0010
0001
1000
0100
0010
0001
1000
0001
0010
,
0100
0010
0001
1000
0001
0100
0010
1000
0001
1000
0100
0010
0100
1000
0001
0100
,
0010
1000
0010
1000
0001
1000
0001
1000
0100
1000
0100
1000
0100
0010
0100
1000
,
0001
1000
0010
0100
0010
1000
0001
0010
0001
1000
0010
0100
0001
1000
0001
0010
,
0100
1000
0001
1000
0100
1000
0001
0100
0001
1000
0010
0100
0001
1000
0001
0100
,
0010
1000
0000
0100
0000
1000
0100
0000
,
1000
0000
0010
0000
0000
0000
0100
0000
0000
0000
0001
0000
1000
0001
0010
0001
,
2000
0000
3000
0000
;

//---------------dance-single - Zaia - 12.9----------------
#NOTES:
     dance-single:
     Zaia - 12.9:
     Medium:
     12:
     1.000,1.000,0.023,0.122,0.754,907.000,3.000,16.000,0.000,0.000:
0000
0000
0000
0000
,
0000
0000
0000
0000
,
0001
1000
0000
0010
0000
0100
0000
0001
,
0100
0001
1000
1000
0010
0100
0001
0100
,
0000
0000
0010
1000
0000
0001
0000
1000
,
0100
0010
0001
0001
1000
0100
1000
0010
,
0110
0100
0001
1000
0001
0100
0010
1000
,
1001
0001
0010
0100
0010
0001
1000
0010
,
0200
0000
0302
2003
,
3001
0000
0010
0100
1000
0000
0001
0100
0010
1000
0001
1000
0100
0010
0100
1000
,
0001
0100
0001
1000
0100
1000
0010
0100
,
0001
1000
0100
1000
0001
0100
0010
1000
,
0001
0010
0001
1000
0010
1000
0100
0010
,
0001
0000
1000
0000
0010
0000
1000
0000
0001
0000
0010
0100
1000
0001
1000
0010
,
0100
0000
0001
0000
1000
0000
0100
0010
0100
0000
1000
0000
0001
0100
0010
1000
,
0001
0010
0001
0100
0010
1000
0010
0100
,
0001
0000
1000
0100
1000
0000
0001
1000
0001
1000
0010
0100
0001
0100
0010
1000
,
0001
0010
0000
0100
0000
1000
0001
0000
,
1000
0010
1000
0001
0010
0001
0100
0010
,
1000
0001
0010
0001
1000
0010
0100
0001
,
1000
0100
1000
0001
0100
0001
0010
0100
,
1000
0000
0001
0000
0100
0000
0001
0000
1000
0000
0100
0010
0001
1000
0001
0100
,
0010
0000
1000
0000
0001
0000
0010
0100
0010
0000
0001
0000
1000
0010
0100
0001
,
1000
0100
1000
0010
0100
0001
0100
0010
,
1000
0000
0001
0010
0001
0000
1000
0001
1000
0001
0010
0100
1000
0100
0010
0001
,
1000
0000
0100
0010
0001
0000
1000
0000
0001
0100
0001
0000
1000
0100
1000
0000
,
0001
1000
0010
0100
0010
0100
0001
1000
,
0100
0010
0001
1000
0010
1000
0001
0100
,
0001
1000
0100
0010
0100
1000
0010
0100
,
0001
0010
0001
1000
0001
0100
0001
1000
0100
0010
0001
0010
0100
1000
0001
1000
,
0001
1000
0100
0010
0100
0010
0001
1000
,
0010
0100
0001
1000
0100
1000
0001
0010
,
0001
1000
0010
0100
0010
1000
0100
0010
,
0001
0100
0000
0010
0000
1000
0001
0000
,
1000
0000
0001
0010
0001
0000
1000
0000
0001
0100
0001
0000
1000
0000
0001
0010
,
0001
0000
1000
0000
0001
0100
0001
0000
1000
0100
0010
0000
0001
0100
0010
0000
,
1000
0000
0010
0100
0010
0000
1000
0000
0100
0010
0100
0000
1000
0000
0010
0100
,
0010
0000
1000
0000
0100
0010
0100
0000
0010
0000
0001
1000
0010
0100
0001
1000
,
0100
0000
0010
0000
0001
0000
1000
0010
0100
0000
0001
0000
0010
0100
1000
0010
,
0100
0001
1000
0100
0010
0100
1000
0001
,
0100
0000
0010
1000
0001
0000
0010
0100
1000
0001
1000
0010
0100
0001
1000
0100
,
0010
0001
0000
1000
0000
0010
0100
0000
,
0001
0000
1000
0010
1000
0000
0001
0000
1000
0100
1000
0000
0001
0000
1000
0010
,
1000
0000
0001
0000
1000
0100
1000
0000
0001
0100
0010
0000
1000
0100
0010
0000
,
0001
0000
0010
0100
0010
0000
0001
0000
0100
0010
0100
0000
0001
0000
0010
0100
,
0010
0000
0001
0000
0100
0010
0100
0000
0010
0000
1000
0001
0010
0100
1000
0001
,
0100
0000
0010
0000
1000
0000
0001
0010
0100
0000
1000
0000
0010
0100
0001
0010
,
0100
1000
0001
0100
0010
0100
0001
1000
,
0100
0000
0010
0001
1000
0000
0010
0100
0001
1000
0001
0010
0100
1000
0001
0100
,
0010
0000
1000
0010
0100
0000
0001
0010
0100
0010
0001
1000
0001
0100
0010
1000
,
0001
0000
0100
0000
0001
0000
1000
0000
0001
0010
0001
0000
1000
0000
0001
0100
,
0001
0000
1000
0000
0100
0000
1000
0000
0010
0100
0010
0000
1000
0000
0100
1000
,
0100
0000
0010
0000
0001
0000
1000
0000
0010
1000
0010
0000
0100
0000
0001
1000
,
0001
0000
0010
0000
0100
0000
1000
0000
0001
0100
0001
0000
1000
0000
0100
0010
,
0100
1000
0001
0100
0010
1000
0001
0010
0100
1000
0010
0100
,
0001
1000
0100
0010
0001
1000
0010
0100
0001
1000
0001
0010
,
0000
0000
0000
0000
,
0000
0000
0000
0000
,
2000
0000
0000
0000
,
3200
0000
0000
0000
,
0320
0000
0000
0000
,
0032
0000
0000
0000
,
2003
0000
0000
0000
,
3020
0000
0000
0000
,
0230
0000
0000
0000
,
0302
0000
0000
0003
,
1001
0000
0001
0000
0100
0010
0000
1000
,
0000
0001
0000
0010
0000
0100
1000
0001
,
0000
0000
0100
0000
0001
1000
0000
0100
,
0000
0010
0000
0001
0000
1000
0010
0100
,
0000
0000
0010
0000
1000
0001
0000
0010
,
0000
0100
0000
1000
0000
0100
0000
0010
,
0000
0001
1000
0010
,
0200
0000
0000
0000
,
0301
0000
0001
0000
1000
0001
1000
0010
1000
0001
1000
0010
0100
0000
0000
0000
,
0001
0000
0001
0000
1000
0100
1000
0001
1000
0100
1000
0001
0100
0000
0000
0000
,
0010
0000
0010
0000
0100
0001
1000
0010
1000
0001
1000
0010
1000
0000
0000
0000
,
0100
0000
0100
0000
0010
0001
0010
0100
1000
0001
1000
0001
0100
0000
0000
0000
,
0010
0000
0100
0000
0001
1000
0001
0000
0010
0000
0100
0000
1000
0001
1000
0000
,
0010
0000
0100
0000
0001
1000
0001
0000
0010
0000
0100
0000
1000
0001
1000
0000
,
0001
0000
1000
0100
0010
0000
0001
0100
0010
0000
1000
0100
0010
0000
0001
0000
,
1000
1000
0000
0001
0000
1000
0000
0001
,
0100
0100
0000
0010
0000
0100
0000
0010
,
0200
0000
0302
2003
,
3001
0000
0010
0100
1000
0000
0001
0100
0010
1000
0001
1000
0100
0010
0100
1000
,
0001
0100
0001
1000
0100
1000
0010
0100
,
0001
1000
0100
1000
0001
0100
0010
1000
,
0001
0010
0001
1000
0010
1000
0100
0010
,
0001
0000
1000
0000
0010
0000
1000
0000
0001
0000
0010
0100
1000
0001
1000
0010
,
0100
0000
0001
0000
1000
0001
0100
0010
0100
0001
1000
0001
0010
0100
1000
0001
,
1000
0000
0010
1000
0001
0000
0100
0000
0010
0000
1000
0000
0010
0000
0100
0000
,
0001
1000
0001
0010
0100
0010
0001
1000
0001
1000
0010
0100
0001
0100
0010
1000
,
0001
0010
0000
0100
0000
1000
0001
0000
,
1000
0010
1000
0001
0010
0001
0100
0010
,
1000
0001
0010
0001
1000
0010
0100
0001
,
1000
0100
1000
0001
0100
0001
0010
0100
,
1000
0000
0001
0000
0100
0000
0001
0000
1000
0000
0100
0010
0001
1000
0001
0100
,
0010
0000
1000
0001
1000
0001
0010
0100
0010
0001
1000
0001
1000
0010
0100
0001
,
1000
0000
0100
0000
1000
0000
0010
0100
0001
0100
0010
1000
0001
1000
0001
0010
,
0100
1000
0001
0010
0001
1000
0001
1000
0100
0010
0100
1000
0001
0100
0010
1000
,
0001
0000
0010
0100
1000
0000
0001
0000
1000
0010
1000
0000
0001
0010
0001
0000
,
1000
0010
1000
0001
0010
0001
0100
0010
,
1000
0001
0010
0001
1000
0010
0100
0001
,
1000
0100
1000
0001
0100
0001
0010
0100
,
1000
0001
0100
0010
1000
0001
1000
0100
0010
0001
0010
0100
1000
0001
1000
0010
,
0100
0001
1000
0100
1000
0001
0100
0010
,
1000
0001
0010
0100
1000
0010
0100
0001
,
1000
0001
1000
0001
0001
0100
0010
0100
,
0010
1000
0000
0001
0000
0010
0100
1000
,
0001
0000
0100
0000
0000
0000
0010
0000
0000
0000
1000
0000
0001
1000
0100
1000
,
0002
0000
0003
0000
;
