#TITLE:Genie in a Bottle;
#SUBTITLE:Sexuality Violation;
#ARTIST:Christina Aguilera;
#TITLETRANSLIT:;
#SUBTITLETRANSLIT:;
#ARTISTTRANSLIT:;
#CREDIT:;
#BANNER:genie in a bottle-bn.png;
#BACKGROUND:genie in a bottle-bg.png;
#LYRICSPATH:;
#CDTITLE:;
#MUSIC:genie in a bottle.ogg;
#OFFSET:-2.725;
#SAMPLESTART:46.427;
#SAMPLELENGTH:12.000;
#SELECTABLE:YES;
#DISPLAYBPM:176.000;
#BPMS:0.000=175.920;
#STOPS:;
#BGCHANGES:;
// cache tags:
#FIRSTBEAT:0.000;
#LASTBEAT:448.000;
#SONGFILENAME:Songs/Sexuality Violation 2/Genie in a Bottle - [NC.BadLieutenant]/genie in a bottle.sm;
#HASMUSIC:1;
#HASBANNER:1;
#MUSICLENGTH:156.946;
// end cache tags

//---------------dance-single - NC.BadLieutenant----------------
#NOTES:
     dance-single:
     NC.BadLieutenant:
     Challenge:
     14:
     1.000,1.000,0.000,0.268,1.000,1334.000,0.000,42.000,0.000,0.000:

1000
0001
0100
0020
0000
2030
0000
0000
,
3001
0010
0001
0200
0000
0320
0000
0230
,
0301
1000
0100
2000
0000
3020
0000
2030
,
3001
0000
0010
0100
0010
0100
0010
0000
0001
0000
0100
0000
0010
0000
1000
0000
,
0001
1000
0100
0020
0000
0032
0000
0000
,
1003
0100
1000
0020
0000
0230
0000
0320
,
1030
0001
0100
0002
0000
0023
0000
0230
,
1300
0000
0010
1000
0010
1000
0010
0000
1000
0000
0010
0000
0100
0000
0001
0000
,
1000
0100
0000
0100
0000
0010
0000
0010
,
0000
0001
0000
0001
0000
1000
0010
0100
,
0000
0100
0000
0100
0000
0001
0010
0100
,
1000
0000
0001
0100
0001
0100
0001
0000
1000
0000
0001
0000
0100
0000
0010
0000
,
1000
0100
0010
0002
0000
0023
0000
0000
,
0031
1000
0100
2000
0000
3010
0100
0001
,
1000
0001
0010
0002
0000
0203
0000
0320
,
1030
0000
0001
0010
0001
0010
0001
0000
1000
0000
0001
0000
0100
0000
0001
0000
,
1000
0100
0010
0100
0000
1000
0010
0100
,
0001
0010
0001
0000
1000
0000
0001
0010
,
0000
0010
0000
0010
0000
0100
1000
0001
,
0100
0000
0010
1000
0010
1000
0010
0000
1000
0000
0100
0000
0010
0000
0001
0000
,
1000
0001
0100
0002
0000
0023
0000
0000
,
0031
0100
0010
0200
0000
0302
0000
0023
,
0031
1000
0100
2000
0000
3020
0000
0230
,
0310
0000
1000
0001
1000
0001
1000
0000
0001
0000
1000
0000
0100
0000
1000
0000
,
0010
1000
0001
0010
0100
1000
0010
0100
0010
1000
0001
0100
0001
1000
0100
1000
,
0001
0010
0100
1000
0001
0010
0001
1000
0100
0010
0100
1000
0001
0010
0001
1000
,
0010
1000
0100
0010
0001
0100
0010
1000
,
0001
0000
0010
0100
0010
0100
0010
0000
0001
0000
1000
0000
0010
0000
0100
0000
,
0010
1000
0010
0100
0001
0010
0100
1000
0100
1000
0001
0100
0001
1000
0010
0100
,
0010
1000
0001
0100
0010
1000
0001
0010
0001
0100
0001
1000
0100
0010
0001
1000
,
0010
1000
0100
0010
0001
0100
0010
1000
,
0001
1000
0100
1000
0010
0000
0000
0100
,
0001
1000
0100
0010
0001
0100
0001
1000
0001
1000
0010
0100
0001
0100
0010
1000
,
0001
0010
0001
1000
0100
1000
0001
1000
0001
0100
0010
1000
0100
1000
0001
0100
,
0001
1000
0100
0010
0100
1000
0001
0100
0001
1000
0010
0100
0001
0010
0001
1000
,
0001
1000
0100
1000
0100
0010
0001
1000
0010
1000
0100
1000
0001
0100
0001
1000
,
0010
0100
0001
0100
0010
0100
0001
1000
0100
1000
0010
1000
0010
0100
0001
1000
,
0001
0100
0001
1000
0010
0100
0001
1000
0100
1000
0001
0010
0100
0010
0001
0100
,
0001
1000
0010
1000
0001
1000
0001
0010
0001
1000
0100
0010
0001
1000
0001
0010
,
0100
0010
0001
0100
0001
1000
0100
1000
0010
0100
0001
0100
0001
1000
0100
0010
,
0001
1000
0001
0010
0100
1000
0001
0100
0001
1000
0010
1000
0100
1000
0001
0010
,
0100
1000
0001
0010
0001
1000
0010
0100
0010
1000
0001
0100
0001
0010
0001
1000
,
0100
0010
0001
1000
0001
1000
0100
1000
0001
0100
0001
1000
0010
1000
0100
0010
,
0001
1000
0001
0100
0010
1000
0001
0100
0001
0100
0010
1000
0001
1000
0100
0010
,
0001
0100
0001
1000
0100
1000
0010
0100
0001
1000
0100
1000
0001
0100
0010
1000
,
0001
0100
0001
1000
0010
0100
0010
1000
0001
0100
0001
0010
0001
1000
0100
0010
,
0100
1000
0001
0010
0100
1000
0001
1000
0010
0100
0001
1000
0010
1000
0100
0010
,
0001
1000
0001
0010
0001
1000
0001
0100
0010
1000
0100
1000
0001
0100
0001
1000
,
0010
0100
0001
1000
0010
1000
0001
0010
0001
1000
0100
0010
0100
1000
0010
1000
,
0001
0100
0001
1000
0010
0100
0001
1000
0010
0100
0010
1000
0001
0010
0001
1000
,
0001
1000
0100
1000
0001
0010
0100
0010
0001
1000
0100
0010
0001
1000
0001
1000
,
0001
0010
0100
1000
0010
1000
0001
0100
0001
0100
0010
1000
0001
0100
0010
1000
,
0100
0010
0001
1000
0010
1000
0001
0100
0001
0010
0100
1000
0001
0010
0001
1000
,
0010
1000
0001
0100
0010
0100
0001
1000
0010
1000
0001
0010
0001
1000
0001
1000
,
0100
0010
0001
1000
0001
0100
0010
1000
0100
1000
0001
0100
0010
1000
0100
1000
,
0001
0100
0010
1000
0100
1000
0001
0100
0001
0100
0010
1000
0001
1000
0001
0010
,
0100
0000
1000
0010
0000
0100
0001
0100
,
0010
0000
0100
0000
0001
0000
0010
0100
,
0000
0100
0000
0100
0000
1000
0010
0100
,
0001
0000
0010
0100
0010
0100
0010
0000
0001
0000
0100
0000
0010
0000
1000
0000
,
0001
1000
0100
0020
0000
0230
0000
0000
,
1300
0010
0100
0020
0000
0230
0000
0302
,
1003
0100
1000
0020
0000
0230
0000
0320
,
1030
0000
0100
0010
0100
0010
0100
0000
1000
0000
0001
0000
0100
0000
0001
0000
,
0000
0001
0000
0001
0000
0010
0100
1000
,
0010
0000
0100
0001
0000
0000
1000
0100
,
0000
0100
0000
0100
0000
1000
0001
0100
,
0001
0000
1000
0100
1000
0100
1000
0000
0001
0000
0010
0000
0100
0000
1000
0000
,
0010
0000
0100
0001
0000
1000
0100
0000
,
0010
0000
0001
0100
0000
0010
1000
0000
,
0001
1000
0010
2000
0000
3002
0000
0023
,
0130
0000
1000
0010
1000
0010
1000
0000
0001
0000
0100
0000
0010
0000
1000
0000
,
0001
0010
0001
1000
0010
0100
0001
0010
0001
1000
0100
0010
0100
1000
0001
1000
,
0001
0010
0001
1000
0010
1000
0100
1000
0001
0100
0010
1000
0001
1000
0010
1000
,
0100
1000
0010
0100
0001
0010
0100
1000
,
0001
0000
0010
0100
0010
0100
0010
0000
0001
0000
0100
0000
0010
0000
1000
0000
,
0001
1000
0100
1000
0001
0100
0010
1000
0001
0100
0001
1000
0010
0100
0010
1000
,
0100
0010
0001
1000
0001
0010
0100
1000
0001
0100
0001
0010
0001
1000
0100
1000
,
0010
1000
0100
0010
0001
0100
0010
0010
,
1000
1000
0100
0010
0001
0001
0100
0010
,
1000
0100
0010
0100
1000
0010
0100
0001
1000
0001
0100
0001
1000
0100
1000
0001
,
0010
0001
1000
0100
0010
0001
1000
0001
0100
0010
1000
0100
1000
0001
0100
0001
,
1000
0010
0100
0010
1000
0001
1000
0001
0100
0001
1000
0100
0010
0001
0100
0001
,
1000
0010
0100
0001
1000
0001
0100
0010
1000
0001
0010
0001
1000
0010
0100
0010
,
1000
0100
1000
0001
0100
0001
1000
0100
0010
0001
1000
0001
0010
0100
1000
0010
,
0100
0001
1000
0010
1000
0001
1000
0100
0010
0001
1000
0001
0010
0001
1000
0010
,
0100
0010
1000
0001
0010
0100
1000
0010
1000
0001
0100
0001
1000
0001
0010
0001
,
0100
0010
1000
0001
0100
0001
1000
0100
0010
0100
1000
0001
0010
0100
1000
0010
,
1000
0001
0100
0001
1000
0010
0100
0001
0010
0001
1000
0100
0010
0001
1000
0001
,
0100
0010
1000
0001
0100
0001
1000
0100
1000
0001
0010
0100
0010
0001
0100
0010
,
1000
0001
0100
0001
0100
0001
0010
0100
1000
0010
1000
0001
0010
0001
1000
0100
,
0010
0100
1000
0001
0010
0100
1000
0001
1000
0010
0100
0001
0010
0001
1000
0100
,
1000
0001
1000
0100
1000
0001
0100
0010
1000
0100
1000
0001
1000
0100
0010
0001
,
1000
0001
0010
0001
1000
0010
1000
0100
0010
0001
0100
0001
1000
0010
1000
0001
,
0100
0010
0100
0001
0010
0100
1000
0001
1000
0010
0100
0001
1000
0100
1000
0001
,
0100
0001
1000
0100
0010
0100
0010
0001
0100
0010
1000
0001
1000
0100
0010
0001
,
1000
0010
1000
0100
1000
0001
0100
0001
1000
0010
0100
0010
1000
0001
1000
0100
,
0010
0001
1000
0001
0100
0010
1000
0100
1000
0001
0100
0001
0100
0010
1000
0001
,
0010
0100
0010
0001
1000
0100
1000
0001
1000
0100
0010
0001
1000
0001
0100
0001
,
1000
0001
0100
0010
0100
0001
0010
0100
1000
0001
1000
0100
0010
0001
1000
0100
,
1000
0001
0100
0001
1000
0010
0100
0010
1000
0100
1000
0001
0010
0100
1000
0001
,
1000
0100
1000
0001
0100
0001
0010
0100
1000
0001
0010
0001
1000
0010
0100
0001
,
1000
0001
0100
0001
1000
0100
0010
0001
0100
0001
1000
0100
0010
0001
0100
0001
,
1000
0010
0100
0001
1000
0001
0100
0001
0010
0001
1000
0100
1000
0001
0010
0100
,
1000
0001
1000
0100
0010
0100
1000
0010
1000
0001
1000
0010
0100
0001
1000
0010
,
1000
0001
0010
0100
1000
0001
0010
0100
0010
0001
0100
0010
1000
0001
1000
0010
,
1000
0001
0100
0001
1000
0100
0010
0100
1000
0001
0010
0100
1000
0010
1000
0001
,
0100
0001
1000
0001
1000
0001
0100
0010
1000
0001
0010
0100
1000
0001
0010
0001
,
1000
0100
0010
0001
1000
0001
0100
0010
1000
0100
1000
0001
0100
0001
0100
0010
,
1000
0001
0010
0100
1000
0010
1000
0001
0010
0001
0100
0001
1000
0010
0100
0001
,
1000
0000
0010
0000
0000
0010
0000
0000
,
1000
0100
0010
0000
0001
1000
0200
0000
,
0310
0000
0000
0000
;

//---------------dance-single - NC.BadLieutenant----------------
#NOTES:
     dance-single:
     NC.BadLieutenant:
     Hard:
     9:
     0.766,0.642,0.013,0.382,0.000,780.000,2.000,60.000,0.000,0.000:
1000
0001
0100
0020
0000
2030
0000
0000
,
3001
0010
0001
0200
0000
0320
0000
0230
,
0301
1000
0100
2000
0000
3020
0000
2030
,
3001
0010
0100
0010
0001
0100
0010
1000
,
0001
1000
0100
0020
0000
0032
0000
0000
,
1003
0100
1000
0020
0000
0230
0000
0320
,
1030
0001
0100
0002
0000
0023
0000
0230
,
1300
0010
0100
0010
1000
0010
0100
0001
,
1000
0100
0000
0100
0000
0010
0000
0010
,
0000
0001
0000
0001
0000
1000
0010
0100
,
0000
0100
0000
0100
0000
0001
0010
0100
,
1000
0001
0100
0001
1000
0001
0100
0010
,
1000
0100
0010
0002
0000
0023
0000
0000
,
0031
1000
0100
2000
0000
3010
0100
0001
,
1000
0001
0010
0002
0000
0203
0000
0320
,
1030
0001
0010
0001
1000
0001
0100
0001
,
1000
0100
0010
0100
0000
1000
0010
0100
,
0001
0010
0001
0000
1000
0000
0001
0010
,
0000
0010
0000
0010
0000
0100
1000
0001
,
0100
0010
1000
0010
1000
0100
0010
0001
,
1000
0001
0100
0002
0000
0023
0000
0000
,
0031
0100
0010
0200
0000
0302
0000
0023
,
0031
1000
0100
2000
0000
3020
0000
0230
,
0310
1000
0001
1000
0001
1000
0100
1000
,
0020
0000
0000
0000
0000
0000
0000
0000
0000
0000
0000
0000
0000
0000
0000
0000
0000
0000
0000
0000
0000
0000
0000
0000
0100
0000
0000
0000
0000
0000
0000
0000
0000
0000
0000
0000
0000
0000
0000
0000
0000
0000
0000
0000
0000
0000
0000
0000
0000
0000
0000
0000
0000
0000
0000
0000
0000
0000
0000
0000
0000
0000
0000
0000
0000
0000
0000
0000
0000
0000
0000
0030
1002
0000
0000
0000
0000
0000
0000
0000
0000
0000
0000
0000
0000
0000
0000
0000
0000
0000
0000
0000
0000
0000
0000
0000
0000
0000
0000
0000
0000
0000
0000
0000
0000
0000
0000
0000
0000
0000
0000
0000
0000
0000
0000
0000
0000
0000
0000
0000
0010
0000
0000
0000
0000
0000
0000
0000
0000
0000
0000
0000
0000
0000
0000
0000
0000
0000
0000
0000
0000
0000
0000
0000
2003
0000
0000
0000
0000
0000
0000
0000
0000
0000
0000
0000
0000
0000
0000
0000
0000
0000
0000
0000
0000
0000
0000
0000
0001
0000
0000
0000
0000
0000
0000
0000
0000
0000
0000
0000
0000
0000
0000
0000
0000
0000
0000
0000
0000
0000
0000
0000
,
0000
3020
0000
0000
2030
0000
0000
0000
,
3010
1000
0100
0010
0001
0100
0010
1000
,
0001
0010
0100
0010
0001
1000
0010
0100
,
2000
0000
0000
3200
0000
0000
0320
0000
,
0000
0000
0000
0000
0000
0000
0000
0000
0000
0000
0000
0000
0000
0000
0000
0000
0000
0000
0000
0000
0000
0000
0000
0000
2030
0000
0000
0000
0000
0000
0000
0000
0000
0000
0000
0000
0000
0000
0000
0000
0000
0000
0000
0000
0000
0000
0000
0000
0000
0000
0000
0000
0000
0000
0000
0000
0000
0000
0000
0000
0000
0000
0000
0000
0000
0000
0000
0000
0000
0000
0000
0000
0000
0000
0000
0000
0000
0000
0000
0000
0000
0000
0000
0000
0000
0000
0000
0000
0000
0000
0000
0000
0000
0000
0000
0000
3020
0000
0000
0000
0000
0000
0000
0000
0000
0000
0000
0000
0000
0000
0000
0000
0000
0000
0000
0000
0000
0000
0000
0000
0000
0000
0000
0000
0000
0000
0000
0000
0000
0000
0000
0000
0000
0000
0000
0000
0000
0000
0000
0000
0000
0000
0000
0000
0000
0000
0000
0000
0000
0000
0000
0000
0000
0000
0000
0000
0000
0000
0000
0000
0000
0000
0000
0000
0000
0000
0000
0000
0000
0000
0000
0000
0000
0000
0000
0000
0000
0000
0000
0000
0000
0000
0000
0000
0000
0000
0000
0000
0000
0000
0000
0030
,
0010
1000
0100
0010
0001
0100
0010
1000
,
0001
1000
0100
1000
0010
0000
0000
0100
,
0001
0010
0100
0010
0001
0100
1000
0100
,
0010
0100
0010
0001
0010
1000
0100
0010
,
0001
1000
0100
0010
0100
0001
0100
1000
,
0001
0010
0100
0010
1000
0010
0100
0010
,
0001
1000
0010
0100
0001
0010
0001
0100
,
0001
1000
0010
1000
0100
0010
0001
1000
,
0001
0100
0010
1000
0001
0010
1000
0010
,
0001
1000
0100
0010
0100
0001
0100
1000
,
0010
0001
0010
0100
0010
1000
0001
1000
,
0010
0100
0001
0010
0100
1000
0001
0010
,
0001
1000
0100
0010
0100
1000
0100
1000
,
0100
0001
0100
1000
0001
0100
0010
1000
,
0001
0100
0001
1000
0010
0100
0010
1000
,
0001
0100
1000
0100
0001
1000
0010
0100
,
0010
0001
0010
1000
0001
0100
0001
1000
,
0100
0010
0001
0100
0001
0010
0001
1000
,
0100
1000
0010
0100
0001
1000
0100
0001
,
0100
0010
0100
0001
0100
1000
0001
1000
,
0010
0100
0010
1000
0100
0010
0001
1000
,
0001
0010
0100
1000
0100
0001
0100
1000
,
0001
0010
0001
1000
0010
0100
0010
0001
,
0010
0100
0010
1000
0001
0010
0100
1000
,
0100
1000
0001
0010
0100
0010
0001
1000
,
0010
0100
0010
1000
0001
0100
0010
1000
,
0100
0000
1000
0010
0000
0100
0001
0100
,
0010
0000
0100
0000
0001
0000
0010
0100
,
0000
0100
0000
0100
0000
1000
0010
0100
,
0001
0010
0100
0010
0001
0100
0010
1000
,
0001
1000
0100
0020
0000
0230
0000
0000
,
1300
0010
0100
0020
0000
0230
0000
0302
,
1003
0100
1000
0020
0000
0230
0000
0320
,
1030
0100
0010
0100
1000
0001
0100
0001
,
0000
0001
0000
0001
0000
0010
0100
1000
,
0010
0000
0100
0001
0000
0000
1000
0100
,
0000
0100
0000
0100
0000
1000
0001
0100
,
0001
1000
0100
1000
0001
0010
0100
1000
,
0010
0000
0100
0001
0000
1000
0100
0000
,
0010
0000
0001
0100
0000
0010
1000
0000
,
0001
1000
0010
2000
0000
3002
0000
0023
,
0130
1000
0010
1000
0001
0100
0010
1000
,
0002
0000
0000
0000
0000
0000
0000
0000
0000
0000
0000
0000
0000
0000
0000
0000
0000
0000
0000
0000
0000
0000
0000
0000
0100
0000
0000
0000
0000
0000
0000
0000
0000
0000
0000
0000
0000
0000
0000
0000
0000
0000
0000
0000
0000
0000
0000
0000
0000
0000
0000
0000
0000
0000
0000
0000
0000
0000
0000
0000
0000
0000
0000
0000
0000
0000
0000
0000
0000
0000
0000
0003
2010
0000
0000
0000
0000
0000
0000
0000
0000
0000
0000
0000
0000
0000
0000
0000
0000
0000
0000
0000
0000
0000
0000
0000
0000
0000
0000
0000
0000
0000
0000
0000
0000
0000
0000
0000
0000
0000
0000
0000
0000
0000
0000
0000
0000
0000
0000
0000
0100
0000
0000
0000
0000
0000
0000
0000
0000
0000
0000
0000
0000
0000
0000
0000
0000
0000
0000
0000
0000
0000
0000
0000
3002
0000
0000
0000
0000
0000
0000
0000
0000
0000
0000
0000
0000
0000
0000
0000
0000
0000
0000
0000
0000
0000
0000
0000
0100
0000
0000
0000
0000
0000
0000
0000
0000
0000
0000
0000
0000
0000
0000
0000
0000
0000
0000
0000
0000
0000
0000
0000
,
0000
0000
0000
0000
0000
0000
0000
0000
0000
0000
0000
0000
0000
0000
0000
0000
0000
0000
0000
0000
0000
0000
0000
0000
2003
0000
0000
0000
0000
0000
0000
0000
0000
0000
0000
0000
0000
0000
0000
0000
0000
0000
0000
0000
0000
0000
0000
0000
0000
0000
0000
0000
0000
0000
0000
0000
0000
0000
0000
0000
0000
0000
0000
0000
0000
0000
0000
0000
0000
0000
0000
0000
0000
0000
0000
0000
0000
0000
0000
0000
0000
0000
0000
0000
0000
0000
0000
0000
0000
0000
0000
0000
0000
0000
0000
0000
3020
0000
0000
0000
0000
0000
0000
0000
0000
0000
0000
0000
0000
0000
0000
0000
0000
0000
0000
0000
0000
0000
0000
0000
0000
0000
0000
0000
0000
0000
0000
0000
0000
0000
0000
0000
0000
0000
0000
0000
0000
0000
0000
0000
0000
0000
0000
0000
0000
0000
0000
0000
0000
0000
0000
0000
0000
0000
0000
0000
0000
0000
0000
0000
0000
0000
0000
0000
0000
0000
0000
0000
0000
0000
0000
0000
0000
0000
0000
0000
0000
0000
0000
0000
0000
0000
0000
0000
0000
0000
0000
0000
0000
0000
0000
0030
,
0010
1000
0010
0100
0001
0010
0100
1000
,
0001
0010
0100
0010
0001
0100
0010
1000
,
0200
0000
0000
0320
0000
0000
0032
0000
,
0000
0000
1003
1000
0001
0100
0001
0100
,
0010
1000
0100
0010
0001
0100
0010
0010
,
1000
1000
0100
0010
0001
0001
0100
0010
,
1000
0100
0001
0100
0010
0100
0001
0100
,
1000
0010
0100
0001
0010
0100
1000
0001
,
1000
0001
0100
1000
0100
0001
1000
0010
,
0100
0010
0001
0010
0100
0010
1000
0001
,
0010
0001
1000
0100
0010
0100
1000
0001
,
1000
0001
0010
0001
0100
0001
1000
0010
,
1000
0100
1000
0001
0100
1000
0100
0010
,
0100
1000
0100
0001
1000
0100
0001
0100
,
1000
0100
0010
0001
1000
0001
0100
0010
,
1000
0001
0010
0001
1000
0100
1000
0010
,
0100
0001
1000
0010
0001
0010
0100
0010
,
0001
0010
1000
0001
0100
1000
0100
0001
,
0010
0001
0100
0001
1000
0100
0010
0001
,
0100
0001
0010
0100
1000
0001
0010
1000
,
0010
0001
1000
0100
0001
0100
1000
0001
,
0010
0001
1000
0010
0100
0001
1000
0010
,
0100
0010
1000
0001
0010
0001
1000
0100
,
0001
0100
0010
0100
0001
0100
1000
0001
,
1000
0010
0001
0010
1000
0001
0100
0001
,
0010
0001
1000
0100
0010
0001
1000
0100
,
1000
0010
0100
0001
0100
1000
0100
0001
,
1000
0001
0010
1000
0010
0001
1000
0100
,
1000
0010
0100
0001
0010
0100
0010
0001
,
1000
0100
0010
0100
0001
0100
1000
0010
,
1000
0001
0100
0001
0010
0100
1000
0100
,
0010
0001
1000
0001
0100
0001
0010
0001
,
1000
0010
0100
0010
0100
0010
1000
0001
,
0010
1000
0010
0001
1000
0100
1000
0010
,
0100
0001
0010
0001
1000
0100
0010
0100
,
1000
0001
0010
0100
0010
1000
0010
0100
,
1000
0000
0010
0000
0000
0010
0000
0000
,
1000
0100
0010
0000
0001
1000
0200
0000
,
0310
0000
0000
0000
;
