#TITLE:Super Sonic Ska;
#SUBTITLE:Sonic The Hedgehog;
#ARTIST:Blak Omen;
#TITLETRANSLIT:;
#SUBTITLETRANSLIT:;
#ARTISTTRANSLIT:;
#CREDIT:;
#BANNER:Super Sonic Ska.png;
#BACKGROUND:Super Sonic Ska-bg.png;
#LYRICSPATH:;
#CDTITLE:!zanTitle.png;
#MUSIC:Super Sonic Ska.mp3;
#OFFSET:-0.041;
#SAMPLESTART:46.198;
#SAMPLELENGTH:20.000;
#SELECTABLE:YES;
#BPMS:0.000=139.990;
#STOPS:;
#BGCHANGES:;
// cache tags:
#FIRSTBEAT:0.000;
#LASTBEAT:199.667;
#SONGFILENAME:Songs/VGMP 2/Super Sonic Ska (Zanthro)/Super Sonic Ska.sm;
#HASMUSIC:1;
#HASBANNER:1;
#MUSICLENGTH:87.471;
// end cache tags

//---------------dance-single - ----------------
#NOTES:
     dance-single:
     :
     Hard:
     13:
     1.000,1.000,1.000,1.000,1.000,559.000,168.000,181.000,0.000,81.000:

2000
0000
0000
0000
0000
0000
0011
0000
0200
3000
0000
0000
0000
0000
0000
0000
0320
0000
1001
0000
0000
0000
0000
0000
2030
0000
0000
0000
0000
0000
0101
0000
3020
0000
0000
0000
0000
0000
0000
0000
0032
0000
1100
0000
0000
0000
0000
0000
,
2003
0000
0000
0110
3002
0000
0000
0000
0023
1100
0000
0000
2030
0000
0000
0101
3020
0001
1000
0000
0230
2001
0000
0000
,
3310
0000
0000
0011
0000
1000
0010
0000
0000
1100
0001
0010
2000
0000
0000
0011
3200
0001
1000
0000
0302
2010
0000
0000
,
3013
0000
0000
0000
0000
0000
0110
0000
0000
0000
1000
0000
0001
0000
0000
0100
0000
0000
1010
0000
0000
0000
0100
0000
0020
0000
0000
0000
0000
0000
1001
0000
0230
0000
1000
0000
0010
0000
0000
0000
0302
0000
0210
0000
0000
0000
0000
0000
,
2313
0000
0000
3011
0000
0100
1000
0000
0000
1010
0000
0100
0002
0000
0023
1001
0230
0001
2300
0000
0000
3120
0000
0000
,
0032
0000
0000
0000
0000
0000
1010
0000
0000
0000
0100
0000
0010
0000
0000
0000
0000
0000
1100
0000
0000
0000
0010
0000
1000
0000
0000
0000
0000
0000
0110
0000
0000
0003
0100
0000
2000
0000
0000
0000
0000
0000
0201
0000
0000
0000
0000
0000
,
3312
0000
0000
0000
0000
0000
1000
0000
0000
0000
0100
0000
1013
0000
0000
0000
0000
0000
0010
0000
0000
0000
0001
0000
1100
0000
0000
0011
0000
0000
0100
0000
0000
0000
0001
0000
2000
0000
0000
0020
3000
0000
0230
0000
0000
0000
0010
0000
,
0302
0000
0000
0000
0000
0000
0000
0000
0000
0000
0000
0000
0000
0000
0000
0000
0000
0000
0000
0000
0000
0000
0000
0000
1003
0000
0000
0000
0000
0000
0000
0000
0000
0000
0000
0000
0000
0000
0000
0000
0100
0000
0000
0000
0000
0000
0000
0000
1001
0000
0000
0000
0000
0000
0000
0000
0000
0000
0000
0000
0000
0000
0000
0000
0000
0000
0000
0000
0000
0000
0000
0000
0020
0000
0000
0000
0000
0000
0030
0000
0000
0000
0000
0000
0020
0000
0000
0000
0000
0000
0030
0000
0000
0000
0000
0000
0000
0000
0000
0000
0000
0000
0000
0000
0000
0000
0000
0000
1200
0000
0000
0000
0000
0000
0000
0000
0000
0000
0000
0000
0321
0000
0000
0000
0000
0000
0000
0000
0000
0000
0000
0000
0030
0000
0000
0000
0000
0000
0000
0000
0000
0000
0000
0000
1002
0000
0000
0000
0000
0000
0000
0000
0000
0000
0000
0000
0203
0000
0000
0000
0000
0000
0000
0000
0000
0000
0000
0000
0320
0000
0000
0000
0000
0000
0000
0000
0000
0000
0000
0000
2030
0000
0000
0000
0000
0000
0000
0000
0000
0000
0000
0000
,
3020
0000
0000
0230
0000
0000
0321
0000
0000
0000
0000
0000
0132
0000
0000
0000
0000
0000
0100
0000
0000
0000
1000
0000
0023
0000
0000
0000
0000
0000
1000
0000
0000
0000
0100
0000
0032
0000
0003
0000
0200
0000
0320
0000
0030
0000
2000
0000
,
3201
0000
0020
0332
0003
0200
0320
0030
2000
3002
0023
0032
1203
0000
0000
0320
0000
1000
0032
0000
0000
0023
0000
0100
,
2031
0100
0010
0100
3000
0000
0000
0000
,
0000
0000
0000
0000
,
0001
0000
0000
0000
0000
0000
0010
0000
0000
0000
0000
0000
0000
0000
0000
0000
0000
0000
0000
0000
0000
0000
0000
0000
1001
0000
0000
0000
0000
0000
0000
0000
0000
0000
0000
0000
0000
0000
0000
0000
0000
0000
0000
0000
0000
0000
0000
0000
0100
0000
0000
0000
0000
0000
0000
0000
0000
0000
0000
0000
0010
0000
0000
0000
0000
0000
0000
0000
0000
0000
0000
0000
1100
0000
0000
0000
0000
0000
0000
0000
0000
0000
0000
0000
0010
0000
0000
0000
0000
0000
0000
0000
0000
0000
0000
0000
0100
0000
0000
0000
0000
0000
0000
0000
0000
0000
0000
0000
0002
0000
0000
0000
0000
0000
0000
0000
0000
0000
0000
0000
1010
0000
0000
0000
0000
0000
0000
0000
0000
0000
0000
0000
0000
0000
0000
0000
0100
0000
0000
0000
0000
0000
0000
0000
0010
0000
0000
0000
0000
0000
0000
0000
0000
0000
0000
0000
0000
0000
0000
0000
0000
0000
0000
0000
0000
0000
0000
0000
2103
0000
0000
0000
0000
0000
0000
0000
0000
0000
0000
0000
0000
0000
0000
0000
0000
0000
0000
0000
0000
0000
0000
0000
,
3010
0000
0000
0000
0000
0100
1010
0000
0000
0000
0001
0000
0000
0000
0010
0000
0000
0000
1001
0100
0000
0000
0000
0000
0010
0000
0000
0000
0001
0000
1010
0000
0100
0000
0000
0000
0000
0010
0000
0000
0000
0000
0201
0000
0000
0000
0000
0000
,
2301
0000
0000
0000
0000
0000
3110
0000
0000
0000
0001
0000
0020
0000
0000
0030
0000
0000
0201
0000
0000
0300
1000
0000
0010
0000
0000
0002
0000
0000
1013
0000
0000
0002
0100
0000
0023
0000
0000
0030
0000
0000
0201
0000
0000
0000
0000
0000
,
0310
0000
0000
0000
0000
0000
2001
0000
0000
3000
0100
0000
0020
0000
0000
0030
0000
0000
1200
0000
0000
0300
0001
0000
0010
0000
0000
0000
0000
0000
1100
0000
0000
0000
0001
0000
0010
0000
0000
0000
0101
0000
2000
0000
0000
0000
0000
0000
,
3100
0000
0000
0011
0000
0100
0010
0000
0000
1001
0000
0010
0100
0000
0000
0011
0000
1000
0100
0000
0000
0120
0000
0000
,
0031
0000
0000
1010
0000
0100
0010
0000
0000
0011
0000
0001
0010
0000
0000
0110
0000
0001
0100
0000
0000
2100
0000
0000
,
3012
0000
0000
0000
0000
0000
1010
0000
0000
0003
0100
0000
0020
0000
0000
0030
0000
0000
1200
0000
0000
0300
0010
0000
1000
0000
0000
0002
0000
0000
0113
0000
0000
0002
0000
0000
0023
0000
0000
0030
0000
0000
0201
0000
0000
0000
0000
0000
,
0310
0000
0000
0000
0000
0000
2010
0000
0000
3000
0100
0000
0002
0000
0000
0003
0000
0000
0120
0000
0000
0030
0001
0000
0100
0000
0000
0000
0000
0000
1010
0000
0000
0000
0100
0000
0010
0000
0000
0000
0101
0000
0020
0000
0000
0000
0000
0000
,
0230
0000
0000
0000
0000
0000
0011
0000
0000
0000
1000
0000
0302
0000
0000
0000
0000
0000
1100
0000
0023
0000
0100
0000
0001
0000
0000
0230
0000
0000
1001
0000
0000
0000
0010
0000
0302
0000
0000
0023
0000
0000
0132
0000
0000
0000
0000
0000
,
2003
0000
0000
3011
0000
0100
0010
0000
0000
1100
0000
0001
0010
0000
0000
0110
0000
0100
0010
0000
0000
2001
0000
0000
,
3012
0000
0000
0000
0000
0000
1010
0000
0000
0003
0100
0000
0020
0000
0000
0030
0000
0000
0201
0000
0000
0300
0010
0000
1000
0000
0000
0002
0000
0000
1103
0000
0000
0002
0000
0000
0023
0000
0000
0030
0000
0000
0201
0000
0000
0000
0000
0000
,
0310
0000
0000
0000
0000
0000
2100
0000
0000
0000
0010
0000
3002
0000
0000
0003
0000
0000
0120
0000
0000
0030
0001
0000
0100
0000
0000
0000
0000
0000
0012
0000
0000
0000
0100
0000
0013
0000
0000
0000
1100
0000
0020
0000
0000
0000
0000
0000
,
0031
0000
0000
0010
0000
0000
1000
0000
0000
0100
0000
0000
0001
0000
0000
0000
0000
0000
0100
0010
0001
1000
0100
0001
,
0010
0000
0000
0000
0000
0000
0100
0000
0000
0010
0000
0000
1000
0000
0000
0001
0000
0000
0010
0000
0100
0000
1000
0000
,
0001
0000
0000
0100
0000
0000
0010
0000
0000
0001
0000
0000
1000
0000
0000
0000
0000
0000
0001
0010
0100
1000
0000
0000
,
0010
0000
0000
0000
0000
0000
0000
0000
0000
0000
0000
0000
0000
0000
0000
0000
0000
0000
0000
0000
0000
0000
0000
0000
0100
0000
0000
0000
0000
0000
0000
0000
0000
0000
0000
0000
0000
0000
0000
0000
0000
0000
0000
0000
0000
0000
0000
0000
0010
0000
0000
0000
0000
0000
0000
0000
0000
0000
0000
0000
0000
0000
0000
0000
0000
0000
0000
0000
0000
0000
0000
0000
0001
0000
0000
0000
0000
0000
0000
0000
0000
0000
0000
0000
0000
0000
0000
0000
0000
0000
0000
0000
0000
0000
0000
0000
0100
0000
0000
0000
0000
0000
0000
0000
1000
0000
0000
0000
0000
0000
0000
0000
0001
0000
0000
0000
0000
0000
0000
0000
0010
0000
0000
0000
0000
0000
0000
0000
0100
0000
0000
0000
0000
0000
0000
0000
0010
0000
0000
0000
0000
0000
0000
0000
1002
0000
0000
0000
0000
0000
0000
0000
0100
0000
0000
0000
0000
0000
0000
0000
0000
0000
0010
0000
0000
0000
0000
0000
0003
0000
0000
0000
1000
0000
0000
0000
0000
0000
0000
0000
0000
0000
0000
0000
0000
0000
0000
0000
0000
0000
0000
0000
,
0010
0000
0000
0011
0000
1000
0010
0000
0000
1010
0100
0001
0020
0000
0000
1001
0230
0001
0010
0000
2300
0012
0000
0000
,
3013
0000
0000
0000
0000
0000
0110
0000
0000
0000
1000
0000
0001
0000
0000
0100
0000
0000
1001
0000
0000
0000
0100
0000
0020
0000
0000
0000
0000
0000
1100
0000
0032
0000
0010
0000
1000
0000
0000
0000
0203
0000
2010
0000
0000
0000
0000
0000
,
3312
0000
0000
0113
0000
0001
1000
0000
0000
1010
0000
0100
0002
0000
0203
1001
0320
0001
2030
0000
0000
3120
0000
0000
,
0032
0000
0000
0000
0000
0000
1010
0000
0000
0000
0100
0000
0010
0000
0000
0000
0000
0000
1100
0000
0000
0000
0010
0000
0100
0000
0000
0000
0000
0000
0110
0000
0000
0003
0100
0000
2000
0000
0000
0000
0000
0000
0002
0000
0000
0000
0000
0000
,
3013
0000
0000
0000
0000
0000
0110
0000
0000
0000
0000
0000
0010
0000
0000
0000
0000
0000
0101
0000
1000
0000
0001
0000
0020
0000
0000
0000
0000
0000
1001
0000
0230
0000
0001
0000
2000
0000
0000
3020
0302
0000
1230
0000
0000
0300
0000
0000
,
0023
0000
0000
0030
0000
0000
1020
0000
0000
0030
0100
0000
0001
0000
0000
0010
0000
0000
1100
0000
0000
0000
0001
0000
0020
0000
0000
0000
0000
0000
1100
0000
0032
0000
0100
0000
0010
0000
0000
2000
0203
0000
0011
0000
0000
0000
0000
0000
,
3312
0000
0000
0000
0000
0000
0113
0000
0000
0000
0001
0000
1000
0000
0000
0000
0000
0000
1010
0000
0000
0000
0100
0000
0020
0000
0000
0000
0230
0000
1001
0000
0320
0000
0100
0000
0032
0000
0000
0020
0000
0000
2233
0000
0000
0300
0000
0000
,
3020
0000
0000
0000
0000
0000
0101
0000
0000
0000
1000
0000
0100
0000
0000
0000
0000
0000
1100
0000
0000
0000
0001
0000
0100
0000
0000
0000
0000
0000
1001
0000
0000
0030
0100
0000
0002
0000
0000
0000
0000
0000
0210
0000
0000
0003
0000
0000
,
1310
0000
0000
0000
0000
0000
0010
0000
0000
0000
0000
0000
0011
0000
0000
1000
0000
0000
0100
0000
0000
0000
0000
0000
0110
0000
0000
0000
0000
0000
0000
0000
0011
0000
0000
0000
0000
0000
0000
0000
0110
0000
0000
0000
0000
0000
0000
0000
,
1010
0000
0000
0100
0000
0000
0110
0000
0000
0010
0000
0000
0011
0000
0000
0000
0110
0000
0000
0000
1100
0000
0000
0000
,
1010
0000
0000
0000
0000
0000
0010
0000
0000
0000
0000
0000
0011
0000
0000
1000
0000
0000
0100
0000
0000
0000
0000
0000
0011
0000
0000
0000
0000
0000
0000
0000
0110
0000
0000
0000
0000
0000
0000
0000
1100
0000
0000
0000
0000
0000
0000
0000
,
1010
0000
0000
0010
0000
0000
0110
0000
0000
0100
0000
0000
0101
0000
0000
0000
0110
0000
0000
0000
1100
0000
0000
0000
,
1010
0000
0000
0000
1010
0000
0000
0000
1010
0000
0001
0000
0100
0000
1000
0000
0011
0000
0000
0000
1010
0000
0000
0000
0101
0000
1001
0000
0100
0010
0001
0100
,
1010
0000
0000
0000
0000
0000
0000
0000
0000
0000
0000
0000
0000
0000
0000
0000
0000
0000
0000
0000
0000
0000
0000
0000
0010
0000
0000
0000
0000
0000
1000
0000
0000
0000
0000
0000
0001
0000
0000
0000
0000
0000
0100
0000
0000
0000
0000
0000
0011
0000
0000
0000
0000
0000
0000
0000
0000
0000
0000
0000
0000
0000
0000
0000
0000
0000
0000
0000
0000
0000
0000
0000
0210
0000
0000
0000
0000
0000
0000
0000
0000
0000
0000
0000
0300
0000
0000
0000
0000
0000
0000
0000
0000
0000
0000
0000
0010
0000
0000
0000
0000
0000
0000
0000
0000
0000
0000
0000
0000
0000
0000
0000
0010
0000
0100
0000
0000
0000
0000
0000
0000
0000
0000
0000
0000
0000
0000
0000
0000
0000
0000
0000
0000
0000
0000
0000
0000
0000
0000
0000
0000
0000
0000
0000
0010
0000
0000
0000
0000
0000
0000
0000
0000
0000
0000
0000
0000
0000
0000
0000
0010
0000
0000
0000
0000
0000
0000
0000
0000
0000
0000
0000
0000
0000
0000
0000
0010
0000
0000
0000
0000
0000
0000
0000
0000
0000
0000
0000
0000
0000
0000
0000
,
0101
0000
0000
0000
0000
0000
0000
0000
0000
0000
0000
0000
0000
0000
0000
0000
0000
0000
0000
0000
0000
0000
0000
0000
0101
0000
0000
0000
0000
0000
0000
0000
0000
0000
0000
0000
0000
0000
0000
0000
0000
0000
0000
0000
0000
0000
0000
0000
0101
0000
0000
0000
0000
0000
0000
0000
0000
0000
0000
0000
0000
0000
0000
0000
0000
0000
0000
0000
0000
0000
0000
0000
1000
0000
0000
0000
0000
0000
0000
0000
0000
0000
0000
0000
0000
0000
0000
0000
0000
0000
0000
0000
0000
0000
0000
0000
0110
0000
0000
0000
0000
0000
0000
0000
0000
0000
0000
0000
0000
0000
0000
0000
1000
0000
0000
0000
0000
0000
0000
0000
0011
0000
0000
0000
0000
0000
0000
0000
0100
0000
0000
0000
0000
0000
0000
0000
0000
0000
0000
0000
0000
0000
0000
0000
1100
0000
0000
0000
0000
0000
0000
0000
0000
0000
0000
0000
1001
0000
0000
0000
0010
0000
0000
0000
0000
0000
0000
0000
0100
0000
0000
0000
0000
0000
0001
0000
0000
0000
0000
0000
0010
0000
0000
0000
0100
0000
0000
0000
1000
0000
0000
0000
,
0011
0000
0000
0000
0000
0000
0011
0000
0000
0000
0000
0000
1020
0000
0000
0030
0000
0000
1200
0000
0000
0300
0000
0000
0010
0000
0000
0000
0000
0000
0100
0000
0000
0010
0000
0000
0001
0000
0000
0000
0010
0100
0000
0000
0000
0000
0000
0000
,
1020
0000
0000
0000
0000
0000
0000
0000
0000
0000
0000
0000
0030
0000
0000
0000
0000
0000
0000
0000
0000
0000
0000
0000
0000
0000
0000
0000
0000
0000
1000
0000
0000
0000
0000
0000
0000
0000
0000
0000
0000
0000
0000
0000
0000
0000
0000
0000
0200
0000
0000
0000
0000
0000
0000
0000
0000
0000
0000
0000
0000
0000
0000
0000
1000
0000
0000
0000
0000
0000
0000
0000
0002
0000
0000
0000
0000
0000
0000
0000
0000
0000
0000
0000
2303
0000
0000
0000
0000
0000
0000
0000
0000
0000
0000
0000
3020
0000
0000
0000
0000
0000
0000
0000
0000
0000
0000
0000
0030
0000
0000
0000
0000
0000
0000
0000
0000
0000
0000
0000
0000
0000
0000
0000
0000
0000
0010
0000
0000
0000
0000
0000
0000
0000
0000
0000
0000
0000
0000
0000
0000
0000
0000
0000
0002
0000
0000
0000
0000
0000
0000
0000
0000
0000
0000
0000
0000
0000
0000
0000
0010
0000
0000
0000
0000
0000
0000
0000
2000
0000
0000
0000
0000
0000
0000
0000
0000
0000
0000
0000
3023
0000
0000
0000
0000
0000
0000
0000
0000
0000
0000
0000
,
0230
0000
0000
0300
0000
0000
0001
0000
0000
0000
1000
0000
0020
0000
0000
0000
0000
0000
0100
0000
0000
0030
1000
0000
0002
0000
0000
0000
0000
0000
0010
0000
0000
0003
0100
0000
2000
0000
0000
0000
0000
0000
0012
0000
0000
3000
0000
0000
,
0203
0000
0000
0320
0000
0000
0032
0000
0000
0000
0000
0000
0100
0000
0000
0000
0010
0000
0000
0000
1000
0000
0000
0000
0100
0000
0000
0000
0010
0000
0000
0000
0100
0000
0000
0000
1000
0000
0000
0000
0100
0000
0000
0000
0010
0000
0000
0000
,
1003
0000
0000
0100
0000
0000
2002
0000
0000
0000
0000
0000
0000
0010
0000
0000
0000
0000
0000
0000
0000
0000
0000
0000
,
0003
0000
0000
0000
0000
0000
0010
0000
0000
0000
0000
0000
0000
0000
0000
0000
0000
0000
0000
0000
0000
0010
0000
0000
0100
0000
0000
0001
0000
0000
3010
0000
0000
0100
0000
0000
2000
0000
0000
0000
3020
0000
0000
0000
0230
0000
0000
0000
,
0312
0000
0003
0200
0000
0000
0000
0000
0000
0000
0000
0300
;
