#TITLE:Soldiers Of The Wasteland;
#SUBTITLE:Sonic Firestorm (2004);
#ARTIST:Dragonforce;
#TITLETRANSLIT:;
#SUBTITLETRANSLIT:;
#ARTISTTRANSLIT:;
#CREDIT:;
#BANNER:wlbn.png;
#BACKGROUND:wlbg.png;
#LYRICSPATH:;
#CDTITLE:logo.png;
#MUSIC:Soldiers Of The Wasteland.mp3;
#OFFSET:-10.917;
#SAMPLESTART:51.585;
#SAMPLELENGTH:12.000;
#SELECTABLE:YES;
#BPMS:0.000=200.000,840.000=130.000,1128.000=200.000;
#STOPS:;
#BGCHANGES:;
// cache tags:
#FIRSTBEAT:0.000;
#LASTBEAT:1756.000;
#SONGFILENAME:Songs/Astronomic Metal Collection/Soldiers of The Wasteland (technik)/soldiers.sm;
#HASMUSIC:1;
#HASBANNER:1;
#MUSICLENGTH:585.743;
// end cache tags

//---------------dance-single - ----------------
#NOTES:
     dance-single:
     :
     Hard:
     13:
     1.000,1.000,1.000,0.720,1.000,4418.000,597.000,422.000,0.000,43.000:
0202
0000
0313
1000
0002
0003
0010
0001
,
0200
0300
0020
0030
1000
0001
0100
0010
,
2002
0000
3013
1000
0200
0300
0010
1000
,
0220
0331
0010
1000
0200
0000
0000
0300
,
2200
0000
3310
0100
0002
0003
0100
0010
,
2000
3000
0020
0030
0100
0001
0010
1000
,
0202
0000
1303
0010
0100
0000
0010
0001
,
2020
3130
0001
0100
0022
0000
0000
0033
,
2020
0000
3031
0100
0020
0030
1000
0001
,
0200
0300
0002
0003
0010
1000
0100
1000
,
0022
0033
0100
0001
0020
0030
0001
0100
,
2200
3310
1000
0100
0020
0000
0000
0030
,
2002
0000
3103
0010
2000
3000
0100
0001
,
0020
0030
0200
0300
0001
0100
0010
0100
,
2020
0000
3130
0001
0020
0030
1000
0001
,
2200
3310
0100
0001
0220
0000
0000
0330
,
0011
0010
0010
0010
0000
0010
0010
0000
,
1100
1000
1000
1000
0000
1000
1000
0000
,
0101
0100
0100
0100
0000
0100
0100
0000
,
0011
1010
0110
0101
,
1010
0010
0010
0010
0000
0010
0010
0000
,
1001
0001
0001
0001
0000
0001
0001
0000
,
0110
0100
0100
0100
0000
0100
0100
0000
,
0101
0110
1010
1001
,
2001
0000
3201
0320
1032
0000
1000
0000
,
1000
1000
1000
1000
,
1203
0000
0312
0023
2130
0000
0100
0000
,
0100
0100
0100
0100
,
3120
0000
2130
3002
0213
0000
0010
0000
,
0010
0000
0010
0000
0310
0002
2013
3200
,
0320
0000
0000
0000
,
1030
0010
0100
0001
1000
0010
0100
0001
1000
0001
1000
0001
1000
0001
1000
0001
,
1000
0100
0010
1000
0010
0001
0010
0100
0001
0100
0010
0100
0010
1000
0100
0010
,
0001
0100
0001
0010
0100
1000
0100
0010
2000
3000
0002
0003
0200
0300
0020
0030
,
1000
0100
0010
0100
1000
0010
1000
0100
0001
0100
0010
0100
0010
0001
1000
0001
,
0010
0001
0100
0010
0100
1000
0100
0010
0200
0300
0002
0003
2000
3000
0020
0030
,
0100
0010
0001
0010
0100
0010
1000
0100
1000
0001
0010
0001
0100
0001
0100
1000
,
0100
0010
0100
0010
0001
0010
1000
0010
0002
0003
2000
3000
0020
0030
0200
0300
,
0002
0003
0020
0030
2000
3000
0200
0300
0020
0030
2000
3000
0002
0003
0200
0300
,
0020
0030
2000
3000
0020
0030
0200
0300
0002
0003
2000
3000
0020
0030
0200
0300
,
0001
0010
1000
0100
0010
0001
0100
0010
1000
0001
1000
0001
0010
0100
1000
0100
,
0010
0100
1000
0010
1000
0100
1000
0100
0020
0030
0200
0300
2000
3000
0002
0003
,
0010
0100
1000
0100
0001
0100
0001
0010
0001
0100
0010
1000
0100
0001
0100
0010
,
0001
0100
1000
0010
1000
0010
0100
0010
2000
3000
0020
0030
0002
0003
0020
0030
,
1000
0100
0010
0100
0001
0100
0010
0001
1000
0001
1000
0100
1000
0010
0100
0010
,
0001
0100
0010
0001
1000
0100
0010
0100
0002
0003
2000
3000
0020
0030
0200
0300
,
0001
0010
0001
1000
0100
0010
0001
1000
0010
0100
0010
0100
0001
0010
0100
0010
,
0001
0010
0100
1000
0001
0100
0010
1000
0001
0010
0100
1000
0001
0100
0010
1000
,
0001
0110
1000
0011
0010
1010
0100
0011
,
0100
0000
0110
0000
0001
0000
1010
0000
0100
0000
0101
0000
0010
0100
0010
0100
,
0010
1100
0100
0011
1000
0101
0001
1001
,
0100
0110
0010
0101
0010
1001
0100
0011
,
0010
1000
0010
0100
1000
0100
0001
0100
0010
0001
0010
1000
0100
0010
0001
0010
,
1000
0100
1000
0010
1000
0100
0010
0100
0002
0003
2000
3000
0020
0030
0200
0300
,
1000
0100
0010
0100
1000
0010
1000
0010
0100
0001
0100
1000
0100
0010
0001
0010
,
1000
0100
0010
0001
0010
0100
1000
0100
0010
0100
1000
0001
0010
0100
1000
0001
,
0010
1100
0100
0011
1000
0101
0010
0110
,
0100
0101
1000
0101
0010
1010
0001
0101
,
0010
1001
0100
0011
1000
0101
0010
1100
,
0010
0101
0001
1001
0100
0101
0010
1010
,
0002
0203
2300
3020
,
0230
2300
3002
0203
,
0301
0010
0100
1000
0010
0100
0001
0010
0100
1000
0010
0100
0010
0001
0010
0100
,
1000
0100
0010
0001
1000
0010
0100
0001
1000
0100
0010
0001
1000
0010
0100
0001
,
0020
0030
0010
0010
0010
0010
0010
0010
,
0010
0010
0010
0010
0010
0010
0010
0010
,
0010
0010
0010
0010
0010
0010
0010
0010
,
0010
0010
0010
0010
0010
0010
0010
0010
,
0010
0010
0010
0010
0010
0010
0010
0010
,
0010
0010
0010
0010
0010
0010
0010
0010
,
0201
0000
0000
0000
,
0321
0000
0000
0000
,
2031
3000
1010
1000
1001
1001
1010
1000
,
0110
0100
1100
0100
0110
0110
1100
0100
,
0011
0001
0101
0001
0011
0011
0101
0001
,
1010
1000
1100
1000
1010
1010
1100
1000
,
0021
0030
1010
0010
0011
0011
1010
0010
,
0101
0100
0110
0100
0101
0101
0110
0100
,
1000
0100
0010
0001
0010
0000
1000
0100
0010
0001
0010
0000
1000
0100
0010
0001
,
0010
0000
0000
0000
,
0200
0300
0001
0010
1000
0100
0010
0001
0100
0001
0100
0010
1000
0001
1000
0010
,
0002
0003
0100
0010
0100
0010
2000
3000
0001
0010
0100
1000
0010
1000
0001
1000
,
0200
0300
1000
0010
0100
1000
0100
0001
0100
0001
0010
0001
1000
0100
0010
0100
,
2000
0000
0000
0000
,
3002
0003
0100
0010
1000
0100
0001
0010
1000
0010
1000
0010
0100
1000
0100
0001
,
0020
0030
0001
0010
0100
0010
2000
3000
0010
0100
0001
0100
0010
1000
0100
1000
,
0020
0030
1000
0100
1000
0010
0001
1000
0100
1000
0001
0010
0100
0010
0001
1000
,
0001
0010
0100
1000
0001
0100
0010
1000
0001
0010
0100
1000
0001
0100
0010
1000
,
0200
0300
0001
0010
0001
1000
0001
0010
0100
1000
0010
1000
0100
0001
0010
0001
,
0020
0030
0100
0010
0100
0001
2000
3000
0001
1000
0010
1000
0100
0010
0001
0010
,
0200
0300
0010
0001
0100
0001
0010
0100
1000
0001
0100
0010
0100
1000
0001
1000
,
0020
0000
0000
0000
,
0230
0300
1000
0100
0010
0001
1000
0001
0100
0001
0100
0010
0001
1000
0100
1000
,
0020
0030
0100
1000
0100
0010
0002
0003
0100
0010
1000
0010
0100
0001
0010
0001
,
2000
3000
0010
0100
1000
0010
0100
0001
0010
0001
1000
0100
0010
1000
0001
0010
,
1000
0010
0100
0001
1000
0100
0010
0001
1000
0010
0100
0001
1000
0100
0010
0001
,
0120
0100
0100
0100
,
0100
0100
0100
0100
,
0230
0300
0010
0100
1000
0100
0020
0030
0001
0010
0100
0010
0002
0003
0100
0010
,
0200
0300
0010
0001
0010
0100
2000
3000
0100
1000
0100
0001
0100
0000
1100
0000
,
1100
0011
0010
0101
1000
1001
0001
1100
,
0010
0000
0101
0000
1000
0000
0110
0000
0001
0000
1100
0000
0010
0001
0010
0001
,
0010
0101
0100
0110
0001
1100
0010
1010
,
0100
0010
0001
0010
0100
1000
0011
0000
1000
0100
0010
0100
1000
0100
0010
0100
,
2010
0010
0010
0010
,
0010
0010
0010
3010
,
1002
1000
1000
1000
,
1000
1000
1000
1000
,
2003
3000
0010
0001
1000
0100
0020
0030
1000
0100
0010
0100
2000
3000
0100
0010
,
0002
0003
0010
0100
1000
0100
0020
0030
0001
0010
0100
0010
2000
3000
0010
0100
,
0001
0010
0100
0010
0001
0010
1100
0000
1000
0100
0010
0100
1001
0000
0011
0000
,
1010
0000
0100
0010
0001
1000
0100
1000
0001
0010
0100
0010
0100
1000
0100
0010
,
0101
0000
0010
0000
0100
1000
0100
0000
0011
0000
1000
0000
0010
0001
0010
0000
,
1010
0000
0100
0000
0001
1000
0001
0000
0110
0000
0100
0000
0001
0010
0001
0000
,
1010
0000
0100
0000
1000
0010
1000
0000
1001
0000
0100
0000
0010
0001
0010
0000
,
0101
0000
1000
0000
0100
0001
0100
0000
1100
0000
0010
0000
0100
1000
0100
0000
,
0011
0000
1000
0000
1000
0100
1000
0000
0101
0000
0010
0000
0100
0001
0100
0000
,
1010
0000
0100
0000
0010
0100
0010
0000
0101
0000
0010
0000
1000
0010
1000
0000
,
0011
0000
0100
0000
0001
1000
0001
0000
1010
0000
0100
0000
0010
0001
0010
0000
,
1000
0100
0010
0001
1000
0010
0100
0001
1000
0100
0010
0001
1000
0010
0100
0001
,
1010
0000
0100
0000
0010
0100
0010
0000
1001
0000
0010
0000
0001
0010
0001
0000
,
0101
0000
0010
0000
1000
0010
1000
0000
0101
0000
0010
0000
0100
0001
0100
0000
,
1100
0000
0010
0000
0001
1000
0001
0000
0110
0000
0001
0000
0100
0001
0100
0000
,
1001
0000
0010
0000
0010
0100
0010
0000
1100
0000
0001
0000
0100
0001
0100
0000
,
1010
0000
0001
0000
0100
1000
0100
0000
0011
0000
0010
0000
0100
0010
0100
0000
,
1001
0000
0100
0000
0010
1000
0010
0000
0110
0000
1000
0000
0001
0010
0001
0000
,
1010
0000
0100
0000
0100
0010
0100
0000
0101
0000
0010
0000
1000
0010
1000
0000
,
0001
0010
0100
1000
0001
0100
0010
1000
0001
0010
0100
1000
0001
0100
0010
1000
,
0010
0000
0000
0000
0000
0000
0010
0000
0000
0001
0000
0000
0010
0000
0000
0000
0000
0000
1000
0000
0000
0000
0000
0000
0010
0000
0000
0000
0000
0000
0001
0000
0010
0000
0100
0000
0010
0000
0000
0000
0000
0000
1000
0000
0000
0000
0000
0000
,
0100
0010
1000
0001
0100
0010
1000
0100
,
1000
0000
0000
0000
0000
0000
1000
0000
0000
0100
0000
0000
1000
0000
0000
0000
0000
0000
0010
0000
0000
0000
0000
0000
1000
0000
0000
0000
0000
0000
0010
0000
0001
0000
0010
0000
0100
0000
0000
0000
0000
0000
1000
0000
0000
0000
0000
0000
,
0001
0100
0010
1000
0001
1000
0020
0030
,
0001
0000
0000
0000
0000
0000
0001
0000
0000
1000
0000
0000
0001
0000
0000
0000
0000
0000
0010
0000
0000
0000
0000
0000
0001
0000
0000
0000
0000
0000
1000
0000
0100
0000
1000
0000
0010
0000
0000
0000
0000
0000
1000
0000
0000
0000
0000
0000
,
0100
1000
0010
0100
0001
1000
0010
0001
,
0100
0000
0000
0000
0000
0000
0100
0000
0000
0010
0000
0000
0100
0000
0000
0000
0000
0000
0001
0000
0000
0000
0000
0000
0100
0000
0000
0000
0000
0000
0010
0000
0100
0000
1000
0000
0100
0000
0000
0000
0000
0000
0001
0000
0000
0000
0000
0000
,
0010
0000
0000
0001
0000
0000
1000
0100
0010
0100
0000
0000
2000
0000
0000
0000
0000
0000
3020
0000
0000
0030
0000
0000
,
0100
0010
0001
0010
0100
1000
0100
1000
0001
0010
0100
1000
0100
0001
0100
0001
,
0010
0100
1000
0100
0010
0100
0010
0100
0010
0001
0010
0100
1000
0001
1000
0001
,
2000
0000
3020
0000
,
1230
0300
1000
0100
1000
0000
1000
0000
1000
0000
1000
0100
1000
0000
1000
0000
,
1000
0000
0000
0000
0000
0000
0000
0000
1000
0001
1000
0001
0010
0000
0000
0000
2200
0000
0000
0000
3300
0000
0000
0000
0202
0000
0000
0000
0303
0000
0000
0000
,
0012
0003
1001
0001
0011
0011
1001
0001
,
1100
1000
1001
1000
1100
1100
1001
1000
,
0110
0010
1010
0010
0110
0110
1010
0010
,
0101
0100
1100
0100
0101
0101
0110
0100
,
0120
0030
0011
0010
0110
0110
0011
0010
,
1100
0000
1100
0000
1001
0000
1000
0100
1000
0000
1000
0010
1001
0000
1000
0000
,
0101
0000
0001
0000
0011
0000
0001
0000
0101
0000
0101
0000
0011
0000
0001
1000
,
0101
0000
0110
0000
0110
0000
0100
0010
1001
0000
0010
1000
0101
0000
0010
0000
,
0200
0300
0010
0001
1000
0001
0010
0100
1000
0010
0100
0010
0001
1000
0001
0010
,
0002
0003
0010
0100
0010
0001
2000
3000
0100
0010
0001
0100
0010
1000
0100
1000
,
0020
0030
1000
0100
0001
0100
1000
0010
0100
0001
0010
1000
0010
0001
0010
0100
,
0020
0000
0000
0000
,
0032
0003
0010
0100
0010
0100
1000
0100
0010
0001
0100
1000
0100
0010
0001
0010
,
0200
0300
1000
0100
0010
0100
0002
0003
0100
0010
0001
1000
0010
1000
0010
0001
,
0020
0030
0001
0100
0001
0010
0100
0001
0010
0100
1000
0100
0010
0100
0001
0010
,
2000
0000
0000
0000
,
3002
0003
0010
0100
0010
1000
0010
0001
0100
0010
1000
0100
0010
0001
1000
0001
,
0200
0300
1000
0100
0001
0010
2000
3000
0100
0010
0100
1000
0001
0010
0100
1000
,
0020
0030
0100
0001
1000
0001
0100
0010
1000
0100
0010
0100
1000
0001
0010
0100
,
0002
0000
0000
0000
,
2003
3000
0010
0100
0001
0010
1000
0010
0100
0010
0100
0001
0010
1000
0100
1000
,
0020
0030
0001
0010
0100
1000
0200
0300
0010
0001
1000
0001
0100
0001
0010
0100
,
0002
0003
0100
0010
0100
0010
1000
0001
1000
0100
0001
0010
0001
1000
0100
1000
,
0200
0000
0000
0000
,
2310
0010
0010
0010
,
0010
0010
0010
0010
,
3200
0300
0010
0001
0100
0010
2000
3000
0010
0100
0010
0001
0200
0300
1000
0100
,
0020
0030
0001
0010
0100
0010
2000
3000
0100
0010
0001
0010
2000
3000
0010
0001
,
1010
0000
0100
0000
0001
0010
0001
0000
0110
0000
1000
0000
0010
0100
0010
0000
,
0101
0000
0100
0000
0001
0100
0001
0000
1100
0000
0010
0000
0100
0010
0100
0000
,
0101
0000
1000
0000
0010
1000
0010
0000
1001
0000
0010
0000
0100
0001
0100
0000
,
0100
0010
1100
0000
0010
0100
0011
0000
0100
1000
0100
0010
0001
0010
1100
0000
,
1020
1000
1000
1000
,
1000
1000
1000
1030
,
0102
0100
0100
0100
,
0100
0100
0100
0100
,
2003
3000
0100
0010
0001
1000
0200
0300
1000
0001
1000
0010
2000
3000
0001
0100
,
0020
0030
0100
0010
0100
1000
0002
0003
0010
0100
0010
0001
2000
3000
0010
0001
,
0200
0300
0001
0010
0100
0001
0200
0300
0010
1000
0010
0100
0002
0003
0010
0100
,
1000
0100
0010
0100
1000
0100
0010
0001
0010
0001
0100
0001
0010
0100
1000
0100
,
0011
0000
0100
0000
0010
0100
0010
0000
1010
0000
0001
0000
1000
0010
1000
0000
,
0110
0000
0100
0000
0001
0100
0001
0000
1001
0000
0100
0000
0001
0010
0001
0000
,
1100
0000
0010
0000
0100
1000
0100
0000
1010
0000
0100
0000
0010
1000
0010
0000
,
0101
0000
0010
0000
1000
0001
1000
0000
0110
0000
0001
0000
0100
0010
0100
0000
,
1010
0000
0100
0000
0010
1000
0010
0000
0101
0000
0010
0000
1000
0001
1000
0000
,
0110
0000
0100
0000
0010
0001
0010
0000
1010
0000
0100
0000
0001
0010
0001
0000
,
1100
0000
0010
0000
0100
0010
0100
0000
1001
0000
0010
0000
1000
0100
1000
0000
,
0100
0010
0001
0010
0100
1000
0001
0010
0100
1000
0100
1000
0010
0100
0010
0001
,
1010
0000
0100
0000
0001
0010
0001
0000
0110
0000
1000
0000
0100
0010
0100
0000
,
0101
0000
0010
0000
0100
1000
0100
0000
0011
0000
0100
0000
0010
0100
0010
0000
,
1001
0000
0100
0000
0010
0001
0010
0000
0110
0000
1000
0000
0001
0100
0001
0000
,
1100
0000
0010
0000
0010
1000
0010
0000
0101
0000
0100
0000
0010
0100
0010
0000
,
1010
0000
0100
0000
1000
0010
1000
0000
0101
0000
0010
0000
1000
0001
1000
0000
,
0110
0000
0001
0000
0010
1000
0010
0000
0101
0000
0100
0000
0010
0001
0010
0000
,
1010
0000
0001
0000
0100
0010
0100
0000
1001
0000
0100
0000
1000
0001
1000
0000
,
0010
0100
1000
0100
0010
0100
0001
0010
0100
0010
0001
0010
1000
0100
0010
0001
,
0010
0000
0000
0000
0000
0000
0010
0000
0000
1000
0000
0000
0010
0000
0000
0000
0000
0000
0001
0000
0000
0000
0000
0000
0010
0000
0000
0000
0000
0000
0100
0000
0010
0000
0100
0000
1000
0000
0000
0000
0000
0000
0100
0000
0000
0000
0000
0000
,
1000
0001
0100
0010
1000
0100
0010
1000
,
0100
0000
0000
0000
0000
0000
0100
0000
0000
0001
0000
0000
0100
0000
0000
0000
0000
0000
0010
0000
0000
0000
0000
0000
0100
0000
0000
0000
0000
0000
0010
0000
0001
0000
0010
0000
0100
0000
0000
0000
0000
0000
0010
0000
0000
0000
0000
0000
,
1000
0001
1000
0010
0100
0001
0200
0000
,
0301
0000
0000
0000
0000
0000
0001
0000
0000
0010
0000
0000
0001
0000
0000
0000
0000
0000
1000
0000
0000
0000
0000
0000
0001
0000
0000
0000
0000
0000
0100
0000
0010
0000
0100
0000
1000
0000
0000
0000
0000
0000
0010
0000
0000
0000
0000
0000
,
0100
0001
0100
0010
1000
0001
0100
0010
,
1000
0000
0000
0000
0000
0000
1000
0000
0000
0100
0000
0000
1000
0000
0000
0000
0000
0000
0001
0000
0000
0000
0000
0000
1000
0000
0000
0000
0000
0000
0010
0000
0100
0000
0010
0000
0001
0000
0000
0000
0000
0000
0100
0000
0000
0000
0000
0000
,
0001
0000
0000
1000
0000
0000
0010
0100
0010
0001
0000
0000
0200
0000
0000
0000
0000
0000
0320
0000
0000
0030
0000
0000
,
0001
0010
0100
0010
0100
0010
0001
0010
0100
1000
0010
1000
0010
0001
0010
0100
,
1000
0100
0001
0100
0001
0010
0100
1000
0100
0010
0100
0010
0100
0010
0001
0010
,
1100
0002
1023
2030
,
3102
0000
0000
0000
,
1013
0110
0101
1010
,
1100
0000
0000
0000
,
0000
0000
0000
0000
,
0000
1000
0010
0000
0001
0100
0000
1000
,
0001
0000
0001
0010
0000
0001
1000
0000
,
0000
1000
0010
0000
0001
0100
0000
1000
,
0010
0000
0001
0100
0000
0001
0010
0000
,
0000
1000
0001
0000
0001
0100
0000
1000
,
0010
0000
0001
0010
0000
0001
1000
0000
,
0201
0300
0110
0110
1100
0101
0110
0021
,
2130
3000
0110
0110
0011
1100
0101
0110
,
0102
0003
0110
0110
1100
0101
0110
2100
,
3021
0000
0000
0030
0000
0000
0110
0000
0000
0110
0000
0000
1001
0000
0000
0001
0010
0100
1000
0000
0000
0011
0000
0000
,
1200
0300
0011
0011
1010
0110
0101
2010
,
3120
0030
0011
0011
1001
1010
0110
1010
,
1020
0030
0011
0011
0101
0110
1010
1200
,
0301
0000
0000
0000
0000
0000
1000
0000
0100
0000
0010
0000
0001
0000
0000
0000
0000
0000
1000
0000
0000
0000
0000
0000
0010
0000
0000
0000
0000
0000
0100
0000
0000
0100
0000
0000
0010
0000
0000
0000
0000
0000
1000
0000
0000
1000
0000
0000
,
0102
0003
1010
1010
0101
0110
1010
0120
,
0231
0300
1010
1010
0101
0011
1001
1100
,
0012
0003
1010
1010
0110
0101
1010
2001
,
3120
0000
0000
0030
0000
0000
1010
0000
0000
1010
0000
0000
0101
0000
0000
0001
0010
0100
1000
0000
0000
0011
0000
0000
,
2010
3000
1001
1001
0101
0110
1010
0120
,
1230
0300
1001
1001
0101
1100
1010
0101
,
0210
0300
1001
1001
1100
1010
0110
0201
,
0311
0000
0000
0000
0000
0000
1000
0000
0100
0000
0010
0000
0001
0000
0000
0000
0000
0000
1000
0000
0000
0000
0000
0000
0010
0000
0000
1000
0000
0000
0100
0000
0000
0001
0000
0000
1000
0000
0000
0001
0000
0000
0100
0000
0000
0010
0000
0000
,
1000
0100
0001
0100
0010
0010
0100
0100
1000
0100
0001
0100
0010
0010
0100
0100
,
1000
0100
0001
0100
0010
0010
0100
0100
1000
0100
0001
0100
0010
0010
0100
0100
,
0010
0001
1000
0001
0100
0100
0001
0001
0010
0001
1000
0001
0100
0100
0001
0001
,
0010
0001
1000
0001
0100
0100
0001
0001
0010
0001
1000
0001
0100
0100
0001
0001
,
0100
0010
0001
0010
1000
1000
0010
0010
0100
0010
0001
0010
1000
1000
0010
0010
,
0100
0010
0001
0010
1000
1000
0010
0010
0100
0010
0001
0010
1000
1000
0010
0010
,
0100
1000
0010
1000
0001
0001
1000
1000
0100
1000
0010
1000
0001
0001
1000
1000
,
0100
1000
0010
1000
0001
0001
1000
1000
0100
1000
0010
1000
0001
0001
1000
1000
,
0220
0000
0330
0000
0101
0000
1100
1100
1100
0000
0101
0101
0101
0000
1010
1010
,
1010
0000
0110
0110
0110
0000
0101
0101
0101
0000
0110
0110
0110
0000
1001
1001
,
2002
0000
3003
0000
0101
0000
0110
0110
0110
0000
1010
1010
1010
0000
0011
0011
,
0011
0000
1100
1100
1100
0000
0101
0101
0101
0000
0110
0110
0110
0000
1010
1010
,
2020
0000
3030
0000
0101
0000
1010
1010
1010
0000
0110
0110
0110
0000
1001
1001
,
1001
0000
0101
0101
0101
0000
0011
0011
0011
0000
1100
1100
1100
0000
0101
0101
,
0202
0000
0303
0000
0110
0000
1100
1100
1100
0000
0101
0101
0101
0000
1001
1001
,
1001
0000
0011
0011
0011
0000
1010
1010
1010
0000
0110
0110
0110
0000
1100
1100
,
2200
3300
0011
0000
0101
0000
1010
0000
,
0110
0000
0000
0000
0000
0000
0101
0000
0000
0000
0000
0000
1100
0000
0000
0010
0100
0010
0001
0000
0000
1100
0000
0000
,
0202
0303
1010
0000
0101
0000
1100
0000
,
0101
0000
0000
1000
0110
0000
1100
0000
0110
0001
1000
0010
1100
0000
0110
0000
,
0022
0000
0033
0000
1100
0000
0000
0000
0101
0000
0010
0010
1100
0000
0000
0000
,
0101
0000
0000
0000
0000
0000
1010
0000
0000
0000
0000
0000
0110
0000
0000
0001
0010
0100
0010
0000
0000
1010
0000
0000
,
2200
0000
3300
0000
0011
0000
0000
0000
0110
0000
0000
0000
0101
0000
1000
1000
,
0011
0000
0120
0000
0131
1000
0000
0010
1200
0000
0310
0010
0102
0000
0013
0010
,
1000
0100
0001
0100
0010
0001
0001
0001
0100
0010
0001
0010
0100
1000
1000
1000
,
0100
0001
0010
0001
0100
0010
0010
0010
1000
0100
0001
0100
1000
0010
0010
0010
,
0100
0001
1000
0001
0100
0001
0001
0001
0100
0010
1000
0010
0001
0100
0100
0100
,
0001
0100
1000
0100
0010
0001
0001
0001
0100
1000
0001
1000
0100
0010
0010
0010
,
0001
0100
1000
0100
0010
0001
0001
0001
0100
0001
1000
0001
0010
0100
0100
0100
,
0010
1000
0100
1000
0100
0010
0010
0010
0001
0010
0100
0010
0100
1000
1000
1000
,
0100
0010
0001
0010
0100
1000
1000
1000
0010
1000
0100
1000
0010
0001
0001
0001
,
0010
0100
0001
0100
1000
0100
0100
0100
0010
0001
1000
0001
0100
0010
0010
0010
,
0201
0000
0000
0000
,
0000
0000
0000
0000
,
1302
0000
0000
0000
,
0000
0000
0000
0000
,
2103
0000
0000
0000
,
0000
0000
0000
0000
,
3120
0000
0000
0000
0000
0000
0001
0000
0100
0000
1000
0000
,
0200
0000
0000
0300
0000
0000
1000
0100
0001
2030
0000
0000
,
3201
0000
0000
0000
,
0000
0000
0000
0000
0000
0001
0000
0000
0000
1000
0000
0000
0000
0001
0000
0000
0000
0010
0000
0000
0000
1000
0000
0000
,
0321
0000
0000
0000
,
0000
0000
0000
0000
0000
0000
0130
0001
1000
0100
0001
0100
,
1002
0000
0000
0000
,
0000
0000
0000
0000
0000
0000
0000
0000
0000
0100
1000
0010
,
2103
0000
0000
0000
0000
0000
0010
0000
0001
0000
0100
0000
,
0020
0000
0000
3030
,
0011
0000
0010
0100
0001
0100
0010
0100
1001
0000
0100
0010
1000
0010
0100
0010
,
0101
0000
0001
1000
0010
1000
0100
1000
0220
0000
0330
0000
0202
0000
0303
0000
,
0011
0000
1000
0100
0001
0100
0010
0100
1010
0000
0100
0001
0010
0001
1000
0001
,
0110
0000
0010
1000
0001
1000
0100
1000
0022
0000
0033
0000
0220
0000
0330
0000
,
1010
0000
0001
0100
0010
0100
1000
0100
1001
0000
0100
0010
1000
0010
0100
0010
,
1100
0000
0010
0001
0100
0001
1000
0001
2020
0000
3030
0000
2200
0000
3300
0000
,
0101
0000
0010
1000
0001
1000
0010
1000
0101
0000
0100
0010
0001
0010
0100
0010
,
1001
0000
0010
0100
1000
0100
0010
0100
0022
0000
0033
0000
2020
0000
3030
0000
,
0100
0010
0001
0010
1000
0100
1000
0100
0010
0001
0100
0001
0010
0100
1000
0010
,
1000
0100
0001
0100
1000
0001
1000
0100
0011
0100
0001
0100
1010
0001
0010
0100
,
0010
1000
0100
0010
0100
0001
0100
0010
1000
0010
0100
0001
1000
0001
0010
0100
,
1000
0100
1000
0010
0100
0001
0010
0001
0110
1000
0010
1000
0101
1000
0100
0010
,
0001
0100
0010
1000
0100
0001
0100
1000
0001
1000
0010
1000
0100
0001
0100
0010
,
0001
1000
0001
0100
0010
0100
0001
0010
1100
0010
0001
0010
1001
0100
0010
0100
,
1000
0001
0010
0100
1000
0010
0100
0001
1000
0001
0010
0001
0100
0010
1000
0100
,
0001
0000
0000
0010
0000
0000
0000
0000
0000
0100
0000
0000
0001
0000
0000
1000
0000
0000
0100
0000
0000
0010
0000
0000
0001
0000
0010
0000
0100
0000
1000
0000
0000
0010
0000
0000
0100
0000
0010
0000
0001
0000
1000
0000
0000
0100
0000
0000
,
1000
0010
0100
0010
0001
1000
0100
1000
0100
0001
0010
0001
1000
0100
0010
0100
,
0001
0010
0100
0010
0001
1000
0010
1000
0110
0001
0100
0001
1010
0100
1000
0100
,
0001
0010
1000
0010
0100
1000
0001
1000
0100
0010
1000
0010
0100
0001
1000
0001
,
0010
0100
1000
0100
0010
0001
0100
0001
1100
0010
0100
0010
1001
0100
0001
0100
,
0010
1000
0100
1000
0010
0100
0001
0100
1000
0001
0100
0001
1000
0100
0001
0100
,
0001
0010
0100
0010
0001
1000
0010
1000
0110
0001
0010
0001
1100
0001
0100
0001
,
0010
0100
0001
0100
1000
0010
0100
0010
0100
1000
0001
1000
0100
0001
0010
0001
,
2200
3300
0000
0000
2020
3030
0000
0000
0220
0330
0000
0000
0202
0303
0000
0000
,
1000
0001
0100
0001
0010
1000
0001
1000
0100
0010
1000
0010
0001
0010
1000
0010
,
0100
0000
0010
0000
1000
0001
0100
0010
2000
0000
0000
0000
0000
0000
3000
0000
,
1000
0100
1000
0100
0001
0010
0001
0010
1000
0100
1000
0100
0001
0010
0001
0010
,
1000
0100
0010
0100
0001
0010
0100
0010
1000
0100
0010
0100
0001
0010
0100
0010
,
1100
0000
0010
0100
0010
0100
0011
0000
1000
0100
1000
0100
1010
0000
0101
0000
,
0010
0000
0001
0001
0010
0000
0100
0000
1000
0000
0001
0000
0100
0000
0010
0000
,
1000
0000
0100
0000
0010
0000
0001
0000
0010
0000
0100
0000
1000
0000
0100
0000
0010
0000
0001
0000
0100
0000
0000
0000
1000
0000
0000
0000
0010
0000
0000
0000
0100
0000
0000
0000
0001
0000
0000
0010
0000
0000
0001
0000
0000
0100
0000
0000
,
1000
0000
0000
0010
0001
0010
0200
0000
0000
0301
0000
0000
1000
0000
0000
0100
0010
0100
2000
0000
0000
3010
0000
0000
,
0200
0000
0000
2300
0000
0000
3002
0003
,
0200
0000
0000
0000
0300
0001
0010
0100
,
0020
0000
0000
0230
0000
0000
0302
0003
,
2000
3000
0010
0200
0000
0000
0000
0000
,
0311
1010
0110
0202
0303
1100
0101
0110
,
2100
3100
0011
2002
3003
0101
0110
1010
,
0011
0100
1000
0100
0001
0100
1000
0100
0010
0100
1000
0100
0001
0100
1000
0100
,
1000
0000
0000
0010
0000
0000
0001
0000
0010
0000
0100
0000
0010
0000
1000
0000
0100
0000
0010
0000
0000
0001
0000
0000
0100
0000
0000
0010
0000
0000
0001
0000
0000
0010
0000
0000
1000
0000
0000
0010
0000
0000
0001
0000
0000
0010
0000
0000
,
0100
0000
0000
1000
0000
0000
0100
0000
0000
0001
0000
0000
0010
0000
0000
0100
0000
0000
1000
0000
0000
0100
0000
0000
0010
0000
0000
0001
0000
0000
0010
0000
0000
0100
0000
0000
1000
0000
0100
0000
0010
0000
0100
0000
0000
0010
0000
0000
,
0001
0010
0100
1000
0100
1000
0100
0010
0001
1000
0001
0010
0100
0010
0100
1000
,
0100
0000
0000
0010
0000
0000
0001
0000
0000
0010
0000
0000
0100
0000
0000
0010
0000
0000
0001
0000
0000
0010
0000
0000
0100
0000
0000
1000
0000
0000
0010
0000
0000
0000
0001
0000
0000
0000
1000
0000
0000
0000
0010
0000
0100
0000
0010
0000
,
0001
0000
0010
0000
0100
0000
0010
0000
0000
0100
0000
0000
1000
0000
0000
0100
0000
0000
0010
0000
0000
0100
0000
0000
0002
0000
0000
0000
0000
0000
0000
0000
0000
0000
0000
0000
0203
0000
0000
0000
0000
0000
0000
0000
0000
0000
0000
0000
,
0310
0000
0001
0000
0010
0000
0200
0000
0000
0000
0000
0000
2300
0000
0000
0000
0000
0000
3000
0000
0000
0000
0000
0000
0001
0000
0000
0010
0000
0000
1000
0000
0000
0010
0000
0000
0100
0000
1000
0000
0100
0000
0020
0000
0000
0000
0000
0000
,
0230
0000
0300
0000
0001
0100
0001
0100
2000
0000
0000
0000
0000
0000
0000
0000
,
3010
0100
0010
0100
0001
0000
0100
0000
0001
0000
0100
0000
0010
0000
1000
0000
,
0100
0010
0100
1000
0000
0000
0100
0000
0000
0010
0000
0000
0002
0000
0000
0000
0000
0000
0003
0000
0000
0000
0000
0000
,
0202
0303
0101
0202
0303
0101
0110
1001
,
2200
0000
0000
3300
0000
0000
1010
0000
0000
0022
0000
0000
0000
0000
0000
0033
0000
0000
0000
0000
0000
1000
0100
1000
,
0202
0303
0101
0201
0301
0101
1010
0110
,
2200
3300
0110
2002
0000
0000
0000
3003
,
0100
0001
0100
0001
0010
0100
0010
0100
1000
0010
1000
0010
0100
0010
0001
0010
,
0100
0000
0000
0001
0000
0000
1000
0000
0000
0010
0000
0000
1000
0000
0000
0100
0000
0000
1000
0000
0100
0000
0010
0000
0001
0000
0000
0000
0000
0000
0100
0000
0000
0000
0000
0000
1010
0000
0000
0000
0000
0000
0202
0000
0000
0000
0000
0000
,
0000
0000
0000
0000
0000
0303
0220
0330
,
2020
0000
0000
0000
0000
0000
0000
0000
0000
0000
0000
0000
0000
0000
0000
0000
0000
0000
3030
0000
0000
0100
0010
0001
,
0010
0000
0000
0100
0000
0000
1000
0000
0000
0100
0000
0000
0010
0000
0000
0001
0000
0000
0010
0000
0000
0100
0000
0000
0001
0000
0010
0000
0100
0000
1000
0000
0000
0010
0000
0000
0001
0000
0010
0000
0100
0000
1000
0000
0000
0100
0000
0000
,
0010
0000
0000
0001
0000
0000
0010
0000
0000
0100
0000
0000
1000
0000
0000
0100
0000
0000
0010
0000
0000
0001
0000
0000
1000
0000
0100
0000
0010
0000
0001
0000
0000
0100
0000
0000
1000
0000
0100
0000
0010
0000
0001
0000
0000
1000
0000
0000
,
0010
0000
0000
0100
0000
0000
1000
0000
0000
0001
0000
0000
0010
0000
0000
0100
0000
0000
0010
0000
0000
0100
0000
0000
0001
0000
0010
0000
0100
0000
1000
0000
0000
0010
0000
0000
0001
0000
0010
0000
0100
0000
1000
0000
0000
0010
0000
0000
,
0100
0001
0100
0001
0100
1000
0100
1000
0010
0100
0010
0100
0002
0000
1003
0000
,
0010
0000
0000
0100
0000
0000
1000
0000
0000
0001
0000
0000
0010
0000
0000
0100
0000
0000
0010
0000
0000
0001
0000
0000
1000
0000
0100
0000
0010
0000
0001
0000
0000
0010
0000
0000
1000
0000
0100
0000
0010
0000
0001
0000
0000
1000
0000
0000
,
0010
0000
0000
0100
0000
0000
1000
0000
0000
0100
0000
0000
0001
0000
0000
0010
0000
0000
0100
0000
0000
1000
0000
0000
0001
0000
0010
0000
0100
0000
1000
0000
0000
0010
0000
0000
0001
0000
0010
0000
0100
0000
1000
0000
0000
0100
0000
0000
,
0010
0000
0000
0100
0000
0000
1000
0000
0000
0100
0000
0000
0010
0000
0000
0001
0000
0000
0010
0000
0000
0100
0000
0000
1000
0000
0100
0000
0010
0000
0001
0000
0000
0100
0000
0000
1000
0000
0100
0000
0010
0000
0001
0000
0000
0010
0000
0000
,
1000
0001
1000
0001
0010
1000
0010
1000
0010
0001
0010
0100
1000
0100
0010
0001
,
1000
0010
1000
0010
1000
0001
0200
0000
0000
0000
0000
0000
0000
0000
0310
0001
,
2000
0000
0000
0000
3200
0000
0000
0300
,
1000
0000
0000
0100
0000
0000
0010
0000
0000
0001
0000
0000
1000
0000
0000
0100
0000
0000
0010
0000
0000
0001
0000
0000
1000
0000
0100
0000
0010
0000
0001
0000
0000
0010
0000
0000
0100
0000
0000
0001
0000
0000
0100
0000
0000
0001
0000
0000
,
0010
0001
1000
0100
0010
1000
0001
0010
1000
0200
0000
0000
,
0301
0010
1000
0100
0010
0100
0001
0010
1000
0100
0001
0010
,
0100
0000
0000
0000
0010
0000
0000
0000
1000
0000
0000
0000
0100
0000
0000
0000
0010
0000
0000
0000
0001
0000
0000
0000
0100
0000
0000
0010
0000
0000
0100
0000
0000
0010
0000
0000
0001
0000
0010
0000
0100
0000
1000
0000
0100
0000
0010
0000
,
0002
0000
0203
0000
,
1300
0000
0000
0000
0100
0000
0000
0000
0010
0000
0000
0000
0001
0000
0000
0000
0010
0000
0000
0000
0100
0000
0000
0000
1000
0000
0000
0000
0100
0000
0000
0000
0010
0000
0000
0000
0002
0000
0000
0000
0000
0000
0000
0000
0000
0003
0000
0000
,
0001
0010
0100
1000
0001
0100
0010
1000
0001
0010
0100
1000
0001
0010
1000
0100
,
1000
0100
0010
0001
1000
0010
0100
0001
1000
0100
0001
0010
1000
0010
0100
0001
,
0100
1000
0100
0010
0001
0010
0100
0001
0100
0010
1000
0010
0100
1000
0100
0010
,
0001
0010
0100
0010
0100
0010
0001
0010
0200
0000
0000
0000
0320
0000
0000
0000
,
1030
0100
0010
0100
1000
0100
0010
0001
1000
0100
0010
0001
1000
0100
1000
0100
,
0001
0010
0100
0010
0001
0010
0100
1000
0001
0010
0100
1000
0001
0010
0001
0010
,
1000
0100
0010
0001
1000
0100
0010
0100
1000
0001
0100
1000
,
0010
0001
0010
0100
0010
0100
1000
0100
0010
0001
0010
0100
1000
0000
0010
0000
,
0002
0000
2003
0000
0000
0000
3020
0000
0000
0000
0031
0010
0001
0010
0002
0000
,
2003
0000
0000
3200
0000
0000
0320
0000
0000
0000
1030
0010
1000
0010
2000
0000
,
3002
0000
0003
0200
0000
0000
0320
0000
0000
0000
0031
0010
0100
1000
0100
0000
,
0002
0000
0000
2003
0000
0000
3200
0000
0000
0000
1300
0100
1000
0100
2000
0000
,
3001
0010
0100
1000
0010
0100
1000
0100
0010
0001
1000
0100
0010
0100
1000
0100
,
0001
0000
0010
0000
0100
0000
1000
0000
0000
0100
0000
0000
0010
0000
0000
0100
0000
0000
0010
0000
0001
0000
0010
0000
0100
0000
0000
0010
0000
0000
0001
0000
0000
0010
0000
0000
0100
0000
0000
0010
0000
0000
0100
0000
0010
0000
0100
0000
,
1000
0001
1000
0010
1000
0100
0010
0100
0001
1000
0001
0100
0001
0010
0100
1000
,
0200
0000
0000
0000
0000
0000
0000
0000
0000
0310
0000
0000
1000
0000
0001
0000
1000
0000
0002
0000
0000
0000
0000
0000
,
1003
0100
0010
0001
0010
0100
1000
0100
0010
0100
1000
0100
0010
0001
0010
0001
,
0010
0100
1000
0100
0010
0001
1000
0001
1000
0100
0010
0001
0200
0000
0000
0000
,
0320
0032
2003
3002
0203
0302
0023
0032
,
0203
0000
0000
0320
0000
0000
2030
0000
0000
3200
0000
0000
0320
0000
0000
0000
0000
0000
0130
0010
0100
0020
0000
0000
,
1030
0100
0010
0001
0000
0000
0100
0010
0100
1000
0000
0000
0010
0100
0010
0001
0000
0000
0001
0010
0100
1000
0000
0000
,
0001
0010
0100
1000
0100
0010
0100
1000
0001
1000
0100
0001
0100
0010
0100
0000
,
0002
0000
0000
2003
0000
0000
3020
0000
0000
0230
0000
0000
0302
0000
0000
0203
0000
0000
1300
0100
0010
0200
0000
0300
,
0002
2003
3020
0230
0320
0000
0000
0000
,
2030
0000
0000
3200
0000
0000
0302
0000
,
0023
0000
0000
2030
0000
0000
3002
0000
,
0203
0000
0000
0310
0000
1000
0000
0001
,
1000
0100
0010
0100
0010
0001
1000
0010
0100
0001
0100
0010
0001
0000
0100
0000
,
0010
1000
0100
1000
0010
0100
1000
0100
0020
0000
0000
0000
0031
0010
0100
0010
,
0001
0010
0100
1000
0010
0001
1000
0100
0001
0010
0100
1000
0010
0001
1000
0100
,
0001
0010
0100
0010
0100
1000
0001
0100
1000
0001
0010
1000
0020
0000
0000
0000
0000
0000
2030
0000
0000
3000
0000
0000
,
1000
0100
0010
0001
0100
0010
0001
0010
0100
1000
0100
0010
1000
0010
0100
0001
0100
0010
0001
0010
0100
1000
0100
0010
,
1000
0001
0010
0100
0001
0100
0010
1000
0001
0100
0010
1000
,
0010
0100
0010
0001
1000
0001
0100
0010
0100
0001
0100
0010
,
1000
0000
0000
0100
0000
0000
0010
0000
0000
0001
0000
0000
0010
0000
0000
0100
0000
0000
1000
0000
0000
0100
0000
0000
0010
0000
0000
0000
0001
0000
0000
0000
0100
0000
0000
0000
0010
0000
0000
0000
1000
0000
0000
0000
0001
0000
0000
0000
,
0010
0000
0001
0000
1000
0000
0010
0000
0100
0000
0001
0000
0200
0000
0000
0000
0000
0000
0310
0100
0010
0200
0000
0000
,
0301
0010
0100
1000
0100
0010
0001
0010
1000
0010
0001
0010
0100
0010
0001
0010
,
0100
1000
0100
0010
0001
0010
0100
0001
0100
1000
0010
1000
0001
1000
0100
1000
,
0010
0100
1000
0100
0010
0001
0100
0001
1000
0001
0010
0001
1000
0001
0100
0001
,
0100
0010
0001
0010
0100
1000
0010
1000
0001
1000
0010
1000
0100
1000
0010
1000
,
0102
0000
0000
0000
,
0000
0000
0000
0000
,
0113
0000
0000
0000
,
0000
0000
0000
0000
,
0020
0030
1000
0100
0010
0001
1000
0001
0100
1000
0100
0001
0010
0100
0010
0100
,
0002
0003
0010
0001
0010
0100
2000
3000
0010
0001
1000
0001
0100
0010
0100
1000
,
0020
0030
0100
0010
0001
1000
0001
0100
0010
0100
1000
0010
0100
0001
0010
0001
,
1000
0100
0010
0001
0010
0001
0100
1000
0100
0010
0100
0010
0001
0010
0100
1000
,
0001
1100
0010
0101
0100
0110
1000
0011
,
0010
0000
0000
1100
0000
0000
0001
0000
0000
0101
0000
0000
0100
0000
0000
1001
0000
0000
0100
0000
0001
0000
1000
0000
,
0010
0101
0010
1100
0001
0110
0100
1001
,
0001
0110
0010
0101
1000
1010
0100
0011
,
0200
0300
0010
0100
1000
0100
0002
0003
0010
0001
0010
0100
2000
3000
0010
0001
,
0020
0030
0001
1000
0001
0010
0200
0300
0001
0010
0100
0010
0002
0003
1000
0100
,
2000
3000
0010
0100
0010
0001
0020
0030
1000
0100
0001
0100
0002
0003
0100
1000
,
0001
0010
0100
1000
0100
1000
0100
0010
0001
0010
1000
0010
1000
0100
0010
0001
,
1010
0000
0100
0000
0010
0001
0010
0000
1100
0000
0001
0000
1000
0001
1000
0000
,
0101
0000
0010
0000
0100
0010
0100
0000
0011
0000
0100
0000
0010
1000
0010
0000
,
0101
0000
0010
0000
1000
0001
1000
0000
0110
0000
0001
0000
0100
0010
0100
0000
,
1100
0000
0010
0000
0100
0001
0100
0000
0101
0000
0010
0000
0100
1000
0100
0000
,
1001
0000
0010
0000
0001
0100
0001
0000
1100
0000
0001
0000
0010
0100
0010
0000
,
1100
0000
0010
0000
0100
0001
0100
0000
0011
0000
1000
0000
0100
1000
0100
0000
,
0011
0000
1000
0000
0010
0100
0010
0000
1100
0000
0010
0000
0001
1000
0001
0000
,
1010
0001
0010
0000
0100
0000
0100
0000
0011
1000
0010
0000
0100
0000
0010
0000
,
1100
0000
0001
0000
0100
0010
0100
0000
1001
0000
0010
0000
0100
1000
0100
0000
,
0011
0000
1000
0000
0100
0001
0100
0000
1010
0000
0010
0000
0001
0100
0001
0000
,
0101
0000
0010
0000
0100
0001
0100
0000
1010
0000
0001
0000
0010
0100
0010
0000
,
0101
0000
1000
0000
1000
0010
1000
0000
0101
0000
0010
0000
0001
1000
0001
0000
,
0110
0000
0001
0000
0100
0010
0100
0000
1100
0000
0010
0000
1000
0001
1000
0000
,
0101
0000
0010
0000
0100
0001
0100
0000
1100
0000
0010
0000
0001
1000
0001
0000
,
0110
0000
0001
0000
0010
0100
0010
0000
1001
0000
0100
0000
0010
1000
0010
0000
,
0001
0010
0100
0001
0100
0001
0010
0100
1000
0010
1000
0010
0100
1000
0100
0010
,
0001
0000
0000
0000
0000
0000
0001
0000
0000
0100
0000
0000
0001
0000
0000
0000
0000
0000
0100
0000
0000
0000
0000
0000
0010
0000
0000
0000
0000
0000
1000
0000
0100
0000
0010
0000
0100
0000
0000
0000
0000
0000
0001
0000
0000
0000
0000
0000
,
1000
0010
0100
1000
0001
0100
0010
1000
,
0100
0000
0000
0000
0000
0000
0100
0000
0000
0010
0000
0000
0100
0000
0000
0000
0000
0000
0001
0000
0000
0000
0000
0000
1000
0000
0000
0000
0000
0000
0010
0000
0001
0000
0010
0000
0100
0000
0000
0000
0000
0000
0010
0000
0000
0000
0000
0000
,
1000
0001
0100
1000
0100
0001
0020
0030
,
1000
0000
0000
0000
0000
0000
1000
0000
0000
0001
0000
0000
1000
0000
0000
0000
0000
0000
0001
0000
0000
0000
0000
0000
0010
0000
0000
0000
0000
0000
0100
0000
0010
0000
0001
0000
0010
0000
0000
0000
0000
0000
0100
0000
0000
0000
0000
0000
,
0001
1000
0010
0100
0001
0010
1000
0100
,
0010
0000
0000
0000
0000
0000
0010
0000
0000
0001
0000
0000
0010
0000
0000
0000
0000
0000
0100
0000
0000
0000
0000
0000
0010
0000
0000
0000
0000
0000
0100
0000
1000
0000
0100
0000
0010
0000
0000
0000
0000
0000
0001
0000
0000
0000
0000
0000
,
0010
1000
0001
0010
0200
0000
0320
0030
,
1000
0100
0010
0001
0010
0100
0010
0100
0001
0010
1000
0100
0001
1000
0001
1000
,
0010
0100
1000
0100
0010
0001
0010
0001
0010
0100
1000
0001
0010
0100
1000
0100
,
1000
0100
0010
0001
0100
0010
1000
0100
0001
0100
1000
0010
,
2200
3300
0202
0303
0220
0330
2020
3030
,
1001
0000
1001
0000
1001
0000
2002
0000
0000
0000
0000
0000
,
3003
0000
0000
0000
;
