#TITLE:Need The Speed;
#SUBTITLE:;
#ARTIST:m1dy;
#TITLETRANSLIT:;
#SUBTITLETRANSLIT:;
#ARTISTTRANSLIT:;
#CREDIT:;
#BANNER:../fallback-bn.png;
#BACKGROUND:../fallback-bg.png;
#LYRICSPATH:;
#CDTITLE:;
#MUSIC:Need_The_Speed.ogg;
#OFFSET:0.701;
#SAMPLESTART:61.000;
#SAMPLELENGTH:15.000;
#SELECTABLE:YES;
#BPMS:0.000=222.000;
#STOPS:0.000=0.135
;
#BGCHANGES:;
// cache tags:
#FIRSTBEAT:23.000;
#LASTBEAT:564.000;
#SONGFILENAME:Songs/SSSC PACK/[Aoreo] - Need The Speed/Need_The_Speed.sm;
#HASMUSIC:1;
#HASBANNER:1;
#MUSICLENGTH:160.426;
// end cache tags

//---------------dance-single - m1dy----------------
#NOTES:
     dance-single:
     m1dy:
     Challenge:
     16:
     1.000,1.000,1.000,0.231,0.707,1155.000,334.000,37.000,4.000,25.000:


0000
0000
0000
0000
,
0000
0000
0000
0000
,
0000
0000
0000
0000
,
0000
0000
0000
0000
,
0000
0000
0000
0000
,
0000
0000
0000
MMMM
,
1000
0001
1000
0001
0010
0001
0100
0010
0100
0010
1000
0100
1000
0001
0010
0001
,
0020
0000
0000
0000
0000
0000
0000
0030
,
0001
0010
0001
0010
0001
0000
0100
0000
0001
0000
0100
0000
0001
0000
1000
0000
0010
0000
1000
0000
0010
0000
0100
0000
0010
0000
1000
0000
0100
0000
1000
0000
,
0010
0100
0001
0010
0100
0010
0001
1000
,
0010
0100
0001
0100
0010
1000
0100
1000
,
0010
0100
0010
0100
0001
1000
0100
1000
,
0100
0000
0010
0000
0001
0000
0100
0000
0010
0000
1000
0000
0001
0000
1000
0010
,
0100
0010
0100
0010
1000
0100
0010
0001
,
0010
0001
1000
0100
1000
0010
0100
0001
,
0100
0010
1000
0100
1000
0010
0100
0010
0100
0001
1000
0010
0100
0001
1000
0010
,
1000
0010
0010
0010
,
0110
0010
0110
0100
0101
0001
0101
0100
,
0110
0010
1010
1000
1001
0001
0101
0100
,
0110
0010
1010
1000
1100
0100
0110
0010
,
0110
0000
0100
0000
1100
0000
1000
0000
1001
0000
0001
0000
0110
0000
0100
0010
,
1000
1000
1010
0010
0110
0100
0101
0001
,
0101
0100
0101
0001
0011
0010
0011
0001
,
1001
0000
0202
0303
0220
0330
2020
3030
,
0110
0000
0101
0000
1001
0000
0110
0000
0100
0010
0100
0010
0100
0010
0100
0010
,
0100
0000
0001
0000
1000
0000
0100
0000
1000
0000
0010
0100
0010
0000
0100
0000
,
0001
0000
0010
0000
0100
0000
0010
0000
0001
0000
1000
0000
0100
0000
1000
0010
,
0100
0000
0001
0000
0010
0000
0001
0000
1000
0000
0100
0000
1000
0000
0001
0010
,
0001
0010
0001
0000
1000
0000
0100
0000
1000
0000
0010
0000
0100
0010
0100
0010
,
0100
0000
0001
0000
1000
0000
0100
0000
1000
0000
0001
0000
0100
0000
0001
0010
,
0001
0010
0010
0010
0010
0001
1000
0001
,
1001
0101
0011
1001
1100
0110
0011
1001
,
1010
0000
1000
0000
0010
1000
0010
0000
0100
0010
0100
0000
0020
0000
0000
0030
,
0100
0001
0100
0001
1000
0100
1000
0100
0010
0100
1000
0010
0100
0001
0010
0001
,
0100
0000
0000
0000
,
0011
0001
0101
0100
0110
0010
1010
1000
,
1001
0001
0101
0100
0110
0010
1010
1000
,
1100
0100
0110
0010
0011
0001
1001
1000
,
1000
0010
0100
0010
0100
0001
0010
0001
1000
0100
0010
0001
1000
0010
0100
0001
,
0100
0001
0101
0100
0110
0010
1010
1000
,
1001
0001
0101
0100
0110
0010
1010
1000
,
1001
0000
0101
0000
0110
0000
1010
0000
1000
0010
0100
0001
0010
0001
1000
0100
,
1000
0100
0010
0001
0010
0100
1000
0010
0100
0001
0010
0001
1000
0100
0010
0100
,
1000
0010
0100
0001
0100
0110
0010
1000
,
1001
0001
0101
0100
0010
1010
1000
0010
,
0110
0100
0101
0001
1000
1010
0010
0100
,
0101
0000
0001
0000
0101
0000
0100
0000
0010
0000
0110
0000
0100
0000
0010
0100
,
0001
0001
1001
1000
0010
0110
0100
0001
,
1001
1000
1100
0100
0010
0011
0001
0100
,
0101
0000
0101
0000
0101
0000
0101
0000
0001
1000
0100
1000
0010
0100
0010
0100
,
0001
0010
0001
0010
0001
0010
0100
1000
0001
0010
0100
1000
0100
0010
0001
0100
,
0010
0000
0000
0000
,
0000
0000
0000
0000
,
0000
0000
0000
0000
,
1000
0100
0010
0100
1000
0010
0100
0010
0100
0001
0010
0001
0100
0010
1000
0100
,
1000
0010
0100
0010
0100
0001
0010
0001
0010
0100
0010
0001
1000
0100
1000
0010
,
1000
1010
0110
0011
,
1100
0101
1010
0101
,
2010
3120
0231
1302
,
2103
3012
1203
0321
,
2130
3110
0101
1001
,
1010
0101
1100
1010
,
0210
0312
2103
3201
,
2310
3120
1230
0321
,
1130
0101
1010
0101
,
1100
1010
1100
0011
,
1200
0312
2103
3201
,
2310
3120
0231
1302
,
1013
0110
0101
1010
,
1100
0110
0011
0110
,
1100
0000
0000
0000
,
0000
0000
0000
0000
,
1001
0000
0001
0000
0101
0000
0100
0000
0110
0000
0010
1000
0001
0000
0100
0000
,
0101
0000
0001
0000
1001
0000
1000
0000
1100
0000
0100
0010
0001
0000
0100
0000
,
0101
0000
0001
0000
1001
0000
1000
0000
1010
0000
0010
0100
0010
0000
0100
0000
,
0001
1000
0100
1000
0010
0100
0001
0010
0001
1000
0100
0010
0001
1000
0010
0100
,
0001
0000
0100
0000
0110
0000
0010
0000
1010
0000
1000
0001
0100
0000
0010
0000
,
0110
0000
0100
0000
0101
0000
0001
0000
0101
0000
0100
0001
1000
0000
0100
0000
,
1100
0000
1000
0000
1010
0000
0010
0000
0100
0000
0001
0100
0010
0000
0100
0000
,
0010
0100
0010
1000
0100
1000
0001
0010
0100
0010
0001
0100
0010
1000
0100
1000
,
0010
0100
0110
0100
0101
0001
1001
1000
,
1100
1000
1010
0010
0110
0100
0101
0001
,
1001
1000
1010
0010
0110
0100
0101
0001
,
0011
0000
0010
0000
0110
0000
0100
0000
1100
0000
1000
0000
1010
0000
0010
0100
,
0010
0100
0101
0001
0011
0010
0110
0100
,
1100
1000
1010
0010
0110
0100
0101
0001
,
0101
0000
1001
0000
1010
0000
0110
0000
0001
1000
0100
1000
0010
0100
0001
0010
,
0001
0000
0000
0000
,
0001
0010
0100
0010
0001
0100
0010
1000
0100
1000
0001
0100
0001
0100
0010
1000
,
0100
1100
1100
1010
1010
0110
0110
0101
,
0101
0011
0011
1001
1001
1100
1100
1010
,
1010
0110
0110
0101
0101
1001
1001
1010
,
1010
0000
0110
0000
0110
0000
0101
0000
0101
0000
0011
0000
0011
0000
0100
0010
,
0100
1100
1100
1010
1010
0110
0110
0101
,
0101
1001
1001
1100
1100
0110
0110
0011
,
0001
0100
0001
0100
0010
1000
0100
1000
0010
0100
0010
0100
0001
0010
0001
1000
,
0100
0000
0000
0000
0000
0000
0000
0000
0000
0000
0000
0000
0000
0000
0000
0000
0100
1000
0100
0000
1000
0000
0010
0000
0100
0000
0010
0000
1000
0000
0001
0000
,
1000
0001
0101
0100
0110
0010
1010
1000
,
1001
0001
0011
0010
0110
0100
1100
1000
,
1010
0010
0110
0100
0101
0001
0011
0010
,
0110
0000
0100
0000
1100
0000
1000
0000
1010
0000
0010
0000
0110
0000
0100
0001
,
0100
0001
1001
1000
1010
0010
0110
0100
,
0101
0001
1001
1000
1100
0100
0110
0010
,
0001
0100
0010
0100
0010
1000
0100
0010
0001
1000
0100
0010
0100
1000
0010
0100
,
0001
0010
0100
0010
0001
1000
0100
0010
0001
0010
0100
1000
0010
0100
0010
1000
,
0001
0010
0001
0100
0010
1000
0001
0010
0100
1000
0100
1000
0010
0100
0001
0010
,
0001
0100
0101
0001
1001
1000
1100
0100
,
0110
0010
0011
0001
1001
1000
1010
0010
,
0110
0100
0101
0001
1001
1000
1100
0100
,
0110
0000
0010
0000
0011
0000
0001
0000
1001
0000
1000
0000
1010
0000
0010
0100
,
0010
0100
0101
0001
0011
0010
0110
0100
,
1100
1000
1010
0010
0110
0100
0101
0001
,
1001
0000
1010
0000
0110
0000
0101
0000
0001
1000
0100
0010
0100
1000
0010
0100
,
0002
0000
0000
0000
0000
0000
0000
0000
0000
0000
0000
0000
0000
0000
0000
0003
,
1001
1000
1010
0010
0110
0100
0101
0001
,
1001
1000
1100
0100
0110
0010
0011
0001
,
1001
1000
1010
0010
0110
0100
0101
0001
,
1001
0000
1000
0000
1100
0000
0100
0000
0110
0000
0010
0000
0011
0000
0001
0100
,
0010
0100
0110
0010
1010
1000
1100
0100
,
0110
0010
0011
0001
1001
1000
1010
0010
,
0110
0000
0110
0000
0110
0000
0110
0000
0100
0001
0010
0001
1000
0010
1000
0001
,
0100
0010
0100
0001
1000
0100
0010
0100
1000
0010
0100
0010
0100
0001
0010
0001
,
0100
0000
0000
0000
,
1000
0100
0010
0001
0010
0100
1000
0010
0100
0010
0100
0001
0010
0100
0010
0001
,
0100
0000
0010
0000
1000
0000
0100
0000
1000
0000
0001
0100
0010
0000
0100
0000
,
0001
0000
0100
0000
0001
0000
1000
0000
0100
0000
1000
0100
1000
0000
0010
0000
,
1000
0000
0100
0000
0010
0000
0100
0000
1000
0000
0010
0100
0010
0000
0100
0000
,
0001
0010
0001
0010
0100
1000
0100
1000
0010
0100
0010
0100
0001
0010
0001
0010
,
0001
0000
0100
0000
0010
0000
1000
0000
0100
0000
1000
0010
0100
0000
0010
0000
,
0100
0000
0001
0000
0010
0000
0100
0000
0010
0000
0001
0100
0010
0000
0100
0000
,
0010
0000
1000
0000
0100
0000
0010
0000
0100
0000
1000
0010
0100
0000
0010
0000
,
0100
0010
0100
0001
1000
0100
1000
0010
0200
0000
0000
0000
0000
0000
0000
0000
,
0301
0100
0101
0001
1001
1000
1100
0100
,
0110
0010
0011
0001
1001
1000
1010
0010
,
0110
0100
0101
0001
0101
0100
0110
0010
,
1010
0000
1000
0000
1001
0000
0001
0000
0101
0000
0100
0000
0110
0000
0010
1000
,
0100
1100
1010
0110
0101
0011
1001
1100
,
0110
0011
0110
1100
1010
0110
0101
0011
,
0101
0000
0110
0000
1010
0000
1001
0000
0001
0010
0100
0010
0001
0100
0010
1000
,
0100
0010
0100
1000
0010
0100
0001
0010
0001
0100
0010
0100
0020
0000
0000
0000
,
0230
0000
0000
0000
,
0300
0000
0000
0000
;
