#TITLE:Rottel-Da-STAR;
#SUBTITLE:;
#ARTIST:Sampling Masters CHANG;
#TITLETRANSLIT:;
#SUBTITLETRANSLIT:;
#ARTISTTRANSLIT:;
#CREDIT:;
#BANNER:rotteldastar-banner.png;
#BACKGROUND:rotteldastar-bg.png;
#LYRICSPATH:;
#CDTITLE:cynic.png;
#MUSIC:Rottel-da-STAR.mp3;
#OFFSET:-0.045;
#SAMPLESTART:30.200;
#SAMPLELENGTH:11.980;
#SELECTABLE:YES;
#BPMS:0.000=200.000;
#STOPS:;
#BGCHANGES:;
// cache tags:
#FIRSTBEAT:4.000;
#LASTBEAT:412.000;
#SONGFILENAME:Songs/Community Keyboard Megapack - Volume 1/(Cynic) Rottel-da-Star/rotteldastar.sm;
#HASMUSIC:1;
#HASBANNER:1;
#MUSICLENGTH:124.264;
// end cache tags

//---------------dance-single - ----------------
#NOTES:
     dance-single:
     :
     Hard:
     9:
     0.791,0.698,0.249,0.314,0.008,618.000,31.000,39.000,0.000,0.000:  // measure 1
0000
0000
0000
0000
,  // measure 2
0000
0000
0000
0000
,  // measure 3
0000
0000
0000
0000
,  // measure 4
0000
0000
0000
0000
,  // measure 5
0000
0000
0000
0000
,  // measure 6
0001
0100
0010
2000
0000
0001
3000
0001
,  // measure 7
0010
0100
1000
0002
0000
1000
0003
1000
,  // measure 8
0010
0100
0010
0000
0001
0010
1000
0100
,  // measure 9
0010
0020
0200
0330
,  // measure 10
0010
0001
0010
0001
0100
0000
0110
0000
,  // measure 11
0010
1000
0100
1000
0002
0100
0103
0000
,  // measure 12
0010
1000
0010
0000
0100
0001
0010
0100
,  // measure 13
1000
1000
0001
0001
0200
0000
0310
0000
,  // measure 14
1001
0000
1000
0010
0001
0010
0100
0001
,  // measure 15
1000
0000
0100
0001
0100
0010
0001
0100
,  // measure 16
0010
0010
0100
0000
0001
1000
0100
0100
,  // measure 17
0010
1000
0001
0000
0200
0000
1300
0000
,  // measure 18
1010
0000
0000
0101
0000
0000
0000
2002
,  // measure 19
0000
3003
0011
1100
,  // measure 20
1001
0000
0001
0102
0000
0003
1000
2100
,  // measure 21
0000
0000
0000
0000
0000
0000
3000
0000
0210
0000
0000
0010
0300
0000
0001
0000
,  // measure 22
0100
0010
0100
0001
0100
0010
1000
0001
,  // measure 23
0001
0100
0010
0100
0001
0100
0010
1000
,  // measure 24
0100
0200
0000
0000
0010
0020
0300
0030
,  // measure 25
0001
1000
0010
0100
0002
0000
1003
0000
,  // measure 26
1100
0000
0100
1000
0100
1000
0100
0010
,  // measure 27
0001
0000
0100
0001
0100
0001
0010
0100
,  // measure 28
1000
0000
0010
0100
0110
0000
0001
1000
,  // measure 29
0002
0100
0103
0000
1010
0000
0101
0000
,  // measure 30
0001
0100
0010
1000
0100
0010
0100
0010
,  // measure 31
0001
0010
0100
1000
0010
0100
0010
0100
,  // measure 32
0001
0100
1000
0000
1000
0100
0001
0010
,  // measure 33
0100
0001
1000
0010
0002
0000
1003
0000
,  // measure 34
0100
1000
0100
1000
0010
0000
0110
0000
,  // measure 35
0100
0001
0010
0001
2000
0010
3010
0000
,  // measure 36
0100
0001
0100
0000
0010
1000
0100
0010
,  // measure 37
0001
0001
1000
1000
0020
0000
0130
0000
,  // measure 38
1001
0000
0001
0100
1000
0100
0010
1000
,  // measure 39
0001
0000
0010
1000
0010
0100
1000
0010
,  // measure 40
0100
0100
0010
0000
1000
0001
0010
0010
,  // measure 41
0100
0001
1000
0000
0020
0000
0031
0000
,  // measure 42
0100
0010
0100
0001
1000
0000
0001
0010
,  // measure 43
0100
0010
0002
0000
1003
0000
1000
1000
,  // measure 44
0010
0100
0001
0000
1000
0100
1000
0100
,  // measure 45
0010
0001
2000
0000
3002
0000
1003
0000
,  // measure 46
0010
1000
0001
0100
0001
1000
0100
0010
,  // measure 47
1000
0010
0001
0100
0010
0000
0100
0000
,  // measure 48
0001
0001
1000
0100
0010
0001
0010
0001
,  // measure 49
0000
0200
0020
0000
0000
0000
0330
0000
,  // measure 50
1001
0000
0100
0010
0000
1000
0001
0100
,  // measure 51
0101
0000
0001
1000
0010
1000
0001
0010
,  // measure 52
0100
0000
1000
0100
1000
0010
0100
0020
,  // measure 53
0100
0100
0100
0130
,  // measure 54
0100
0001
1000
0100
0000
0100
1000
0001
,  // measure 55
0100
0010
1000
0001
0000
1000
0100
1000
,  // measure 56
0010
0100
0010
0000
0100
0001
0010
0200
,  // measure 57
1000
0001
1000
0310
,  // measure 58
0001
0100
1000
0100
0001
0100
1000
0100
,  // measure 59
0001
0010
1000
0001
0200
0000
1300
0000
,  // measure 60
1000
0010
0001
0010
1000
0100
0010
0002
,  // measure 61
0100
0010
0100
0013
,  // measure 62
0100
1000
0010
1000
0100
1000
0010
0001
,  // measure 63
1000
0100
0001
0010
0100
1000
0001
0000
,  // measure 64
0010
0001
0100
0001
0010
0001
0100
0020
,  // measure 65
1000
0001
0001
1030
,  // measure 66
0001
0100
0001
0000
1000
0010
1000
0000
,  // measure 67
0100
1000
0010
0100
0001
0010
0100
0100
,  // measure 68
1000
0100
1000
0000
0001
0010
0001
0000
,  // measure 69
0100
0001
0020
0000
0130
1000
0020
0000
,  // measure 70
0130
0001
0100
0001
1000
0100
1000
0000
,  // measure 71
0001
0100
1000
0001
0010
1000
0001
0000
,  // measure 72
0010
0001
0010
0001
1000
0010
1000
0000
,  // measure 73
0001
0010
1000
0001
0100
1000
0001
0000
,  // measure 74
0010
0001
0010
0001
0100
0000
0110
0000
,  // measure 75
0010
1000
0100
1000
0002
0100
0103
0000
,  // measure 76
0010
1000
0010
0000
0100
0001
0010
0100
,  // measure 77
1000
1000
0001
0001
0200
0000
0310
0000
,  // measure 78
1001
0000
1000
0010
0001
0010
0100
0001
,  // measure 79
1000
0000
0100
0001
0100
0010
0001
0100
,  // measure 80
0010
0010
0100
0000
0001
1000
0100
0100
,  // measure 81
0010
1000
0001
0000
0200
0000
1300
0000
,  // measure 82
0010
1000
0010
1000
0001
0100
0001
0100
,  // measure 83
0010
1000
0001
1000
0100
0010
0110
0000
,  // measure 84
0010
0001
0010
0001
1000
0100
1000
0100
,  // measure 85
0010
0001
1000
0001
0100
0010
0110
0000
,  // measure 86
0100
0001
0100
0001
1000
0010
1000
0010
,  // measure 87
0100
0001
1000
0001
0010
0100
0110
0000
,  // measure 88
0100
1000
0100
1000
0001
0010
0001
0010
,  // measure 89
0100
1000
0001
1000
0010
0000
0110
0000
,  // measure 90
0011
0000
0010
0001
0010
0001
0010
0100
,  // measure 91
1000
0000
0010
1000
0010
1000
0100
0010
,  // measure 92
0001
0000
0100
0010
0110
0000
1000
0001
,  // measure 93
2000
0010
3010
0000
0101
0000
1010
0000
,  // measure 94
1000
0010
0100
0001
0010
0100
0010
0100
,  // measure 95
1000
0100
0010
0001
0100
0010
0100
0010
,  // measure 96
1000
0010
0001
0000
0001
0010
1000
0100
,  // measure 97
0010
1000
0001
0100
2000
0000
3001
0000
,  // measure 98
0010
0010
0100
0000
0100
0100
1000
0000
,  // measure 99
1000
1000
0001
0000
0001
0001
0100
0000
,  // measure 100
0100
0100
0010
1000
0001
0001
0100
0010
,  // measure 101
1000
0001
1000
0001
0000
0101
1100
0000
,  // measure 102
0200
0000
0000
0010
0000
0000
0020
0000
0000
0000
0000
0000
0000
0000
0000
0000
,  // measure 103
0330
0000
0000
0000
;

//---------------dance-single - ----------------
#NOTES:
     dance-single:
     :
     Challenge:
     12:
     1.000,1.000,1.000,0.620,0.310,806.000,276.000,77.000,0.000,0.000:  // measure 1
0000
0000
0000
0000
,  // measure 2
1001
0100
0010
1200
0000
1300
0100
1000
,  // measure 3
1010
0010
0100
0021
0000
0031
1000
0010
,  // measure 4
1100
0002
0000
0013
1100
0001
0100
0010
,  // measure 5
1001
0000
1000
0000
1001
0000
0001
0000
1000
0000
0100
0010
0001
1000
0100
0010
,  // measure 6
1001
0100
0101
1002
0000
1003
0100
0011
,  // measure 7
0101
1000
0100
0012
0003
1010
1000
0010
,  // measure 8
0101
0002
0000
1003
1010
0100
0001
0010
,  // measure 9
0210
0000
0300
1000
0100
1000
0010
0000
0102
0000
0100
0000
1003
0000
0100
0000
,  // measure 10
0011
1000
0011
1001
0010
0110
0100
0101
,  // measure 11
1010
0001
1010
1001
0010
0110
0100
1100
,  // measure 12
1001
0000
0101
0000
0010
0000
1000
0100
1000
0000
0010
0100
0010
0000
0100
0000
,  // measure 13
0102
0000
0103
0000
2010
0000
3010
0000
1002
0000
0000
0003
0100
0010
1000
0001
,  // measure 14
0100
0010
1010
1001
0100
0011
1000
0110
,  // measure 15
0101
0000
1000
0000
1100
0000
1000
0100
1000
0010
0100
0001
1000
0000
0100
0000
,  // measure 16
0011
0011
0001
0100
1020
1030
1001
0110
,  // measure 17
1002
0203
2300
3020
0032
0000
2000
3003
,  // measure 18
0110
0000
0001
0011
0000
0100
1000
1100
,  // measure 19
0000
1000
0010
1000
1100
0100
0110
0010
,  // measure 20
1001
0000
1000
1010
0000
0100
0001
0101
,  // measure 21
0000
0000
0100
0000
0110
0000
0010
0000
1010
0000
1000
0100
0000
0100
0010
0000
,  // measure 22
1001
0000
0100
0000
1010
0000
0100
0000
0011
0000
0010
0100
1000
0010
0100
0000
,  // measure 23
0110
0000
0010
0000
1010
0000
1000
0000
1001
0000
0100
0010
1000
0100
0010
0000
,  // measure 24
2001
0002
0000
3003
0120
0200
0000
0330
,  // measure 25
1001
0000
0100
0000
0010
0000
0100
0000
0001
0100
0010
1000
0001
0100
0010
0000
,  // measure 26
1001
0000
0100
0000
1001
0000
1000
0100
1000
0010
0100
0000
0001
0100
0010
0000
,  // measure 27
1001
0000
0100
0000
1001
0000
0001
0100
0001
0010
0100
0000
1000
0100
0010
0000
,  // measure 28
0101
0000
0100
0010
1000
0000
0010
0000
1010
0000
0010
0100
0001
0000
0100
0000
,  // measure 29
1002
0100
0200
0303
2001
0010
0020
3030
,  // measure 30
1001
0000
0010
0000
1001
0000
0001
0010
0001
0100
0010
0000
1000
0010
0100
0000
,  // measure 31
1001
0000
0010
0000
1001
0000
1000
0010
1000
0100
0010
0000
0001
0010
0100
0000
,  // measure 32
1010
0000
0010
0100
0001
0000
0100
0000
0101
0000
0100
0010
1000
0000
0010
0000
,  // measure 33
2001
0010
0020
3030
1002
0100
0200
0303
,  // measure 34
1100
0001
1100
1001
0100
0110
0010
1010
,  // measure 35
0101
1000
0101
1001
0100
0110
0010
0011
,  // measure 36
1001
0000
1010
0000
0100
0000
0001
0010
0001
0000
0100
0010
0100
0000
0010
0000
,  // measure 37
2010
0000
3010
0000
0102
0000
0103
0000
2001
0000
0000
3000
0010
0100
0001
1000
,  // measure 38
0010
0100
0101
1001
0010
1100
0001
0110
,  // measure 39
1010
0000
0001
0000
0011
0000
0001
0010
0001
0100
0010
1000
0001
0000
0010
0000
,  // measure 40
1100
1100
1000
0010
0201
0301
1001
0110
,  // measure 41
2001
0100
0020
3030
1002
0010
0200
0303
,  // measure 42
1000
0100
1000
0010
0100
0001
0010
0101
,  // measure 43
0000
0000
1000
0000
0101
0000
0010
0000
0101
0000
1000
0100
1000
0001
0100
0000
,  // measure 44
1010
0100
0001
1100
0000
0100
0010
0001
,  // measure 45
1010
0100
0011
0000
2100
0000
3001
0010
,  // measure 46
0101
0010
1000
1100
0001
0100
1010
0000
,  // measure 47
0101
0000
0001
0000
0021
0000
0000
0000
0130
0000
0000
0000
0010
0100
0010
0100
,  // measure 48
1000
0000
2100
0000
0000
3000
0100
0010
0001
0000
0011
0000
0010
0000
0110
0000
,  // measure 49
0000
0000
0020
0000
0200
0000
0000
0000
0000
0000
0000
0000
0000
0330
0000
0000
,  // measure 50
1001
0100
1010
1010
0000
0101
0101
0010
,  // measure 51
1001
0100
0011
0011
0000
1100
1100
0010
,  // measure 52
1001
0001
0110
0110
0000
0100
0110
0010
,  // measure 53
2002
0000
0000
0000
0000
0000
3003
0000
0001
0000
0100
0000
0010
1000
0001
0000
,  // measure 54
1001
0010
0101
0101
0000
1010
1010
0100
,  // measure 55
1001
0010
1100
1100
0000
0011
0011
0100
,  // measure 56
1001
1000
0110
0110
0000
0010
0110
0100
,  // measure 57
2002
0000
0000
0000
0000
0000
3003
0000
1000
0000
0010
0000
0100
0001
1000
0000
,  // measure 58
0101
0001
1000
0100
0110
0010
0001
0100
,  // measure 59
0101
0001
0010
0100
0110
0000
0011
0000
,  // measure 60
1100
1000
0010
0100
0101
0001
0010
0220
,  // measure 61
0000
0000
0000
0000
0330
0000
0100
0000
1000
0000
0001
0000
0100
0010
1000
0000
,  // measure 62
1010
1000
0001
0010
0110
0100
1000
0010
,  // measure 63
1010
1000
0100
0010
0110
0000
1100
0000
,  // measure 64
0011
0001
0100
0010
1010
1000
0100
0220
,  // measure 65
0000
0000
0000
0000
0330
0000
0010
0000
0001
0000
1000
0000
0010
0100
0001
0000
,  // measure 66
1010
1000
0100
0010
0011
0001
0100
0210
,  // measure 67
1000
0301
1000
0200
0001
1300
0010
0100
,  // measure 68
1001
0001
0010
0100
1100
1000
0010
0120
,  // measure 69
0001
1030
0001
0020
1000
0031
0100
0010
,  // measure 70
1010
0100
0011
0100
0011
0100
1010
0100
,  // measure 71
0011
0001
0101
0100
0110
1010
1001
0000
,  // measure 72
0101
0010
1100
0010
1100
0010
0101
0010
,  // measure 73
1100
1000
1010
0010
0110
0101
1001
0100
,  // measure 74
1010
0001
1010
1001
0010
0110
0100
1100
,  // measure 75
0011
1000
1010
1001
0010
0110
0100
0101
,  // measure 76
1001
0000
1100
0000
0010
0000
0001
0100
0001
0000
0010
0100
0010
0000
0100
0000
,  // measure 77
2100
0000
3100
0000
0012
0000
0013
0000
2001
0000
0000
3000
0100
0010
0001
1000
,  // measure 78
0100
0010
0011
1001
0100
1010
0001
0110
,  // measure 79
1100
0000
0001
0000
0101
0000
0001
0100
0001
0010
0100
1000
0001
0000
0100
0000
,  // measure 80
1010
1010
1000
0100
0021
0031
1001
0110
,  // measure 81
2001
3200
0302
0023
2030
0000
0002
3003
,  // measure 82
0110
0100
1000
0100
0110
0100
0001
0100
,  // measure 83
1100
1000
0100
1000
1100
1000
0010
1000
,  // measure 84
1010
0010
1000
0010
1010
0010
0001
0010
,  // measure 85
1001
0100
0011
1100
0001
1010
0100
0001
,  // measure 86
0101
0100
0010
0100
0110
0010
1000
0010
,  // measure 87
0101
0001
1000
0011
0100
1000
0011
0001
,  // measure 88
1010
0100
0001
0100
0011
0001
1000
0100
,  // measure 89
0101
0010
1000
0100
0011
1100
2002
3003
,  // measure 90
1001
0000
0010
0000
1001
0000
0001
0010
0001
0100
0010
0000
1000
0010
0100
0000
,  // measure 91
1001
0000
0010
0000
1001
0000
1000
0010
1000
0100
0010
0000
0001
0010
0100
0000
,  // measure 92
1010
0000
0010
0100
0001
0000
0100
0000
0101
0000
0100
0010
1000
0000
0010
0000
,  // measure 93
2001
0010
0020
3030
1002
0100
0200
0303
,  // measure 94
1001
0000
0100
0000
1001
0000
1000
0100
1000
0010
0100
0000
0001
0100
0010
0000
,  // measure 95
1001
0000
0100
0000
1001
0000
0001
0100
0001
0010
0100
0000
1000
0100
0010
0000
,  // measure 96
0101
0000
0100
0010
1000
0000
0010
0000
1010
0000
0010
0100
0001
0000
0100
0000
,  // measure 97
1002
0100
0200
0303
2001
0010
0020
3030
,  // measure 98
0011
0011
0100
0100
1010
1010
0100
0100
,  // measure 99
0101
0101
0010
0010
1100
1100
0010
0010
,  // measure 100
1001
1001
0010
0100
1001
1001
0100
0010
,  // measure 101
0110
0100
0110
0010
0010
1001
0110
0100
,  // measure 102
1001
0000
0000
0200
0000
0000
0020
0000
0000
0000
0000
0000
0000
0000
0000
0000
,  // measure 103
0000
0000
0000
0000
,  // measure 104
0330
0000
0000
0000
;
