#TITLE:Best Love Song;
#SUBTITLE:Sexuality Violation;
#ARTIST:T-Pain feat. Chris Brown;
#TITLETRANSLIT:;
#SUBTITLETRANSLIT:;
#ARTISTTRANSLIT:;
#CREDIT:B. Vergara;
#BANNER:love banner.png;
#BACKGROUND:love bg.png;
#LYRICSPATH:;
#CDTITLE:;
#MUSIC:Best Love Song.ogg;
#OFFSET:-0.042;
#SAMPLESTART:39.384;
#SAMPLELENGTH:12.000;
#SELECTABLE:YES;
#BPMS:0.000=160.000;
#STOPS:;
#BGCHANGES:;
// cache tags:
#FIRSTBEAT:4.000;
#LASTBEAT:517.000;
#SONGFILENAME:Songs/Sexuality Violation 2/Best Love Song - [NBCrescendo]/Best Love Song.sm;
#HASMUSIC:1;
#HASBANNER:1;
#MUSICLENGTH:202.161;
// end cache tags

//---------------dance-single - B. Vergara----------------
#NOTES:
     dance-single:
     B. Vergara:
     Challenge:
     18:
     1.000,1.000,0.124,0.242,1.000,1632.000,25.000,49.000,32.000,3.000:

0000
0000
0000
0000
,
M000
0M00
00M0
000M
M000
0M00
00M0
000M
,
0M00
00M0
M000
000M
0M00
00M0
M000
000M
,
0M00
000M
M000
00M0
0M00
000M
00M0
M000
,
0M00
00M0
000M
M000
00M0
0M00
000M
00M0
,
1000
0010
0100
0001
1000
0010
0100
0001
,
0010
0100
1000
0001
0010
0100
1000
0001
,
0100
0010
0100
0001
0100
0010
1000
0100
,
0010
0001
1000
0000
0010
0100
0001
0010
,
0100
0000
1001
0000
1000
0010
0100
0001
,
0010
0100
1000
0000
1100
0100
0010
0001
,
1000
0010
1000
0001
0010
0000
0001
0100
,
0010
1000
0100
0010
0011
0001
1000
0010
,
0100
0001
1000
0001
0100
0001
1000
0010
,
1000
0100
0010
0001
0010
0001
0100
0010
,
2000
0000
3001
0010
0200
0000
1300
0010
,
0100
0001
0010
0000
0001
1000
0010
0100
,
0001
0000
1000
0000
0010
0100
0000
0100
,
0001
0010
0000
0100
1000
0001
0100
0010
,
1000
0000
0001
0010
0001
1000
0000
0010
,
0200
0302
0023
0230
2300
0000
3020
0000
,
0130
0000
0001
0010
0100
1000
0010
0100
,
0001
0001
1000
0100
1000
0010
0100
0001
,
0010
0001
0100
0010
1000
0100
0010
0001
,
1000
0001
0100
0010
1000
0100
1000
0010
,
0100
0000
1001
0000
1000
0001
0100
0010
,
0100
0000
1001
0000
1000
0001
1000
0100
,
0010
0001
0100
0000
0020
0000
2030
0000
,
0000
3001
0100
0001
1000
0000
0010
1000
,
0010
1000
0010
1000
0001
1000
0001
0100
0001
1000
0010
1000
0001
1000
0100
0010
0001
1000
0100
0010
0001
1000
0001
0100
,
0001
1000
0010
0100
0001
1000
0010
0100
0001
1000
0001
0010
0001
1000
0001
0100
0001
1000
0010
0100
0001
1000
0100
0010
,
0001
1000
0001
0100
0010
1000
0001
0100
0010
1000
0001
0100
0001
1000
0100
1000
0001
0100
0001
1000
0010
0100
0001
1000
,
0010
0100
0001
1000
0001
0010
0100
1000
0100
0010
0001
1000
0001
1000
0010
0100
0001
1000
0001
0100
0001
1000
0100
1000
,
0001
0100
0001
1000
0010
0100
0001
1000
0010
1000
0001
0100
0001
0100
0001
1000
0100
1000
0001
0010
0001
1000
0100
1000
,
0001
0100
0001
1000
0010
0100
0001
1000
0001
0010
0001
1000
0010
1000
0001
0010
0100
1000
0001
0010
0100
1000
0001
1000
,
0100
1000
0001
0100
0001
1000
0001
0010
0001
1000
0010
0100
0001
1000
0010
0100
0001
1000
0001
0100
0001
1000
0001
0010
,
0100
1000
0001
0100
0001
1000
0001
0000
0000
1000
0000
0000
0010
0000
0000
0100
0000
0000
0001
0000
0000
0010
0000
0000
,
0100
0000
1001
0000
0000
1000
0010
0100
,
0001
0010
0100
1000
0010
0000
0000
1000
,
0010
0100
0001
0010
0200
0000
1300
0010
,
0200
0302
0023
0230
,
1300
0001
0100
0001
1000
0001
0100
0001
1000
0010
0100
0001
1000
0010
0100
0001
1000
0001
0100
0001
1000
0001
0010
0100
,
1000
0001
0010
0100
1000
0100
0010
0001
1000
0001
0100
0001
1000
0010
0100
0001
1000
0001
0010
0100
1000
0100
0010
0001
,
1000
0010
0100
0001
1000
0010
0100
0010
1000
0010
0100
0001
0100
0001
1000
0001
1000
0100
1000
0001
0100
0001
1000
0001
,
0100
0001
1000
0010
0100
0001
1000
0010
0100
0001
1000
0001
0010
0001
1000
0010
1000
0001
0100
0001
1000
0010
0100
0001
,
0010
0100
1000
0100
0010
0001
1000
0010
1000
0001
0100
0001
1000
0100
0010
0001
1000
0100
1000
0001
1000
0100
1000
0001
,
0100
0010
1000
0001
0100
0010
0100
0010
0100
0001
1000
0100
0010
0001
1000
0001
0100
0001
0010
0100
1000
0001
0100
0001
,
1000
0010
0100
0001
0010
0100
1000
0001
0010
0001
1000
0010
1000
0001
1000
0001
0100
0001
1000
0010
0100
0001
0010
0100
,
1000
0100
0010
0001
0100
0010
1000
0001
0100
0001
1000
0010
1000
0000
0000
0001
0000
0000
0010
0000
0000
0100
0000
0000
,
1000
0000
1100
0000
0001
0100
0010
1000
,
0100
0010
0001
0000
0101
0001
1000
0010
,
0100
0001
0010
0100
1000
0010
0000
0100
,
0001
1000
0100
0010
0110
0100
1000
0001
,
0100
0000
0010
1000
0001
0000
0010
0001
,
1000
0000
0200
0000
0310
0001
0100
0010
,
1000
0010
1000
0001
0100
0000
0001
1000
,
0100
2000
0000
0000
3010
0100
0001
0010
,
0001
0100
0010
1000
1010
0010
0100
0001
,
0010
0100
1000
0001
0101
0000
0000
0001
,
1000
0100
0010
0001
1000
0010
1000
0001
,
0010
0001
0200
0000
0000
0320
2030
3000
,
0100
0010
0001
1000
0010
0100
0001
0010
,
0001
1000
0100
0020
0030
0000
0001
0100
,
0020
0030
1000
0100
0010
0001
1000
0010
,
0100
0001
1000
0100
0010
0001
0100
0010
,
1000
0000
1001
0000
1000
0100
0010
0001
,
0100
0000
1001
0000
1000
0010
0100
0001
,
0100
0010
1000
0000
0200
0000
0320
0000
,
0000
0031
1000
0010
0100
0000
0010
1000
,
0001
0100
0001
1000
0010
1000
0001
0100
0001
1000
0010
0100
0001
1000
0001
1000
0100
1000
0001
0100
0010
1000
0100
0010
,
0001
1000
0100
0010
0001
0100
0001
1000
0010
1000
0010
0100
0001
1000
0001
0010
0100
1000
0100
0010
0001
1000
0001
0100
,
0001
1000
0010
0100
0001
1000
0100
1000
0001
0100
0001
1000
0010
1000
0001
0100
0001
1000
0010
0100
0001
1000
0001
0010
,
0100
1000
0001
0010
0100
1000
0001
0100
0001
1000
0010
1000
0001
1000
0100
0010
0001
1000
0010
0100
0001
1000
0010
0100
,
0001
0100
0001
1000
0010
1000
0010
0100
0001
1000
0001
0010
0001
1000
0100
1000
0100
0010
0001
0010
0001
1000
0010
1000
,
0001
0100
0001
1000
0010
1000
0001
0010
0001
1000
0001
0100
0010
0100
0010
1000
0001
1000
0100
0010
0001
1000
0100
0010
,
0001
1000
0010
0100
0001
1000
0010
0100
0001
1000
0001
0100
0001
1000
0100
0010
0001
0010
0100
1000
0010
0100
0001
1000
,
0010
0100
0001
1000
0001
0010
0100
0000
0000
1000
0000
0000
0010
0000
0000
1000
0000
0000
0010
0000
0000
0100
0000
0000
,
0001
0000
1001
0000
0000
1000
0010
1000
,
0010
0100
0001
0100
0001
0000
0000
1000
,
0001
0010
0100
1000
0020
0000
0130
0001
,
2000
3020
0230
0302
,
1003
0100
0010
0001
1000
0100
0010
0001
1000
0001
0100
0001
1000
0010
0100
0001
1000
0001
0010
0100
1000
0100
0010
0001
,
1000
0001
0100
0001
1000
0010
1000
0001
0100
0001
1000
0100
0010
0001
0100
0001
1000
0010
0100
0001
1000
0010
0100
0001
,
1000
0001
1000
0001
0100
0001
1000
0010
1000
0010
0100
0001
1000
0001
0010
0100
0010
0001
0010
0100
1000
0100
1000
0001
,
0100
0001
1000
0010
0100
0001
1000
0001
0100
0001
1000
0010
0100
0001
1000
0100
0010
0001
1000
0001
0100
0001
1000
0010
,
0100
0001
0100
0001
1000
0010
1000
0001
0010
0001
1000
0001
0100
0001
1000
0100
1000
0001
0100
0001
1000
0010
0100
0001
,
0010
0100
1000
0001
0010
0100
1000
0001
0100
0001
1000
0010
0100
0001
1000
0001
0100
0001
1000
0010
1000
0001
0010
0001
,
1000
0100
1000
0001
0100
0001
1000
0010
1000
0001
0100
0001
1000
0010
0100
0001
1000
0001
0010
0100
1000
0100
0010
0001
,
1000
0001
0100
0001
1000
0001
0010
0001
1000
0010
0100
0001
1000
0000
0000
0010
0000
0000
0100
0000
0000
0001
0000
0000
,
0010
0000
0011
0000
1000
0010
0100
0001
,
1000
0001
0100
0000
1001
0000
1000
0100
,
0010
0001
1000
0001
0100
0000
0010
0000
,
1000
0000
0000
0010
0100
0001
0010
0100
,
0020
0000
0000
0000
0000
0000
0000
0000
0000
0000
0000
0000
0000
0000
0000
0000
0030
0000
0000
0000
0000
0000
0000
0000
0000
0000
0000
0000
0000
0000
0000
0000
0022
0000
0000
0000
0000
0000
0000
0000
0000
0000
0000
0000
0000
0000
0000
0000
0000
0000
0000
0000
0000
0000
0000
0000
0000
0000
0000
0000
0000
0000
0000
0033
,
2020
0000
0000
0000
3130
0001
0010
0001
,
1000
0010
0100
0000
2020
0000
0000
0000
,
3232
0000
0000
1303
0010
0100
0001
0010
,
0100
0000
0010
0000
0001
1000
0001
1000
,
0100
0000
1000
0000
1010
0010
0100
0001
,
0010
0001
0010
0100
1000
0000
0010
0100
,
0000
0000
0000
0001
0100
0010
1000
0100
,
0010
0000
0110
0000
0000
0001
1000
0001
,
1000
0010
0100
0001
0010
0000
0110
0010
,
0001
1000
0010
0100
0002
0000
1003
0100
,
0020
0032
2003
3020
,
0130
0001
0100
0001
1000
0010
0100
0001
1000
0010
0100
0001
1000
0001
1000
0100
0010
0001
1000
0100
0010
0001
1000
0001
,
0100
0001
1000
0010
0100
0001
1000
0001
0100
0001
1000
0010
0100
0001
1000
0100
0010
0001
1000
0100
0010
0001
0100
0001
,
1000
0010
0100
0001
1000
0010
1000
0001
0100
0001
1000
0010
0100
0001
0010
0100
1000
0100
1000
0001
0100
0001
1000
0010
,
0100
0001
0010
0100
1000
0001
1000
0000
0000
0010
0000
0000
0100
0000
0000
0001
0000
0000
0010
0000
0000
0100
0000
0000
,
1000
0000
0101
0000
0010
1000
0001
0010
,
0100
1000
0100
0010
0001
0000
1001
0001
,
1000
0100
0010
0001
0200
0000
0310
1000
,
0002
0023
0230
2300
,
3010
0100
0001
1000
0010
1000
0001
0100
0001
1000
0100
0010
0001
1000
0001
0100
0001
1000
0010
0100
0001
0010
0100
1000
,
0001
0010
0100
1000
0100
0010
0001
1000
0010
0100
0001
1000
0001
0100
0001
1000
0010
0100
0001
1000
0001
1000
0010
1000
,
0001
0010
0001
1000
0001
1000
0100
1000
0001
0100
0001
1000
0010
0100
0001
0010
0100
1000
0100
0010
0001
1000
0100
0010
,
0001
0100
0001
1000
0010
0100
0001
1000
0001
0100
0001
1000
0010
0100
0010
1000
0100
0010
0100
1000
0100
0010
0001
1000
,
0001
0100
0001
1000
0010
0100
0001
1000
0100
0010
0001
1000
0010
0100
0001
1000
0010
0100
0001
0100
0001
1000
0010
0100
,
0001
1000
0010
0100
0001
1000
0001
0010
0001
1000
0010
1000
0001
0100
0001
1000
0100
1000
0001
0100
0001
1000
0010
0100
,
0001
1000
0001
0010
0001
1000
0001
0010
0001
1000
0100
1000
0001
1000
0100
0010
0001
1000
0010
0100
0001
1000
0010
0100
,
0001
1000
0100
0010
0001
0010
0100
1000
0001
0100
0001
1000
0001
0100
0001
1000
0100
1000
0100
1000
0010
0100
0001
1000
,
0001
0100
0001
0100
0010
1000
0001
0100
0001
1000
0010
0100
0001
1000
0001
0010
0100
1000
0001
0100
0001
1000
0010
0100
,
0001
1000
0100
0010
0100
1000
0001
0010
0100
0010
0001
1000
0010
0100
0001
1000
0010
0100
0010
1000
0001
0100
0001
0100
,
0001
1000
0010
1000
0001
0100
0001
1000
0001
0010
0100
1000
0001
0010
0100
1000
0001
0100
0010
1000
0010
0100
0001
1000
,
0001
0010
0000
0100
0000
1000
0000
0010
,
0100
0001
1000
0001
0100
0001
1000
0010
1000
0010
0100
0001
1000
0001
0100
0001
1000
0001
0010
0100
1000
0001
0100
0001
,
1000
0010
0100
0010
1000
0010
0100
0010
1000
0001
0100
0001
1000
0100
0010
0001
1000
0100
0010
0001
0100
0001
1000
0001
,
0100
0010
1000
0010
0100
0001
0010
0100
1000
0100
0010
0001
0010
0100
1000
0001
0100
0001
1000
0010
0100
0010
1000
0001
,
1000
0100
0010
0001
1000
0001
0100
0001
1000
0001
0010
0100
1000
0010
0100
0001
0100
0010
1000
0001
1000
0001
1000
0001
,
0200
0300
0000
0000
;

//---------------dance-single - B. Vergara----------------
#NOTES:
     dance-single:
     B. Vergara:
     Hard:
     16:
     1.000,1.000,0.124,0.272,1.000,1338.000,25.000,55.000,32.000,3.000:
0000
0000
0000
0000
,
M000
0M00
00M0
000M
M000
0M00
00M0
000M
,
0M00
00M0
M000
000M
0M00
00M0
M000
000M
,
0M00
000M
M000
00M0
0M00
000M
00M0
M000
,
0M00
00M0
000M
M000
00M0
0M00
000M
00M0
,
1000
0001
0100
0001
0010
0100
1000
0001
,
1000
0010
1000
0001
1000
0001
0100
0010
,
1000
0010
0100
0001
1000
0100
0010
0001
,
0100
0001
1000
0000
0010
1000
0100
0010
,
0100
0000
1100
0000
1000
0010
0100
0010
,
1000
0001
1000
0000
1001
0001
0010
0001
,
1000
0100
0010
0001
1000
0000
0001
0100
,
0010
1000
0100
0010
0011
0001
1000
0100
,
1000
0001
0100
0001
1000
0010
0100
0001
,
1000
0100
0010
0001
1000
0001
0100
0010
,
0200
0000
0301
0010
0200
0000
1300
0010
,
0100
0001
0010
0000
0001
0010
0100
1000
,
0001
0000
1000
0000
0010
0100
0000
0100
,
0001
0010
0000
0100
1000
0001
0100
0010
,
1000
0000
0001
1000
0001
1000
0000
0010
,
0200
0302
2003
3020
0230
0000
0320
0000
,
1030
0000
0001
1000
0010
0100
0001
0100
,
0001
0001
1000
0010
1000
0010
0100
0001
,
1000
0001
0100
0010
1000
0100
0010
0001
,
1000
0001
0100
0010
1000
0010
1000
0001
,
0100
0000
1001
0000
1000
0001
1000
0010
,
0100
0000
1001
0000
1000
0100
1000
0001
,
0010
0001
0100
0000
0002
0000
2003
0000
,
0000
3001
0100
0001
1000
0000
0010
1000
,
0010
1000
0010
1000
0001
1000
0001
0100
0001
1000
0010
1000
0001
1000
0100
0010
0001
1000
0100
0010
0001
1000
0001
0100
,
0001
1000
0010
0100
0001
1000
0010
0100
0001
1000
0001
0010
0001
1000
0001
0100
0001
1000
0010
0100
0001
1000
0100
0010
,
0001
0100
0020
0000
2030
0000
3200
0000
,
0000
0310
0001
1000
0010
0000
0010
1000
,
0001
0100
0001
1000
0010
0100
0001
1000
0010
1000
0001
0100
0001
0100
0001
1000
0100
1000
0001
0010
0001
1000
0100
1000
,
0001
0100
0001
1000
0010
0100
0001
1000
0001
0010
0001
1000
0010
1000
0001
0010
0100
1000
0001
0010
0100
1000
0001
1000
,
0100
1000
0001
0100
0001
1000
0001
0010
0001
1000
0010
0100
0001
1000
0010
0100
0001
1000
0001
0100
0001
1000
0001
0010
,
0100
1000
0001
0100
0001
1000
0001
0000
0000
1000
0000
0000
0010
0000
0000
0100
0000
0000
0001
0000
0000
0010
0000
0000
,
0100
0000
1001
0000
0000
1000
0010
0100
,
0001
0010
0100
1000
0010
0000
0000
1000
,
0010
0100
0001
0010
0200
0000
1300
0010
,
0200
0302
0023
0230
,
1300
0001
0100
0001
1000
0001
0100
0001
1000
0010
0100
0001
1000
0000
0000
0010
0000
0000
0100
0000
0000
0001
0000
0000
,
1000
0001
0010
0100
1000
0100
0010
0001
1000
0001
0100
0001
1000
0000
0000
0100
0000
0000
0010
0000
0000
0001
0000
0000
,
1000
0010
0100
0001
1000
0010
0100
0010
1000
0010
0100
0001
1000
0000
0000
0010
0000
0000
0100
0000
0000
0010
0000
0000
,
0100
0001
1000
0010
0100
0001
1000
0010
0100
0001
1000
0001
0010
0000
0000
0001
0000
0000
1000
0000
0000
0001
0000
0000
,
0010
0100
1000
0100
0010
0001
1000
0010
1000
0001
0100
0001
1000
0000
0000
0001
0000
0000
0010
0000
0000
0100
0000
0000
,
1000
0010
1000
0001
0100
0010
0100
0010
0100
0001
1000
0100
1000
0000
0000
0001
0000
0000
0010
0000
0000
0001
0000
0000
,
0100
0010
0100
0001
0010
0100
1000
0001
0010
0001
1000
0010
0100
0000
0000
0001
0000
0000
0010
0000
0000
0100
0000
0000
,
1000
0100
0010
0001
0100
0010
1000
0001
0100
0001
1000
0010
1000
0000
0000
0001
0000
0000
0010
0000
0000
0100
0000
0000
,
1000
0000
1100
0000
0001
1000
0010
1000
,
0100
1000
0001
0000
0101
0001
1000
0010
,
1000
0010
0100
0001
1000
0001
0000
0100
,
0001
1000
0100
0010
0110
0100
1000
0001
,
0100
0000
0010
1000
0001
0000
0010
0001
,
1000
0000
0200
0000
0310
0001
0100
0010
,
1000
0001
1000
0001
0100
0000
0001
1000
,
0001
2000
0000
0000
3010
0100
0001
0010
,
0001
0100
0010
1000
1010
0010
0100
0001
,
1000
0010
0100
0001
0101
0000
0000
0001
,
1000
0100
0010
0001
1000
0010
1000
0001
,
0010
0001
0200
0000
0000
0320
2030
3000
,
0100
0010
0001
1000
0010
0100
0001
0010
,
0001
1000
0100
0020
0030
0000
0001
0100
,
0020
0030
1000
0010
0100
0001
1000
0100
,
0010
0001
1000
0100
0010
0001
0100
0010
,
1000
0000
1001
0000
1000
0001
0100
0001
,
0100
0000
1001
0000
0001
0010
0100
1000
,
0100
0010
0001
0000
0200
0000
0320
0000
,
0000
1030
0001
0010
0100
0000
0010
0001
,
1000
0100
1000
0001
0010
0001
1000
0100
1000
0001
0010
0001
1000
0001
1000
0001
0100
0001
1000
0100
0010
0001
0100
0010
,
1000
0001
0100
0010
1000
0100
1000
0001
0010
0001
0010
0100
1000
0001
1000
0010
0100
0001
0100
0010
1000
0001
1000
0100
,
1000
0100
0020
0000
0032
0000
0023
0000
,
0000
0130
1000
0001
0100
0000
0010
1000
,
0001
0100
0001
1000
0010
1000
0010
0100
0001
1000
0001
0010
0001
1000
0100
1000
0100
0010
0001
0010
0001
1000
0010
1000
,
0001
0100
0001
1000
0010
1000
0001
0010
0001
1000
0001
0100
0010
0100
0010
1000
0001
1000
0100
0010
0001
1000
0100
0010
,
0001
1000
0010
0100
0001
1000
0010
0100
0001
1000
0001
0100
0001
1000
0100
0010
0001
0010
0100
1000
0010
0100
0001
1000
,
0010
0100
0001
1000
0001
0010
0100
0000
0000
1000
0000
0000
0010
0000
0000
1000
0000
0000
0010
0000
0000
0100
0000
0000
,
0001
0000
1001
0000
0000
0001
0010
0001
,
0010
0100
1000
0100
1000
0000
0000
0001
,
1000
0010
0100
0001
0020
0000
0130
1000
,
0002
0023
0230
2300
,
3001
0100
0010
1000
0001
0100
0010
1000
0001
1000
0100
1000
0001
0000
0000
0100
0000
0000
0010
0000
0000
0100
0000
0000
,
0001
1000
0100
1000
0001
0010
0001
1000
0100
1000
0001
0100
0010
0000
0000
1000
0000
0000
0001
0000
0000
1000
0000
0000
,
0001
1000
0001
1000
0100
1000
0001
0010
0001
0010
0100
1000
0010
0000
0000
0100
0000
0000
0001
0000
0000
1000
0000
0000
,
0100
1000
0001
0010
0100
1000
0001
1000
0100
1000
0001
0010
0100
0000
0000
0010
0000
0000
0001
0000
0000
1000
0000
0000
,
0100
1000
0100
1000
0001
0010
0001
1000
0010
1000
0001
1000
0010
0000
0000
0100
0000
0000
0001
0000
0000
1000
0000
0000
,
0010
0100
0001
1000
0010
0100
0001
1000
0100
1000
0001
0010
0100
0000
0000
0010
0000
0000
0001
0000
0000
1000
0000
0000
,
0001
0100
0001
1000
0100
1000
0001
0010
0001
1000
0100
1000
0100
0000
0000
0010
0000
0000
0100
0000
0000
0010
0000
0000
,
0001
1000
0100
1000
0001
1000
0010
1000
0001
0010
0100
1000
0001
0000
0000
0010
0000
0000
0100
0000
0000
1000
0000
0000
,
0010
0000
1001
0000
1000
0010
0100
0001
,
1000
0001
0100
0000
1001
0000
1000
0100
,
0010
0001
1000
0001
0100
0000
0010
0000
,
1000
0000
0000
0010
0100
0001
0010
0100
,
0020
0000
0000
0000
0000
0000
0000
0000
0000
0000
0000
0000
0000
0000
0000
0000
0030
0000
0000
0000
0000
0000
0000
0000
0000
0000
0000
0000
0000
0000
0000
0000
0022
0000
0000
0000
0000
0000
0000
0000
0000
0000
0000
0000
0000
0000
0000
0000
0000
0000
0000
0000
0000
0000
0000
0000
0000
0000
0000
0000
0000
0000
0000
0033
,
2020
0000
0000
0000
3130
0001
0010
0001
,
1000
0010
0100
0000
0220
0000
0000
0000
,
2332
0000
0000
3103
0010
0100
0010
0100
,
0010
0000
1000
0000
0001
1000
0001
1000
,
0100
0000
1000
0000
1010
0010
0100
0001
,
0010
0001
0010
0100
1000
0000
0001
0100
,
0000
0000
0000
0001
0100
0010
1000
0100
,
0010
0000
1001
0000
0000
0001
1000
0001
,
1000
0010
0100
0001
1000
0000
1001
1000
,
0001
0010
0100
1000
0002
0000
1003
0010
,
0200
0302
2003
3020
,
0130
0001
0100
0001
1000
0010
0100
0001
1000
0010
0100
0001
1000
0001
1000
0100
0010
0001
1000
0100
0010
0001
1000
0001
,
0100
0001
1000
0010
0100
0001
1000
0001
0100
0001
1000
0010
0100
0001
1000
0100
0010
0001
1000
0100
0010
0001
0100
0001
,
1000
0010
0100
0001
1000
0010
1000
0001
0100
0001
1000
0010
0100
0001
0010
0100
1000
0100
1000
0001
0100
0001
1000
0010
,
0100
0001
0010
0100
1000
0001
1000
0000
0000
0010
0000
0000
0100
0000
0000
0001
0000
0000
0010
0000
0000
0100
0000
0000
,
1000
0000
0101
0000
0010
1000
0001
0010
,
0100
1000
0100
0010
0001
0000
1001
0001
,
1000
0100
0010
0001
0200
0000
0310
1000
,
0002
0023
0230
2300
,
3010
0100
0001
1000
0010
1000
0001
0100
0001
1000
0100
0010
0001
0000
0000
1000
0000
0000
0010
0000
0000
0100
0000
0000
,
0001
0010
0100
1000
0100
0010
0001
1000
0010
0100
0001
1000
0100
0000
0000
0010
0000
0000
0001
0000
0000
1000
0000
0000
,
0001
0010
0001
1000
0001
1000
0100
1000
0001
0100
0001
1000
0010
0000
0000
0100
0000
0000
0001
0000
0000
1000
0000
0000
,
0010
0100
0001
1000
0010
0100
0001
1000
0001
0100
0001
1000
0100
0000
0000
0010
0000
0000
0001
0000
0000
1000
0000
0000
,
0001
0100
0001
1000
0010
0100
0001
1000
0100
0010
0001
1000
0100
0000
0000
1000
0000
0000
0001
0000
0000
0100
0000
0000
,
0010
1000
0010
0100
0001
1000
0001
0010
0001
1000
0010
1000
0010
0000
0000
0100
0000
0000
0001
0000
0000
1000
0000
0000
,
0100
1000
0001
0010
0001
1000
0001
0010
0001
1000
0100
1000
0001
0000
0000
0100
0000
0000
0010
0000
0000
0100
0000
0000
,
0001
1000
0100
0010
0001
0010
0100
1000
0001
0100
0001
1000
0100
0000
0000
0010
0000
0000
0001
0000
0000
1000
0000
0000
,
0010
0100
0001
0100
0010
1000
0001
0100
0001
1000
0010
0100
0010
0000
0000
1000
0000
0000
0010
0000
0000
0100
0000
0000
,
0001
1000
0100
0010
0100
1000
0001
0010
0100
0010
0001
1000
0100
0000
0000
0010
0000
0000
0001
0000
0000
1000
0000
0000
,
0010
1000
0010
1000
0001
0100
0001
1000
0001
0010
0100
1000
0001
0000
0000
1000
0000
0000
0010
0000
0000
0100
0000
0000
,
0001
0010
0000
0100
0000
1000
0000
0010
,
0100
0001
1000
0001
0100
0001
1000
0010
1000
0010
0100
0001
1000
0001
0100
0001
1000
0001
0010
0100
1000
0001
0100
0001
,
1000
0010
0100
0010
1000
0010
0100
0010
1000
0001
0100
0001
1000
0100
0010
0001
1000
0100
0010
0001
0100
0001
1000
0001
,
0100
0010
1000
0010
0100
0001
0010
0100
1000
0100
0010
0001
0010
0100
1000
0001
0100
0001
1000
0000
0000
0100
0000
0000
,
0010
0001
1000
0010
0100
0001
1000
0001
,
0200
0300
0000
0000
;

//---------------dance-single - B. Vergara----------------
#NOTES:
     dance-single:
     B. Vergara:
     Medium:
     12:
     0.931,1.000,0.129,0.242,0.925,1242.000,26.000,49.000,32.000,3.000:
0000
0000
0000
0000
,
M000
0M00
00M0
000M
M000
0M00
00M0
000M
,
0M00
00M0
M000
000M
0M00
00M0
M000
000M
,
0M00
000M
M000
00M0
0M00
000M
00M0
M000
,
0M00
00M0
000M
M000
00M0
0M00
000M
00M0
,
1000
0010
0100
0001
1000
0010
0100
0001
,
0010
0100
1000
0001
0010
0100
1000
0001
,
0100
0010
0100
0001
0100
0010
1000
0100
,
0010
0001
1000
0000
0010
0100
0001
0010
,
0100
0000
1001
0000
1000
0010
0100
0001
,
0010
0100
1000
0000
1100
0100
0010
0001
,
1000
0010
1000
0001
0010
0000
0001
0100
,
0010
1000
0100
0010
0011
0001
1000
0010
,
0100
0001
1000
0001
0100
0001
1000
0010
,
1000
0100
0010
0001
0010
0001
0100
0010
,
2000
0000
3001
0010
0200
0000
1300
0010
,
0100
0001
0010
0000
0001
1000
0010
0100
,
0001
0000
1000
0000
0010
0100
0000
0100
,
0001
0010
0000
0100
1000
0001
0100
0010
,
1000
0000
0001
0010
0001
1000
0000
0010
,
0200
0302
0023
0230
2300
0000
3020
0000
,
0130
0000
0001
0010
0100
1000
0010
0100
,
0001
0001
1000
0100
1000
0010
0100
0001
,
0010
0001
0100
0010
1000
0100
0010
0001
,
1000
0001
0100
0010
1000
0100
1000
0010
,
0100
0000
1001
0000
1000
0001
0100
0010
,
0100
0000
1001
0000
1000
0001
1000
0100
,
0010
0001
0100
0000
0020
0000
2030
0000
,
0000
3001
0100
0001
1000
0000
0010
1000
,
0010
1000
0001
0100
0001
1000
0010
0100
0001
1000
0100
0010
0001
1000
0100
0010
,
0100
1000
0001
0010
0100
1000
0001
0100
0001
1000
0010
0100
0001
1000
0100
1000
,
0001
0100
0001
1000
0010
0100
0001
1000
0001
0010
0100
1000
0001
0010
0100
1000
,
0001
0100
0001
1000
0010
0100
0001
0100
0001
1000
0010
1000
0001
0100
0001
1000
,
0100
1000
0010
1000
0001
0010
0001
1000
0010
0100
0001
1000
0001
0010
0100
1000
,
0001
0100
0001
1000
0010
0100
0001
0010
0100
1000
0100
0010
0100
0010
0001
0100
,
0001
1000
0010
0100
0001
1000
0001
0010
0100
1000
0010
0100
0001
1000
0010
0100
,
0001
1000
0100
0010
0001
0000
1000
0000
0010
0000
0100
0000
0001
0000
0010
0000
,
0100
0000
1001
0000
0000
1000
0010
0100
,
0001
0010
0100
1000
0010
0000
0000
1000
,
0010
0100
0001
0010
0200
0000
1300
0010
,
0200
0302
0023
0230
,
1300
0001
0100
0001
1000
0100
1000
0010
1000
0001
0100
0001
1000
0010
0100
0001
,
0010
0100
1000
0001
0100
0001
1000
0010
0100
0001
0010
0100
1000
0100
0010
0001
,
1000
0010
0100
0001
1000
0010
0100
0010
1000
0001
0010
0100
1000
0100
0010
0001
,
0100
0001
1000
0010
0100
0001
1000
0001
0010
0100
1000
0100
0010
0001
0100
0001
,
1000
0001
0100
0001
1000
0010
0100
0001
1000
0100
0010
0001
0100
0001
1000
0001
,
0100
0010
1000
0010
0100
0010
1000
0001
0010
0100
1000
0001
1000
0100
1000
0001
,
0100
0001
1000
0010
0100
0001
1000
0001
0010
0001
1000
0010
1000
0001
0010
0100
,
1000
0001
0100
0001
1000
0010
0100
0001
1000
0000
0001
0000
0010
0000
0100
0000
,
1000
0000
1100
0000
0001
0100
0010
1000
,
0100
0010
0001
0000
0101
0001
1000
0010
,
0100
0001
0010
0100
1000
0010
0000
0100
,
0001
1000
0100
0010
0110
0100
1000
0001
,
0100
0000
0010
1000
0001
0000
0010
0001
,
1000
0000
0200
0000
0310
0001
0100
0010
,
1000
0010
1000
0001
0100
0000
0001
1000
,
0100
2000
0000
0000
3010
0100
0001
0010
,
0001
0100
0010
1000
1010
0010
0100
0001
,
0010
0100
1000
0001
0101
0000
0000
0001
,
1000
0100
0010
0001
1000
0010
1000
0001
,
0010
0001
0200
0000
0000
0320
2030
3000
,
0100
0010
0001
1000
0010
0100
0001
0010
,
0001
1000
0100
0020
0030
0000
0001
0100
,
0020
0030
1000
0100
0010
0001
1000
0010
,
0100
0001
1000
0100
0010
0001
0100
0010
,
1000
0000
1001
0000
1000
0100
0010
0001
,
0100
0000
1001
0000
1000
0010
0100
0001
,
0100
0010
1000
0000
0200
0000
0320
0000
,
0000
0031
1000
0010
0100
0000
0010
1000
,
0001
0010
0100
1000
0001
0100
0001
1000
0001
1000
0010
0100
0001
1000
0010
0100
,
0010
1000
0001
0100
0001
1000
0100
0010
0001
1000
0010
0100
0001
1000
0001
0100
,
0001
1000
0010
0100
0001
0010
0100
1000
0100
0010
0001
1000
0010
0100
0001
0100
,
0001
1000
0010
1000
0001
0010
0001
0100
0001
1000
0100
0010
0001
0100
0001
1000
,
0010
0100
0001
1000
0100
1000
0010
0100
0001
1000
0001
0010
0100
1000
0100
0010
,
0001
0100
0010
1000
0001
0100
0001
1000
0010
0100
0001
0010
0100
1000
0100
0010
,
0001
1000
0010
0100
0001
0100
0001
1000
0010
1000
0001
0010
0001
1000
0100
1000
,
0001
0100
0001
1000
0100
0000
1000
0000
0010
0000
1000
0000
0010
0000
0100
0000
,
0001
0000
1001
0000
0000
1000
0010
1000
,
0010
0100
0001
0100
0001
0000
0000
1000
,
0001
0010
0100
1000
0020
0000
0130
0001
,
2000
3020
0230
0302
,
1003
0100
1000
0001
0100
0001
1000
0001
0100
0001
1000
0010
0100
0001
1000
0010
,
0100
0001
1000
0001
0010
0100
1000
0001
0100
0001
1000
0010
0100
0001
1000
0001
,
0010
0100
1000
0001
0010
0100
1000
0001
0100
0001
1000
0010
0100
0001
1000
0001
,
0010
0100
1000
0100
0010
0001
1000
0010
0100
0001
1000
0001
0100
0001
1000
0010
,
1000
0001
1000
0001
0100
0001
1000
0010
0100
0001
1000
0001
0010
0100
1000
0001
,
0010
0100
0010
0001
1000
0001
0100
0001
1000
0010
1000
0010
0100
0001
1000
0001
,
0010
0001
1000
0010
1000
0001
0100
0001
1000
0100
1000
0001
0100
0001
0100
0001
,
1000
0010
0100
0001
1000
0001
0010
0100
1000
0000
0010
0000
0100
0000
0001
0000
,
0010
0000
0011
0000
1000
0010
0100
0001
,
1000
0001
0100
0000
1001
0000
1000
0100
,
0010
0001
1000
0001
0100
0000
0010
0000
,
1000
0000
0000
0010
0100
0001
0010
0100
,
0020
0000
0000
0000
0000
0000
0000
0000
0000
0000
0000
0000
0000
0000
0000
0000
0030
0000
0000
0000
0000
0000
0000
0000
0000
0000
0000
0000
0000
0000
0000
0000
0022
0000
0000
0000
0000
0000
0000
0000
0000
0000
0000
0000
0000
0000
0000
0000
0000
0000
0000
0000
0000
0000
0000
0000
0000
0000
0000
0000
0000
0000
0000
0033
,
2020
0000
0000
0000
3130
0001
0010
0001
,
1000
0010
0100
0000
2020
0000
0000
0000
,
3232
0000
0000
1303
0010
0100
0001
0010
,
0100
0000
0010
0000
0001
1000
0001
1000
,
0100
0000
1000
0000
1010
0010
0100
0001
,
0010
0001
0010
0100
1000
0000
0010
0100
,
0000
0000
0000
0001
0100
0010
1000
0100
,
0010
0000
0110
0000
0000
0001
1000
0001
,
1000
0010
0100
0001
0010
0000
0110
0010
,
0001
1000
0010
0100
0002
0000
1003
0100
,
0020
0032
2003
3020
,
0130
0001
1000
0010
0100
0001
1000
0001
0100
0001
0100
0001
1000
0010
0100
0001
,
1000
0001
0010
0100
1000
0001
0010
0100
0010
0001
1000
0100
0010
0001
1000
0010
,
0100
0001
1000
0001
0100
0001
1000
0010
0100
0001
1000
0010
0100
0001
1000
0001
,
0100
0001
1000
0010
1000
0000
0010
0000
0100
0000
0001
0000
0010
0000
0100
0000
,
1000
0000
0101
0000
0010
1000
0001
0010
,
0100
1000
0100
0010
0001
0000
1001
0001
,
1000
0100
0010
0001
0200
0000
0310
1000
,
0002
0023
0230
2300
,
3010
0100
0001
1000
0001
0100
0001
1000
0010
0100
0001
1000
0001
0100
0001
1000
,
0100
0010
0001
1000
0010
0100
0001
1000
0001
0100
0001
0010
0100
1000
0100
0010
,
0001
1000
0010
0100
0001
1000
0001
0100
0001
1000
0010
1000
0001
0010
0001
1000
,
0001
0100
0010
1000
0100
0010
0001
1000
0100
0010
0001
0100
0001
1000
0010
0100
,
0001
0010
0100
1000
0100
0010
0001
1000
0010
0100
0001
1000
0001
0100
0001
1000
,
0010
1000
0001
0010
0001
1000
0010
0100
0001
1000
0001
0010
0100
1000
0100
0010
,
0001
1000
0010
0100
0001
1000
0010
0100
0010
1000
0010
0100
0001
1000
0001
0100
,
0001
1000
0001
0010
0001
1000
0010
0100
0010
1000
0010
0100
0001
1000
0001
0100
,
0001
1000
0001
0010
0100
1000
0100
1000
0001
0100
0001
1000
0010
1000
0001
0010
,
0001
1000
0010
0100
0001
1000
0001
0010
0001
1000
0001
0100
0001
1000
0010
0100
,
0001
1000
0010
0100
0001
1000
0001
0010
0100
1000
0001
0100
0010
1000
0001
0100
,
0001
0010
0000
0100
0000
1000
0000
0010
,
0100
0010
1000
0001
0100
0001
1000
0010
0100
0001
1000
0001
0100
0001
1000
0001
,
1000
0001
1000
0010
0100
0001
1000
0001
0010
0100
1000
0100
0010
0001
1000
0010
,
1000
0001
1000
0001
1000
0001
1000
0001
1000
0001
1000
0001
1000
0000
0000
0010
0000
0000
0110
0000
0000
0100
0000
0000
,
0001
0010
0100
1000
0100
0010
0001
1000
,
0200
0300
0000
0000
;

//---------------dance-single - B. Vergara----------------
#NOTES:
     dance-single:
     B. Vergara:
     Easy:
     9:
     0.662,0.639,0.124,0.267,0.000,858.000,25.000,54.000,32.000,3.000:
0000
0000
0000
0000
,
M000
0M00
00M0
000M
M000
0M00
00M0
000M
,
0M00
00M0
M000
000M
0M00
00M0
M000
000M
,
0M00
000M
M000
00M0
0M00
000M
00M0
M000
,
0M00
00M0
000M
M000
00M0
0M00
000M
00M0
,
1000
0001
0100
0001
0010
0100
1000
0001
,
1000
0010
1000
0001
1000
0001
0100
0010
,
1000
0010
0100
0001
1000
0100
0010
0001
,
0100
0001
1000
0000
0010
1000
0100
0010
,
0100
0000
1100
0000
1000
0010
0100
0010
,
1000
0001
1000
0000
1001
0001
0010
0001
,
1000
0100
0010
0001
1000
0000
0001
0100
,
0010
1000
0100
0010
0011
0001
1000
0100
,
1000
0001
0100
0001
1000
0010
0100
0001
,
1000
0100
0010
0001
1000
0001
0100
0010
,
0200
0000
0301
0010
0200
0000
1300
0010
,
0100
0001
0010
0000
0001
0010
0100
1000
,
0001
0000
1000
0000
0010
0100
0000
0100
,
0001
0010
0000
0100
1000
0001
0100
0010
,
1000
0000
0001
1000
0001
1000
0000
0010
,
0200
0302
2003
3020
0230
0000
0320
0000
,
1030
0000
0001
1000
0010
0100
0001
0100
,
0001
0001
1000
0010
1000
0010
0100
0001
,
1000
0001
0100
0010
1000
0100
0010
0001
,
1000
0001
0100
0010
1000
0010
1000
0001
,
0100
0000
1001
0000
1000
0001
1000
0010
,
0100
0000
1001
0000
1000
0100
1000
0001
,
0010
0001
0100
0000
0002
0000
2003
0000
,
0000
3001
0100
0001
1000
0000
0010
1000
,
0010
0100
0001
1000
0001
0100
0001
1000
,
0010
0100
0001
0010
0100
1000
0001
0100
,
0010
0100
0020
0000
2030
0000
3200
0000
,
0000
0310
0001
1000
0010
0000
0010
1000
,
0001
1000
0010
1000
0010
0100
0001
0100
,
0001
1000
0001
0010
0100
1000
0100
0010
,
0001
1000
0010
1000
0001
0100
0001
0010
,
0100
1000
0001
1000
0010
0100
0001
0010
,
0100
0000
1001
0000
0000
1000
0010
0100
,
0001
0010
0100
1000
0010
0000
0000
1000
,
0010
0100
0001
0010
0200
0000
1300
0010
,
0200
0302
0023
0130
,
1000
0001
1000
0100
1000
0001
0010
0100
,
1000
0001
0010
0100
1000
0010
0100
0001
,
0100
0010
1000
0001
1000
0100
1000
0001
,
0010
0100
1000
0010
0100
0001
0100
0010
,
1000
0001
1000
0100
1000
0001
0010
0100
,
1000
0010
0100
0001
0100
0010
1000
0001
,
0010
0100
1000
0001
1000
0100
0010
0001
,
1000
0001
0010
0100
1000
0010
0100
0001
,
1000
0000
1100
0000
0001
1000
0010
1000
,
0100
1000
0001
0000
0101
0001
1000
0010
,
1000
0010
0100
0001
1000
0001
0000
0100
,
0001
1000
0100
0010
0110
0100
1000
0001
,
0100
0000
0010
1000
0001
0000
0010
0001
,
1000
0000
0200
0000
0310
0001
0100
0010
,
1000
0001
1000
0001
0100
0000
0001
1000
,
0001
2000
0000
0000
3010
0100
0001
0010
,
0001
0100
0010
1000
1010
0010
0100
0001
,
1000
0010
0100
0001
0101
0000
0000
0001
,
1000
0100
0010
0001
1000
0010
1000
0001
,
0010
0001
0200
0000
0000
0320
2030
3000
,
0100
0010
0001
1000
0010
0100
0001
0010
,
0001
1000
0100
0020
0030
0000
0001
0100
,
0020
0030
1000
0010
0100
0001
1000
0100
,
0010
0001
1000
0100
0010
0001
0100
0010
,
1000
0000
1001
0000
1000
0001
0100
0001
,
0100
0000
1001
0000
0001
0010
0100
1000
,
0100
0010
0001
0000
0200
0000
0320
0000
,
0000
1030
0001
0010
0100
0000
0010
0001
,
1000
0010
1000
0010
0100
0001
1000
0001
,
0010
0100
1000
0100
0010
0001
1000
0010
,
1000
0100
0020
0000
0032
0000
0023
0000
,
0000
0130
1000
0001
0100
0000
0010
1000
,
0001
0100
0001
1000
0001
1000
0010
0100
,
0001
1000
0001
0010
0100
1000
0001
0100
,
0001
1000
0010
0100
0001
0010
0100
1000
,
0001
0100
0010
1000
0010
1000
0001
0100
,
0001
0000
1001
0000
0000
0001
0010
0001
,
0010
0100
1000
0100
1000
0000
0000
0001
,
1000
0010
0100
0001
0020
0000
0130
1000
,
0002
0023
0230
2300
,
3001
0100
0001
1000
0001
1000
0010
1000
,
0001
1000
0001
0010
0100
1000
0001
0100
,
0001
1000
0010
1000
0001
0100
0001
1000
,
0001
0010
0100
1000
0001
0010
0001
1000
,
0010
1000
0001
0100
0001
1000
0100
1000
,
0010
0100
0001
0010
0100
1000
0100
0010
,
0001
1000
0010
0100
0001
1000
0010
1000
,
0001
0100
0001
1000
0010
0100
0001
1000
,
0010
0000
1001
0000
1000
0010
0100
0001
,
1000
0001
0100
0000
1001
0000
1000
0100
,
0010
0001
1000
0001
0100
0000
0010
0000
,
1000
0000
0000
0010
0100
0001
0010
0100
,
0020
0000
0000
0000
0000
0000
0000
0000
0000
0000
0000
0000
0000
0000
0000
0000
0030
0000
0000
0000
0000
0000
0000
0000
0000
0000
0000
0000
0000
0000
0000
0000
0022
0000
0000
0000
0000
0000
0000
0000
0000
0000
0000
0000
0000
0000
0000
0000
0000
0000
0000
0000
0000
0000
0000
0000
0000
0000
0000
0000
0000
0000
0000
0033
,
2020
0000
0000
0000
3130
0001
0010
0001
,
1000
0010
0100
0000
0220
0000
0000
0000
,
2332
0000
0000
3103
0010
0100
0010
0100
,
0010
0000
1000
0000
0001
1000
0001
1000
,
0100
0000
1000
0000
1010
0010
0100
0001
,
0010
0001
0010
0100
1000
0000
0001
0100
,
0000
0000
0000
0001
0100
0010
1000
0100
,
0010
0000
1001
0000
0000
0001
1000
0001
,
1000
0010
0100
0001
1000
0000
1001
1000
,
0001
0010
0100
1000
0002
0000
1003
0010
,
0200
0302
2003
3020
,
0130
0001
1000
0001
1000
0010
1000
0001
,
0010
0100
1000
0010
0100
0010
1000
0100
,
0010
0001
1000
0010
0100
0001
1000
0001
,
0100
0010
1000
0010
0100
0001
0010
0100
,
1000
0000
0101
0000
0010
1000
0001
0010
,
0100
1000
0100
0010
0001
0000
1001
0001
,
1000
0100
0010
0001
0200
0000
0310
1000
,
0002
0023
0230
2300
,
3010
0100
0001
1000
0001
1000
0010
0100
,
0001
1000
0010
1000
0001
0010
0100
1000
,
0001
0100
0001
1000
0010
0100
0001
1000
,
0001
0010
0100
1000
0001
0100
0001
1000
,
0010
1000
0001
0010
0100
1000
0001
0100
,
0001
1000
0010
0100
0001
1000
0010
0100
,
0001
1000
0001
0010
0001
1000
0100
1000
,
0001
0100
0001
1000
0010
0100
0001
1000
,
0001
0010
0001
0010
0100
1000
0001
0100
,
0001
1000
0010
0100
0010
1000
0001
0100
,
0001
0010
0100
1000
0001
1000
0010
0100
,
0001
0010
0000
0100
0000
1000
0000
0010
,
0100
0001
1000
0010
1000
0001
0010
0001
,
0010
0100
1000
0001
0100
0001
1000
0010
,
0100
0100
0001
0001
1000
1000
0010
0010
,
1000
0001
0010
0100
1000
0001
1000
0001
,
0200
0300
0000
0000
;
